#TITLE:Recommended Spell;
#SUBTITLE:;
#ARTIST:Miku Hatsune;
#TITLETRANSLIT:;
#SUBTITLETRANSLIT:;
#ARTISTTRANSLIT:;
#GENRE:;
#CREDIT:Ace Of Hearts;
#BANNER:Recommended Banner.png;
#BACKGROUND:Recommended Background.jpg;
#LYRICSPATH:;
#CDTITLE:Ace Of Hearts.png;
#MUSIC:Recommended Spell.ogg;
#OFFSET:0.560;
#SAMPLESTART:51.400;
#SAMPLELENGTH:20.000;
#SELECTABLE:YES;
#BPMS:0.000=195.000;
#STOPS:;
#BGCHANGES:;
#FGCHANGES:;
#KEYSOUNDS:;

//---------------dance-single - Expert----------------
#NOTES:
     dance-single:
     Ace Of Hearts (2014):
     Challenge:
     13:
     1.000,0.794,0.455,1.000,0.390:
0000
0000
0000
0000
,
0000
0000
0000
0000
,
0201
0000
0000
0300
0120
1M30
0001
0200
,
0000
0310
1000
0001
0021
013M
1000
0002
,
0000
1003
0010
0100
0120
1M30
0000
1000
,
0001
0010
0000
0010
0210
13M0
0001
0200
,
0000
0000
0302
0000
2003
0000
0000
3000
1200
0000
M320
0000
0000
0000
0230
0000
,
0000
1300
0001
0100
0120
1M30
0001
2000
,
0000
3001
0010
0100
1100
0MM0
0002
0000
,
0013
0100
0010
0002
0000
1003
0010
0100
,
0202
0000
0010
0303
2002
3003
1020
0000
,
0230
0000
0301
1000
0010
2000
0000
3002
,
0000
0013
0100
0100
0010
0001
1000
0010
,
0100
0001
1000
0100
0010
0100
1000
0004
,
MM00
0000
0000
0000
1003
0100
0010
0100
1000
0000
00MM
0000
2000
0000
0000
0000
,
3001
0100
0010
0100
0001
1000
0MM0
0200
,
0000
0310
0001
1000
0001
0010
0100
0010
,
0001
1000
0010
0100
0040
0000
0130
0004
,
0000
0000
1003
0010
0100
0001
0100
0010
1000
0000
0001
0000
0010
M00M
0010
0000
,
1000
0000
0001
0000
1000
0000
0001
0000
0100
M00M
0100
0000
1000
0000
0002
0000
,
M000
0023
0M00
2030
000M
3020
0M00
0032
,
M000
0000
2003
0000
0000
0000
3010
0000
0100
M00M
0100
0000
1000
0000
0002
0000
,
0000
0000
0103
0000
0010
0000
2000
0000
0000
0000
3001
0000
0010
M00M
0010
0000
,
0200
0000
0000
0000
0301
0000
0100
0000
0010
M00M
0010
0000
0100
M00M
0100
0000
,
0001
1000
0200
0000
0310
0001
1000
0002
,
0000
0000
1003
0000
0020
0000
0130
0001
0200
0000
0010
0000
0000
0000
0301
0000
,
0000
0000
1000
0100
1000
0000
1002
0000
0000
0000
1003
0000
0010
M00M
0010
0000
,
0001
0000
1000
0000
0001
0000
0200
0000
0000
0000
0310
0000
0100
M00M
0100
0000
,
2000
0000
0000
0000
3020
0000
0230
0000
0000
0000
0301
0000
0010
M00M
0010
0000
,
0100
M00M
0100
0000
0010
0000
0001
0000
1000
0000
0010
0000
0100
0000
0002
0000
,
0000
0000
1003
0000
0010
0000
0100
0000
0210
0000
0301
0000
0010
M00M
0010
0000
,
1000
0000
0200
0000
0000
0000
1300
0000
0100
M00M
0100
0000
0001
0000
0020
0000
,
0000
0130
1000
0002
0000
1003
0200
0000
,
0310
0000
0001
0000
1000
0000
0010
0100
0010
0000
1000
0000
0001
0000
1000
0010
,
0100
0010
1000
0000
0001
0100
0010
0100
0002
0000
0000
0000
2003
0000
0000
0000
,
3010
0200
0000
0302
0000
0013
2000
0000
,
3020
0000
0031
1000
0100
0001
0100
1000
,
0002
1003
0000
0040
0000
0100
0100
0000
,
1000
0000
0000
0000
1030
0001
1000
0000
1200
0000
0000
0000
0320
0000
0000
0000
,
2030
0000
3010
0001
2000
0000
3010
0002
,
0000
0023
0000
1030
0200
0000
0310
0002
,
0000
1003
0000
2200
0300
0001
0001
0000
,
3400
0000
0000
0300
0120
0000
0030
0000
0022
0000
0033
0000
00MM
0000
0MM0
0000
,
2002
3MM3
10MM
1020
0M0M
M130
0001
0MM0
,
2002
0M00
3003
100M
12M0
0000
M310
0000
,
0M12
0000
10M3
1020
000M
M030
02M0
0300
,
01M2
0000
0M03
000M
2001
300M
M100
012M
,
0M30
00M2
M003
10M0
010M
M010
010M
20M0
,
0000
0000
3002
0000
0000
0000
0103
0000
0010
M00M
0010
0000
0100
M00M
0100
0000
,
0010
M00M
0010
0000
0001
0000
2000
0000
0000
0000
3000
0000
0002
0000
0000
0000
,
0013
0100
1000
0100
0020
0000
0000
0030
0012
0000
0000
0000
2003
0000
0000
3000
,
1020
0000
0000
0000
0130
0000
0102
0000
0000
0000
1003
0000
0020
0000
0000
0030
,
0210
0000
0000
0000
0300
0000
0001
0000
2001
0000
0000
0000
3002
0000
0000
0003
,
0021
0000
0130
2100
0000
3001
0100
0020
,
0000
0000
0130
0001
1000
0001
0100
0000
0120
0000
0000
0000
1030
0000
0001
0000
,
0010
0100
0010
0001
2001
0000
3001
0100
,
0010
1000
0010
0100
0101
0000
2001
0000
,
3100
0010
0100
2000
0000
3001
0100
0010
,
100M
0000
00M0
0000
0M01
0010
M001
0000
10M0
0100
100M
0100
M020
0000
0M32
0000
,
20M3
0000
3M20
0000
023M
0000
0000
0300
0102
0000
1003
0000
0010
M00M
0010
0000
,
0001
0000
1000
0000
0100
M00M
0100
0000
0010
0000
1000
0000
0100
0000
0002
0000
,
0000
0003
0001
0000
0100
0000
2000
0000
0000
0000
3001
0000
0100
M00M
0100
0000
,
1000
0000
0001
0000
2000
0000
0000
0000
3010
M00M
0010
0000
0001
0000
0200
0000
,
0000
0000
0310
0000
1000
0000
0001
0000
0021
0000
0130
0000
0010
M00M
0010
0000
,
0100
M00M
0100
0000
1000
0000
0100
0000
0120
0000
0000
0000
0031
0000
2001
0000
,
0000
3010
0100
1000
0100
0002
0000
0013
,
0100
M00M
0100
0000
0010
0000
1000
0001
1000
0000
0010
0000
0100
0000
0002
0000
,
0000
0000
1003
0100
0010
0100
1000
0000
1002
0000
0103
0000
0010
M00M
0010
0000
,
0100
0000
1000
0000
0100
M00M
0100
0000
0002
0000
0000
0000
1003
0000
0020
0000
,
0000
0000
1030
0000
0001
0000
0010
0000
0100
M00M
0100
0000
0010
M00M
0010
0000
,
0100
M00M
0100
0000
0001
0000
2000
0000
0000
0000
0000
0000
3001
0000
0001
0000
,
0100
0010
0010
1000
1002
0023
0000
0031
,
0100
M00M
0100
0000
1000
0000
0001
0000
0200
0000
0000
0000
0301
0000
0010
0000
,
0100
M00M
0100
0000
0010
M00M
0010
0000
0001
0000
0010
0000
1000
0000
0010
0000
,
0001
0000
1000
0000
0010
0100
0001
0100
0020
0000
0000
0000
1030
0000
0001
0000
,
1000
0010
0100
0010
2000
0000
3001
0000
0200
0000
0000
0000
0320
0000
0000
0000
,
1030
0000
0002
0000
0000
0003
0201
0000
0000
0000
1300
0000
0200
0000
0000
0000
,
0302
0000
1003
0001
1000
0100
0001
0100
,
1000
0002
0000
0403
0000
0010
0010
0000
,
0001
0000
0000
0000
0310
0100
0010
0100
0020
0000
0000
0000
2030
0000
0000
0000
,
3200
0000
0301
0100
2000
0000
3001
0200
,
0000
0320
0000
1030
0002
0000
1003
0020
,
0000
0130
0000
0202
0300
1000
1000
0000
,
0403
0000
0000
0300
0220
0000
0330
0000
2010
0000
00M0
0000
3MM1
0000
M000
0000
,
02M1
000M
M310
2M10
000M
30M1
0M10
00M0
,
M21M
00M0
000M
1300
10M2
M000
10M3
0100
,
002M
M000
0M31
20M0
000M
00M0
3M20
M030
,
021M
00M0
M300
00M0
M102
00M3
1M00
120M
,
M300
0M20
003M
00M1
10M0
01M0
10M0
00M1
,
0000
0000
2000
0000
0000
0000
3100
0000
0010
M00M
0010
0000
0100
M00M
0100
0000
,
0010
M00M
0010
0000
0100
0000
0001
0000
0100
0000
0010
0000
1000
0000
0002
0000
,
0013
0100
0010
0000
0001
0000
1000
0000
1200
0000
0000
0000
0302
0000
0000
0000
,
0203
0000
1300
1002
0000
0103
0010
0000
,
2010
0000
0000
3001
0021
0000
0130
1000
,
0002
0000
0000
0000
0203
0000
0000
0300
0120
0000
1030
0000
0001
0000
0020
0000
,
0000
0000
0130
1000
0001
1000
0100
0000
0020
0000
0000
0000
0032
0000
0000
0000
,
1003
0010
0M02
M000
0M23
0000
1030
0001
,
0010
1000
0010
0200
0000
0300
0120
0000
,
0031
1000
0010
0200
0000
0000
0302
0003
,
0001
0000
0010
0000
0001
1000
0001
0000
0040
0000
0000
0000
0130
0000
1000
0000
,
0001
0001
0100
M010
0M00
10M0
0M00
M002
,
0000
0000
1003
0000
0200
0000
0320
0000
0000
0000
0031
0010
0200
0000
1300
0000
,
0002
0103
0020
1030
0002
0103
0010
0200
,
0300
0M02
0000
0103
0020
1030
0002
0013
,
0200
2300
3000
M002
0000
0103
0020
1030
,
0002
1003
0200
0310
0002
1003
0200
0310
,
0002
0000
1003
0000
0020
0000
0230
0000
0000
0000
0301
0000
1000
0100
0020
0000
,
0032
1003
0020
1030
0002
0013
0200
1300
,
0002
0103
0020
1030
0002
0000
0023
0130
,
4000
0000
3002
0103
0020
0130
0002
1003
,
0200
0310
0200
2300
0000
3001
0200
0310
,
2000
3001
0010
0400
0000
0000
1300
00M0
,
0M02
M013
0M00
02M0
0000
1300
0000
0004
,
0000
0000
1003
0000
0010
0100
0001
0000
2000
0000
3100
0000
0020
0000
0130
0000
,
2000
0000
3001
0000
0200
0000
0320
0000
003M
0000
10M0
0000
0001
0010
0100
0010
,
0001
0000
1000
0010
1000
0010
1000
0010
1000
0001
1000
0001
1000
0001
1000
0001
,
0020
0000
0130
0000
1000
0100
2000
0000
3001
0100
0002
0000
0103
0010
0200
0000
,
0304
0000
0000
0000
2003
0000
3001
0010
0100
1000
0100
1000
0100
1000
0100
1000
,
0001
0100
0001
0100
0001
0100
0001
0100
0010
1000
0010
1000
0010
1000
0010
1000
,
0001
0010
0001
0010
0100
1000
0100
1000
0001
0100
0001
0100
0010
1000
0010
1000
,
0020
0000
0130
0001
0100
0001
0100
0001
1000
0001
1000
0001
0010
0100
0010
0100
,
0010
0001
0010
0001
0020
0000
0130
1000
0200
0000
0310
0001
0020
0000
0130
0010
,
0200
0000
1300
0001
1000
0010
1000
0010
0100
0001
0100
0001
1000
0010
1000
0010
,
0100
0001
0100
0001
2000
0000
0000
0000
3001
0010
0001
0010
0100
1000
0100
1000
,
0001
0100
0001
0100
0010
0100
0010
0100
0001
1000
0001
1000
0002
0000
0013
0100
,
0020
0000
0031
1000
0002
0000
1003
0010
1000
0001
1000
0001
0010
0001
0010
0001
,
2000
0000
3010
0100
0020
0000
1030
0001
2000
0000
3001
0010
0002
0000
1003
0010
,
1000
0010
1000
0010
0200
0000
0000
0000
0302
0000
0000
0000
0000
0000
4003
0000
,
0000
3001
0100
0020
0000
0130
0001
1000
,
0200
0000
0310
0000
0002
0000
0013
0100
0040
0000
0000
0000
0032
0000
1003
0000
,
0020
0130
0002
2003
0000
3001
0010
0200
,
0000
0000
0000
0000
0300
0000
0000
0000
1100
0000
0000
0000
1002
0000
0000
0003
,
0101
0100
0110
0000
1010
1000
0001
0011
,
0000
0000
0010
0100
1000
0100
0010
0100
200M
0000
00M0
0000
3M00
0000
M000
0000
,
0M02
00M0
0M13
200M
00M0
3M10
M001
00M0
,
2M02
00M0
3M03
100M
0M10
M000
00M1
000M
,
0M20
M000
103M
0M02
M000
00M0
M013
000M
,
02M0
M000
030M
00M0
210M
3M00
00M1
M201
,
030M
0M20
M000
103M
1M01
00M1
M010
021M
,
0000
0000
2300
0000
0000
0000
3001
0000
0100
M00M
0100
0000
0010
M00M
0010
0000
,
0100
M00M
0100
0000
0001
0000
2000
0000
0000
0000
3100
0000
0002
0000
0000
0000
,
0103
1000
0001
1000
0200
0000
0000
0300
0120
0000
0000
0000
0032
0000
0000
0003
,
0201
0000
0000
0000
0310
0000
0012
0000
0000
0000
0013
0000
2000
0000
0000
3000
,
1200
0000
0000
0000
0300
0000
0010
0000
0012
0000
0000
0000
2003
0000
0000
3000
,
1200
0000
0310
0012
0000
1003
0010
0210
,
0301
0100
0001
0000
1000
0010
1000
0000
1002
0000
0000
0000
0103
0000
0010
0000
,
1000
0100
0001
0100
2000
0000
3001
0100
,
0010
0000
1000
0000
0001
0000
1000
0000
1200
0000
0000
0300
0120
0000
0000
0000
,
0031
0000
1000
0000
0010
0000
0200
0000
0000
0000
0301
0000
2001
0000
0000
3000
,
11MM
0000
0000
0000
MM01
0010
0100
0010
0001
0000
0000
0000
2001
0000
0000
0000
,
3002
0013
2000
3010
0M11
00M1
000M
02M1
,
0000
0310
1000
1000
0002
0013
2000
3010
,
0002
1003
0020
0130
0002
1003
0010
0400
,
0000
0000
0301
0000
1000
0010
0100
0010
1000
0000
0000
0000
1002
0000
0000
0000
,
1003
0010
0001
0010
1010
10M0
0M00
M002
,
0M00
10M3
0001
0100
0001
0010
1000
0010
,
0001
1000
0010
0001
0010
1000
0001
0400
,
0000
0000
0301
0100
0010
0100
0001
0000
20M1
0000
3100
0000
0010
0000
0200
0000
,
0000
1300
0001
0100
M120
1030
0001
0020
,
0000
0130
1000
0001
02M1
0310
0000
1000
,
0001
0200
0300
0010
2M10
3001
0010
0200
,
0000
0000
2300
0000
3002
0000
0000
0003
0101
0000
0200
0000
0000
0000
2300
0000
,
00MM
3100
0001
1000
0100
0010
0001
2000
,
0000
3010
0001
0010
1000
00M0
M002
0000
,
0013
1000
0010
0002
0000
1003
0010
0100
,
0001
0000
2002
0000
0000
0000
0000
3003
;

//---------------dance-single - Hard----------------
#NOTES:
     dance-single:
     Ace Of Hearts (2014):
     Hard:
     10:
     0.755,0.595,0.086,0.971,0.033: // measure 1
0000
0000
0000
0000
,  // measure 2
0000
0000
0000
0000
,  // measure 3
2000
0000
0000
0000
3001
0010
0001
2000
,  // measure 4
0000
3001
0100
0010
0100
0001
1000
0002
,  // measure 5
0000
1003
0100
1000
0001
1000
0000
0001
,  // measure 6
0010
0100
0000
0010
0001
0010
0100
2000
,  // measure 7
0000
3001
0200
0000
0310
2000
0000
3002
,  // measure 8
0000
1003
0100
0010
0100
1000
0001
2000
,  // measure 9
0000
3001
0100
0010
0100
0000
0002
0000
,  // measure 10
1003
0100
0010
0200
0000
1300
0001
1000
,  // measure 11
0010
0000
0220
0330
0100
0000
0100
0000
,  // measure 12
0002
0000
1003
0100
0010
0200
0000
2300
,  // measure 13
0000
3001
0100
0100
0001
0100
0010
0100
,  // measure 14
0001
1000
0100
0010
0100
1000
0001
0400
,  // measure 15
0000
0300
0010
0020
,  // measure 16
1030
0001
0010
0100
0010
0001
0000
2000
,  // measure 17
0000
3001
0100
0010
1000
0001
0010
0100
,  // measure 18
1000
0100
0010
0001
4000
0000
3001
0400
,  // measure 19
0000
0340
0000
0000
0030
1000
0010
0100
,  // measure 20
0001
0100
0001
0100
0010
1000
0001
0200
,  // measure 21
0000
0320
0000
2030
0000
3002
0000
0023
,  // measure 22
0000
0230
0000
1300
0100
0010
0100
2000
,  // measure 23
0000
3001
0100
0002
0000
1003
0010
0100
,  // measure 24
0020
0000
1030
0001
0010
0001
1000
0001
,  // measure 25
0010
0100
2000
0000
3100
0010
0001
0020
,  // measure 26
0000
0130
0010
0100
2000
0000
3001
0200
,  // measure 27
0000
0310
1000
0002
0000
1003
0010
0100
,  // measure 28
0001
0100
0010
2000
0000
3001
0010
0100
,  // measure 29
2000
0000
3001
0200
0000
0310
0100
0001
,  // measure 30
0100
0010
1000
0001
0010
0100
1000
0002
,  // measure 31
0000
1003
0010
0200
0000
0301
0100
0010
,  // measure 32
0100
0002
0000
1003
0100
0010
0100
2000
,  // measure 33
0000
3001
0100
0020
0000
1030
0002
0000
,  // measure 34
0013
0100
1000
0001
0010
0001
1000
0200
,  // measure 35
4300
0000
3000
0002
,  // measure 36
0103
0020
0000
2030
0000
3002
0023
0000
,  // measure 37
0230
0000
1300
0001
0100
0001
1000
0001
,  // measure 38
1000
0100
0000
0040
0000
0000
0000
0000
,  // measure 39
0000
0030
0000
0002
,  // measure 40
2003
0000
3010
0100
0002
0000
1003
0200
,  // measure 41
0000
2300
0000
3001
0200
0000
0310
2000
,  // measure 42
0000
3001
0000
0202
0000
0000
0000
0000
,  // measure 43
0303
0000
0000
0000
0220
0330
0000
0000
,  // measure 44
2020
3030
1000
0002
0000
0013
0100
0000
,  // measure 45
2200
0000
3300
1000
0002
0000
0103
0000
,  // measure 46
0120
0000
1030
0002
0000
0000
0013
0000
,  // measure 47
0200
0000
0300
0000
1100
0000
1000
0001
,  // measure 48
0000
0100
0000
0010
1000
0010
0100
0002
,  // measure 49
0000
2003
0000
3001
1000
0010
0100
0001
,  // measure 50
0100
0010
1000
0020
0000
0030
2000
0000
,  // measure 51
3004
0003
0020
0230
,  // measure 52
2300
0000
3001
0200
0000
0310
2000
0000
,  // measure 53
3002
0000
0003
1000
0200
0000
0320
0000
,  // measure 54
0032
0000
1003
0020
0000
0130
0001
2000
,  // measure 55
0000
3001
0010
0100
2000
0000
3001
0100
,  // measure 56
0010
1000
0010
0100
0002
0000
1003
0100
,  // measure 57
0010
0001
0010
0100
1000
0000
1002
0000
,  // measure 58
0103
0010
1000
0020
0000
1030
0001
0010
,  // measure 59
0001
0000
0000
0000
4000
0000
0000
0000
3001
0010
0001
0000
1000
0000
0001
0000
,  // measure 60
1000
0010
0200
0000
0300
0001
0100
0010
,  // measure 61
0100
0001
1000
0100
0010
0100
1000
0002
,  // measure 62
0000
1003
0010
0200
0000
0301
1000
0100
,  // measure 63
1000
0001
0200
0000
0310
1000
0001
0200
,  // measure 64
0000
0000
0000
0000
0300
0001
0100
0001
,  // measure 65
1000
0100
0010
0100
2000
0000
3001
0200
,  // measure 66
0000
0310
0100
0001
1000
0002
0000
1003
,  // measure 67
0100
0010
0100
1000
0001
1000
0010
2000
,  // measure 68
0000
3004
0000
0000
0003
1000
0100
0010
,  // measure 69
0001
0010
0100
1000
0002
0000
1003
0200
,  // measure 70
0000
1300
0001
0100
0010
1000
0010
0100
,  // measure 71
0001
1000
0001
0200
0000
0000
0300
0000
,  // measure 72
0000
0001
1000
0100
0010
0100
1000
0001
,  // measure 73
0010
0100
0010
0001
2000
0000
3001
0100
,  // measure 74
0010
0100
0001
1000
0010
0100
0010
1000
,  // measure 75
0001
0100
0020
0000
0230
0000
0301
1000
,  // measure 76
0001
0040
0000
0000
0030
0000
0001
0010
,  // measure 77
0100
2000
0000
3002
0000
0103
0020
0000
,  // measure 78
2030
0000
3001
0010
0001
1000
0010
1000
,  // measure 79
0001
0200
0000
0340
0000
0000
0000
0000
,  // measure 80
0000
0030
0000
2000
,  // measure 81
3002
0000
1003
0100
0010
0100
1000
0002
,  // measure 82
0000
2003
0000
3010
0200
0000
0301
2000
,  // measure 83
0000
3100
0000
2200
0000
0000
0000
0000
,  // measure 84
3300
0000
0120
0031
,  // measure 85
0012
0000
1003
0020
0000
0130
0001
0000
,  // measure 86
2002
0000
3003
1000
0020
0000
0130
0001
,  // measure 87
0100
0010
1000
0002
0000
0003
2000
0000
,  // measure 88
3200
0000
0300
0000
0110
0000
0010
0001
,  // measure 89
0000
1000
0000
0001
0100
0010
0100
0002
,  // measure 90
0000
2003
0000
3100
0010
0001
0010
0100
,  // measure 91
1000
0001
0100
0001
1000
0001
0100
0020
,  // measure 92
4030
0000
3002
0023
,  // measure 93
0230
0000
0310
0002
0000
1003
0010
0000
,  // measure 94
0200
0000
0300
0001
2000
0000
3100
0010
,  // measure 95
0002
0000
0023
0000
0130
1000
0001
0020
,  // measure 96
0000
0031
0010
0100
2000
0000
3002
0000
,  // measure 97
0103
0010
0200
0000
0302
0000
1003
0010
,  // measure 98
0100
0010
1000
0002
0000
0003
2000
0000
,  // measure 99
3100
0010
0100
2000
0000
0000
3002
0000
,  // measure 100
0023
0230
0000
0000
4300
0000
3001
0010
,  // measure 101
0100
0010
0001
1000
0000
0010
0000
0200
,  // measure 102
0000
0000
0301
0000
1000
0000
0100
0000
1000
0000
0001
0010
0001
0000
1000
0000
,  // measure 103
0010
0100
0001
1000
0100
0010
0001
2000
,  // measure 104
3000
0002
0000
1003
0010
0100
0010
1000
,  // measure 105
0001
0020
0030
0200
0000
0310
0001
1000
,  // measure 106
0010
1000
0001
0100
0010
1000
0001
0010
,  // measure 107
0100
0000
1000
0000
0001
0000
0020
0000
0000
0000
0031
0000
1000
0100
1000
0000
,  // measure 108
0001
0100
0010
1000
0001
0010
0100
1000
,  // measure 109
0100
0010
0001
1000
0002
0000
0013
0100
,  // measure 110
0040
0000
0031
1000
0001
0100
0001
0100
,  // measure 111
0010
1000
0010
2000
0000
3001
0010
0001
,  // measure 112
0010
0100
1000
0400
0000
0000
1300
0000
,  // measure 113
0001
0100
0000
0020
0000
1030
0000
0004
,  // measure 114
0000
0000
1003
0000
0010
0100
0010
0000
1000
0000
0001
0000
0010
0000
0100
0000
,  // measure 115
1000
0001
0100
0002
0003
1000
0100
0010
,  // measure 116
0001
0000
0010
0000
0100
0000
1000
0000
0004
4000
0000
0000
0000
0000
0000
0000
,  // measure 117
0000
0000
0000
0000
,  // measure 118
3003
0000
0000
0000
0000
0000
0004
0040
0000
0000
0000
0000
0000
0000
0000
0000
,  // measure 119
0000
0000
0000
0000
0033
0000
0400
4000
0000
0000
0000
0000
0000
0000
0000
0000
,  // measure 120
0000
0000
0000
0000
3300
0000
4000
0004
0000
0000
0000
0000
0000
0000
0000
0000
,  // measure 121
0000
0000
0000
0000
3003
0000
0004
0400
0000
0000
0000
0000
0000
0000
0000
0000
,  // measure 122
0000
0000
0000
0000
0303
0000
0400
0040
0000
0000
0000
0000
0000
0000
0000
0000
,  // measure 123
0000
0000
0000
0000
0330
0000
0040
4000
0000
0000
0000
0000
0000
0000
0000
0000
,  // measure 124
0000
0000
0000
0000
3030
0000
0000
0000
4000
0004
0000
0000
0000
0000
0000
0000
,  // measure 125
0000
0000
0000
0000
3003
0000
0000
0000
0004
0040
0000
0000
0000
0000
0000
0000
,  // measure 126
0000
0000
0000
0000
0033
0000
0000
0000
0040
0400
0000
0000
0000
0000
0000
0000
,  // measure 127
0330
0000
0100
1000
0001
1000
0010
0400
,  // measure 128
0000
0000
0302
0000
2003
0000
0000
3004
,  // measure 129
0000
1003
0010
0200
0000
0301
1000
0100
,  // measure 130
0010
0001
0010
0100
4000
0000
3001
0100
,  // measure 131
0010
0100
0001
2000
0000
3001
0100
0020
,  // measure 132
0000
0030
1000
1000
,  // measure 133
1000
0100
1000
0000
0001
0100
0001
1000
,  // measure 134
0000
0004
0000
0000
0203
0000
0300
0000
,  // measure 135
0020
0000
1030
0002
0000
0013
0100
0000
,  // measure 136
2200
0000
3300
1000
0001
0000
0100
0000
,  // measure 137
0020
0000
1030
0002
0000
0000
0013
0000
,  // measure 138
0200
0000
0300
0000
0110
0000
0010
0001
,  // measure 139
0000
2000
0000
3001
0100
0010
0100
0002
,  // measure 140
0000
2003
0000
3001
0010
0100
1000
0100
,  // measure 141
0010
0001
1000
0002
0000
1003
0020
0000
,  // measure 142
0430
0300
0002
2003
,  // measure 143
3200
0000
0310
0200
0000
1300
0001
0000
,  // measure 144
0201
0000
0300
0010
2000
0000
3002
0000
,  // measure 145
0023
0000
0130
2000
0000
3001
0100
0020
,  // measure 146
0000
0130
0001
1000
0020
0000
1030
0001
,  // measure 147
0010
0100
0010
0001
2000
0000
3001
0010
,  // measure 148
0100
1000
0100
0010
0001
0000
2001
0000
,  // measure 149
3010
0100
0010
2000
0000
3001
0020
0000
,  // measure 150
0130
4000
3001
0001
,  // measure 151
1000
0010
0100
0010
1000
0001
0000
0200
,  // measure 152
0000
0310
0100
0001
1000
0100
0010
0100
,  // measure 153
1000
0001
0100
0001
1000
0100
0010
0004
,  // measure 154
0000
0003
2000
3000
2000
0000
3010
0000
,  // measure 155
0100
0010
1000
0010
0100
0001
0000
2000
,  // measure 156
0000
3001
0010
0100
1000
0001
0010
0001
,  // measure 157
1000
0010
0100
0001
1000
0001
0010
0400
,  // measure 158
0000
4300
0000
0000
3001
0010
0100
2000
,  // measure 159
0000
3001
0100
0010
1000
0010
0100
0002
,  // measure 160
0000
1003
0100
1000
0001
0100
0000
0010
,  // measure 161
0100
0001
0000
1000
0100
0010
0100
2000
,  // measure 162
0000
3001
0200
0000
0310
2000
0000
3002
,  // measure 163
0000
0013
0100
1000
0001
0100
0010
0200
,  // measure 164
0000
0301
1000
0100
1000
0000
0002
0000
,  // measure 165
0103
0010
1000
0002
0000
1003
0100
0010
,  // measure 166
0001
0000
2002
0000
0000
0000
0000
3003
;

//---------------dance-single - Medium----------------
#NOTES:
     dance-single:
     Ace Of Hearts (2014):
     Medium:
     7:
     0.374,0.159,0.005,0.550,0.000:
0000
0000
0000
0000
,
0000
0000
0000
0000
,
0000
0000
0000
0000
1000
0000
0000
1000
,
0000
0000
0000
0000
0001
0000
0000
0001
,
0000
0000
0010
0000
,
0010
0000
0000
0000
0100
0000
0000
0200
,
0000
0000
0300
0000
1000
0000
0000
2000
,
0000
0000
3000
0000
0001
0000
0000
0002
,
0000
0003
1000
0000
,
0001
0000
0000
0001
0000
0000
0100
0000
,
0100
0000
0010
1000
,
0010
0000
0000
0000
0100
0000
0000
0200
,
0000
0300
0001
0100
,
0001
0000
0000
0000
1000
0000
0000
4000
,
0000
3000
0001
1000
,
0001
0000
0000
0000
0010
0000
0000
0020
,
0000
0030
0100
1000
,
0100
0000
0000
0000
1000
0000
0000
4000
,
0000
3000
0000
0001
,
0001
0000
0000
0000
1000
0000
0000
1000
,
0000
0000
0000
0020
0000
0000
1030
0000
,
1000
0000
0000
0000
0001
0000
0000
0001
,
0000
0000
0000
0020
0000
0000
0130
0000
,
0100
0000
0000
0000
1000
0000
0000
1000
,
0000
0000
0000
0000
0001
0000
0000
0002
,
0000
0000
0003
0000
2000
0000
0000
3002
,
0000
0000
0000
0103
0000
0000
0010
0000
,
0020
0000
0000
1030
0000
0000
0001
0000
,
0020
0000
0000
0031
0000
0000
1000
0000
,
0010
0000
1000
0000
0010
0000
0000
0200
,
0000
0000
0000
0301
0000
0000
1000
0000
,
1000
0000
0000
0000
0001
0000
0000
0002
,
0000
0000
0000
0023
0000
0000
0130
0000
,
1000
0000
0100
0000
1000
0000
0000
2000
,
0000
0000
3000
0001
,
0001
0000
0000
0200
0000
0000
0301
0000
,
0001
0000
1000
0100
,
1000
0000
0000
0004
0000
0000
0000
0000
,
0000
0003
0000
0100
,
0100
0000
0010
0000
0020
0000
0000
1030
,
0000
1000
0000
0000
0002
0000
0000
1003
,
0000
0100
0000
2000
0000
0000
0000
0000
,
3000
0000
0000
0000
0002
0003
0000
0000
,
0020
0030
0000
0002
0000
0000
1003
0000
,
0200
0300
0010
0001
,
0020
0000
0000
0032
0000
0000
1003
0000
,
0200
0000
0300
0000
1000
0000
0000
0001
,
0000
0001
0000
0000
0100
0000
0000
0010
,
0000
0020
0000
0000
1030
0000
0001
0000
,
1000
0000
0000
0200
0000
0000
0310
0000
,
0002
0000
2003
3200
,
0320
0000
0000
0032
0000
0000
1003
0000
,
0002
0000
2003
3020
,
0230
0000
0000
0302
0000
0000
0000
2003
,
0000
3001
1000
0100
,
0010
0100
1000
0001
,
1000
0001
0100
0000
,
0000
0000
0000
0000
,
0000
0000
0004
0000
,
0003
0000
0000
1000
,
0100
0000
0010
0000
0100
0000
0000
0200
,
0000
1300
0001
1000
,
0010
0000
0100
0000
0010
0000
0000
0020
,
0000
0030
0000
1000
,
0001
0000
0010
0000
0001
0000
0000
0002
,
0000
0000
1003
0000
0200
0000
0000
0320
,
0000
0000
0130
0000
1000
0000
0000
2000
,
0000
0000
3000
0001
,
0010
0000
0100
0000
0010
0000
0000
0020
,
0000
0031
1000
0010
,
1000
0000
0000
0002
0000
0000
0003
0000
,
0000
1000
0002
0000
,
0103
0010
0100
0001
,
1000
0100
0010
0001
,
0010
0100
1000
0000
,
0000
0000
0000
0001
,
1000
0000
0000
0002
0000
0000
0013
0000
,
0100
0010
0100
1000
,
0001
0000
0000
4000
0000
0000
0000
0000
,
0000
3000
0000
0001
,
0010
0000
0100
0000
0020
0000
0000
0032
,
0000
2003
0000
0000
3020
0000
0000
1030
,
0000
0001
0000
0200
0000
0000
0000
0000
,
0300
0000
0010
1000
,
0020
0000
0000
2030
0000
0000
3001
0000
,
0200
0300
0001
1000
,
0002
0000
0000
0023
0000
0000
0130
0000
,
2000
0000
0000
3000
0001
0000
0000
0100
,
0000
0100
0000
0000
0010
0000
0000
0020
,
0000
2030
0000
0000
3001
0000
0010
0000
,
0100
0000
1000
0000
0100
0000
0000
0200
,
0000
0300
0010
0001
,
0020
0000
0000
0230
0000
0000
1300
0000
,
0002
0000
1003
0010
,
2000
0000
3002
0000
0013
0000
0000
0020
,
0000
0130
0010
0001
,
1000
0001
1000
0010
,
1000
0000
0000
0002
0000
0000
0000
0000
,
0003
0000
0000
2000
0000
0000
3100
0000
,
0100
0000
0040
0031
,
0001
0000
0000
1000
0000
0100
0000
2000
,
0000
3001
0020
0130
,
1000
0000
0001
0000
1000
0000
0000
0200
,
0000
0300
0000
0000
1000
0000
0000
1000
,
0000
0000
0000
0020
0000
0000
1030
0000
,
0001
1000
0100
0010
,
0100
0000
0000
0020
0000
0000
0031
0000
,
1000
0001
0010
0100
,
0010
0001
2000
3002
,
0043
0230
1300
0001
,
1000
0000
0000
0002
0000
0000
0013
0000
,
0100
0000
0000
4000
0000
0000
3001
0000
,
0010
0000
0000
0002
0000
1003
0000
0400
,
0000
1300
0001
0100
,
0010
0000
0000
1000
0000
0000
0001
0000
,
0100
0001
4000
0000
,
0000
0000
0000
0000
,
3000
0000
0004
0000
,
0000
0000
0000
0000
,
0003
0000
0400
0000
,
0000
0000
0000
0000
,
0300
0000
0040
0000
,
0000
0000
0000
0000
,
0030
0000
4000
0000
,
0000
0000
3004
0000
,
0000
0000
0043
0000
,
0030
0000
0004
0000
,
0000
0000
0000
0000
2003
0000
0000
3400
,
0000
0000
0000
0320
0000
0000
0130
0000
,
1000
0001
4000
3010
,
0100
0000
0000
0002
0000
0000
0000
2003
,
0000
3000
0001
0010
,
0001
0000
0010
0000
0200
0000
0000
1300
,
0000
0001
2000
3000
,
0020
0000
0030
2000
0000
0000
3001
0000
,
0020
0030
0100
1000
,
0200
0000
0000
0320
0000
0000
0031
0000
,
2000
0000
0000
0000
3001
0000
0000
0100
,
0000
0100
0000
0000
0010
0000
0000
0020
,
0000
2030
0000
0000
3001
0000
0010
0000
,
0100
0000
0000
2000
0000
0000
3001
0000
,
0200
0000
0301
0100
,
0001
0000
0000
2000
0000
0000
3001
0000
,
0200
0300
0010
0100
,
0020
0000
0000
2030
0000
0000
0000
3020
,
0000
1030
0001
0010
,
0100
0010
0001
1000
,
0001
1000
0100
0000
,
0000
0000
0000
0000
,
0000
0040
0031
1000
,
0001
0000
1000
0000
0010
0000
0000
0200
,
0000
0301
1000
0100
,
1000
0000
0100
0000
0010
0000
0000
0004
,
0000
0003
1000
0010
,
0100
0000
0010
0000
1000
0000
0000
0002
,
0000
0013
0001
0010
,
0100
0000
0010
0000
0002
0000
0000
4003
,
0000
0000
3000
0000
0010
0000
0000
0020
,
0000
0000
1030
0000
1000
0000
0000
0002
,
0000
0013
0010
0000
,
0100
0000
0000
0000
1000
0000
0000
2000
,
0000
0000
3001
0000
0020
0000
0000
0230
,
0000
0000
1300
0000
0001
0000
0000
0002
,
0000
0103
0010
1000
,
0010
0000
0000
0200
0000
0000
0301
0000
,
1000
0000
2002
0000
0000
0000
0000
3003
;

//---------------dance-single - Easy----------------
#NOTES:
     dance-single:
     Ace Of Hearts (2014):
     Easy:
     5:
     0.204,0.119,0.005,0.225,0.000:
0000
0000
0000
0000
,
0000
0000
0000
0000
,
0000
0000
2000
0000
,
3000
0000
0001
0000
,
0001
0000
0001
0000
,
0000
0000
0010
0000
,
0010
0000
0020
0000
,
0030
0000
0100
0000
,
0100
0000
0200
0000
,
0300
0000
1000
0000
,
1000
0000
0001
0000
,
0001
0000
0002
0000
,
0003
0000
1000
0000
,
1000
0000
2000
0000
,
3000
0000
0010
0000
,
0010
0000
0020
0000
,
0030
0000
0100
0000
,
0100
0000
0200
0000
,
0300
0000
0001
0000
,
0001
0000
1000
0000
,
1000
0000
0010
0000
,
0010
0000
0100
0000
,
0100
0000
0001
0000
,
0001
0000
1000
0000
,
1000
0000
0001
0000
,
0001
0000
0020
0000
,
0030
0000
0001
0000
,
0001
0000
1000
0000
,
1000
0000
0100
0000
,
0100
0000
0010
0000
,
0010
0000
0001
0000
,
0001
0000
1000
0000
,
1000
0000
0010
0000
,
0010
0000
0020
0000
,
0030
0000
0000
0000
,
1000
0000
1000
0000
,
1000
0000
0010
0000
,
0010
0000
0040
0000
,
0000
0030
0000
0000
,
0100
0000
0100
0000
,
0100
0000
0001
0000
,
0001
0000
0002
0000
,
0003
0000
1000
0000
,
1000
0000
2000
0000
,
3000
0000
0100
0000
,
0100
0000
0200
0000
,
0300
0000
0010
0000
,
0010
0000
0020
0000
,
0030
0000
0001
0000
,
0001
0000
0002
0000
,
0003
0000
1000
0000
,
1000
0000
2000
0000
,
3000
0000
0010
0000
,
0010
0000
0020
0000
,
0030
0000
0100
0000
,
0100
0000
0100
0000
,
0001
0000
0001
0000
,
0000
0000
0000
0000
,
0000
0000
4000
0000
,
3000
0000
0001
0000
,
0001
0000
0010
0000
,
0010
0000
0100
0000
,
0100
0000
0200
0000
,
0300
0000
1000
0000
,
1000
0000
0001
0000
,
0001
0000
0100
0000
,
0100
0000
0200
0000
,
0300
0000
0001
0000
,
0001
0000
0002
0000
,
0003
0000
1000
0000
,
1000
0000
2000
0000
,
3000
0000
0100
0000
,
0100
0000
0010
0000
,
0010
0000
0001
0000
,
0001
0000
0001
0000
,
0000
0000
1000
0000
,
1000
0000
0001
0000
,
0001
0000
0100
0000
,
0100
0000
0400
0000
,
0000
0300
0000
0000
,
0010
0000
0010
0000
,
0010
0000
1000
0000
,
1000
0000
2000
0000
,
3000
0000
0001
0000
,
0001
0000
0010
0000
,
0010
0000
0001
0000
,
0001
0000
1000
0000
,
1000
0000
0010
0000
,
0010
0000
0100
0000
,
0100
0000
0001
0000
,
0001
0000
0002
0000
,
0003
0000
1000
0000
,
1000
0000
2000
0000
,
3000
0000
0001
0000
,
0001
0000
0002
0000
,
0003
0000
0010
0000
,
0010
0000
0010
0000
,
0100
0000
0200
0000
,
0300
0000
2000
0000
,
3000
0000
0004
0000
,
0003
0000
1000
0000
,
1000
0000
0100
0000
,
0100
0000
0200
0000
,
0300
0000
1000
0000
,
1000
0000
0001
0000
,
0001
0000
0010
0000
,
0010
0000
0020
0000
,
0030
0000
0001
0000
,
0001
0000
1000
0000
,
4000
0000
3010
0000
,
0010
0000
0020
0000
,
0030
0000
0400
0000
,
0301
0000
0001
0000
,
0001
0000
0100
0000
,
0100
0000
0200
0000
,
0300
0000
0004
0000
,
0000
0000
0000
0000
,
0003
0000
4000
0000
,
0000
0000
0000
0000
,
3000
0000
0400
0000
,
0000
0000
0000
0000
,
0300
0000
0040
0000
,
0000
0000
0000
0000
,
0030
0000
0004
0000
,
0003
0000
4000
0000
,
3000
0000
0040
0000
,
0030
0000
0400
0000
,
0300
0000
0001
0000
,
0001
0000
0002
0000
,
0003
0000
1000
0000
,
1000
0000
2000
0000
,
3000
0000
0010
0000
,
0010
0000
0020
0000
,
0030
0000
0100
0000
,
0100
0000
0200
0000
,
0300
0000
0001
0000
,
0001
0000
0002
0000
,
0003
0000
1000
0000
,
1000
0000
2000
0000
,
3000
0000
0100
0000
,
0100
0000
0200
0000
,
0300
0000
0010
0000
,
0010
0000
0020
0000
,
0030
0000
0001
0000
,
0001
0000
0002
0000
,
0003
0000
1000
0000
,
1000
0000
0100
0000
,
0100
0000
0100
0000
,
0000
0000
0000
0000
,
0000
0000
0010
0000
,
0010
0000
0020
0000
,
0030
0000
0100
0000
,
0100
0000
0200
0000
,
0300
0000
1000
0000
,
1000
0000
2000
0000
,
3000
0000
0001
0000
,
0001
0000
0002
0000
,
0003
0000
1000
0000
,
1000
0000
0010
0000
,
0010
0000
0100
0000
,
0100
0000
0200
0000
,
0300
0000
0001
0000
,
0001
0000
1000
0000
,
1000
0000
0100
0000
,
0100
0000
2000
0000
,
3000
0000
2002
0000
0000
0000
0000
3003
;

//---------------dance-single - Novice----------------
#NOTES:
     dance-single:
     Ace Of Hearts (2014):
     Beginner:
     2:
     0.118,0.159,0.005,0.148,0.000:
0000
0000
0000
0000
,
0000
0000
0000
0000
,
0000
0000
0002
0000
,
0003
0000
0002
0000
,
0003
0000
0002
0000
,
0003
0000
0002
0000
,
0003
0000
2000
0000
,
3000
0000
2000
0000
,
3000
0000
2000
0000
,
3000
0000
2000
0000
,
3000
0000
0010
0000
,
0000
0000
0010
0000
,
0000
0000
0020
0000
,
0000
0000
0030
0000
,
0000
0000
1000
0000
,
0000
0000
1000
0000
,
0000
0000
2000
0000
,
0000
0000
3000
0000
,
0000
0000
0001
0000
,
0000
0000
0001
0000
,
0000
0000
0010
0000
,
0000
0000
0010
0000
,
0000
0000
0100
0000
,
0000
0000
0100
0000
,
0000
0000
0200
0000
,
0000
0000
0300
0000
,
0000
0000
0010
0000
,
0000
0000
0010
0000
,
0000
0000
0001
0000
,
0000
0000
0001
0000
,
0000
0000
1000
0000
,
0000
0000
1000
0000
,
0000
0000
0010
0000
,
0000
0000
0020
0000
,
0000
0000
0030
0000
,
0000
0000
1000
0000
,
0000
0000
1000
0000
,
0000
0000
4000
0000
,
0000
3000
0000
0000
,
0000
0000
0001
0000
,
0000
0000
0001
0000
,
0000
0000
0002
0000
,
0003
0000
0010
0000
,
0000
0000
0010
0000
,
0000
0000
0100
0000
,
0000
0000
0100
0000
,
0000
0000
1000
0000
,
0000
0000
1000
0000
,
0000
0000
2000
0000
,
0000
0000
3000
0000
,
0000
0000
0001
0000
,
0000
0000
0001
0000
,
0000
0000
0100
0000
,
0000
0000
0100
0000
,
0000
0000
0001
0000
,
0000
0000
0001
0000
,
0000
0000
0001
0000
,
0000
0000
0000
0000
,
0000
0000
0000
0000
,
0000
0000
1000
0000
,
0000
0000
1000
0000
,
0000
0000
0001
0000
,
0000
0000
0001
0000
,
0000
0000
0100
0000
,
0000
0000
0100
0000
,
0000
0000
0010
0000
,
0000
0000
0010
0000
,
0000
0000
1000
0000
,
0000
0000
1000
0000
,
0000
0000
2000
0000
,
0000
0000
3000
0000
,
0000
0000
0001
0000
,
0000
0000
0001
0000
,
0000
0000
1000
0000
,
0000
0000
1000
0000
,
0000
0000
0000
0000
,
0000
0000
0100
0000
,
0000
0000
0100
0000
,
0000
0000
0400
0000
,
0000
0300
0000
0000
,
0000
0000
1000
0000
,
0000
0000
1000
0000
,
0000
0000
2000
0000
,
3000
0000
0010
0000
,
0000
0000
0010
0000
,
0000
0000
0100
0000
,
0000
0000
0100
0000
,
0000
0000
0001
0000
,
0000
0000
0001
0000
,
0000
0000
0002
0000
,
0000
0000
0003
0000
,
0000
0000
1000
0000
,
0000
0000
1000
0000
,
0000
0000
0100
0000
,
0000
0000
0100
0000
,
0000
0000
0010
0000
,
0000
0000
0010
0000
,
0000
0000
0020
0000
,
0030
0000
0000
0000
,
0000
0000
0004
0000
,
0003
0000
0001
0000
,
0000
0000
1000
0000
,
0000
0000
1000
0000
,
0000
0000
0100
0000
,
0000
0000
0200
0000
,
0300
0000
0010
0000
,
0000
0000
0020
0000
,
0030
0000
0001
0000
,
0000
0000
0002
0000
,
0003
0000
1000
0000
,
0000
0000
2000
0000
,
3000
0000
0040
0000
,
0030
0000
0020
0000
,
0030
0000
1000
0000
,
0000
0000
1000
0000
,
0000
0000
0004
0000
,
0000
0000
0000
0000
,
0003
0000
0040
0000
,
0000
0000
0000
0000
,
0030
0000
0400
0000
,
0000
0000
0000
0000
,
0300
0000
4000
0000
,
0000
0000
0000
0000
,
3000
0000
0004
0000
,
0000
0000
0000
0000
,
0003
0000
4000
0000
,
0000
0000
0000
0000
,
3000
0000
0002
0000
,
0000
0000
0003
0000
,
0000
0000
1000
0000
,
0000
0000
2000
0000
,
3000
0000
0010
0000
,
0000
0000
0020
0000
,
0030
0000
0100
0000
,
0000
0000
0100
0000
,
0000
0000
0001
0000
,
0000
0000
0001
0000
,
0000
0000
1000
0000
,
0000
0000
1000
0000
,
0000
0000
2000
0000
,
0000
0000
3000
0000
,
0000
0000
0001
0000
,
0000
0000
0001
0000
,
0000
0000
0010
0000
,
0000
0000
0010
0000
,
0000
0000
0100
0000
,
0000
0000
0100
0000
,
0000
0000
0100
0000
,
0000
0000
0000
0000
,
0000
0000
1000
0000
,
0000
0000
1000
0000
,
0000
0000
2000
0000
,
0000
0000
3000
0000
,
0000
0000
0001
0000
,
0000
0000
0001
0000
,
0000
0000
0002
0000
,
0000
0000
0003
0000
,
0000
0000
0100
0000
,
0000
0000
0100
0000
,
0000
0000
0010
0000
,
0000
0000
0010
0000
,
0000
0000
1000
0000
,
0000
0000
1000
0000
,
0000
0000
0001
0000
,
0000
0000
0001
0000
,
0000
0000
2002
0000
0000
0000
0000
3003
;
