#TITLE:Plaster Disaster;
#SUBTITLE:(Remastered);
#ARTIST:CobaltBW;
#TITLETRANSLIT:;
#SUBTITLETRANSLIT:;
#ARTISTTRANSLIT:;
#GENRE:Game Music;
#CREDIT:Ace Of Hearts;
#BANNER:Plaster Disaster - Bn.png;
#BACKGROUND:Plaster Disaster - Bg.jpg;
#LYRICSPATH:;
#CDTITLE:Ace Of Hearts.png;
#MUSIC:Plaster Disaster (Remastered).ogg;
#OFFSET:1.640;
#SAMPLESTART:9.800;
#SAMPLELENGTH:12.000;
#SELECTABLE:YES;
#BPMS:0.000=125.000,96.000=62.500,112.000=125.000,224.000=62.500,232.000=125.000;
#STOPS:;
#BGCHANGES:;
#KEYSOUNDS:;

//---------------dance-single - Expert----------------
#NOTES:
     dance-single:
     Ace Of Hearts (2014):
     Challenge:
     10:
     0.653,0.000,0.123,0.917,0.858:
0000
0000
0000
0000
,
0000
0000
0000
0000
,
1000
0000
1000
0100
1000
0000
1000
0100
1000
0000
1000
0100
0010
0001
0010
0001
,
0010
0000
0010
0100
0010
0000
0010
0100
0010
0000
0010
0100
1000
0001
1000
0001
,
1000
0000
1000
0010
1000
0000
1000
0010
1000
0000
1000
0010
1000
0001
1000
0001
,
0100
0010
0200
0310
1000
0001
2000
3001
0010
0200
0310
0001
2000
3000
0000
0000
,
2200
0000
0000
0000
0000
0000
0000
0000
3000
0000
0310
0000
0001
1000
0000
2020
,
0000
0000
0000
0000
0000
0000
3000
0000
0130
0001
1000
0100
0000
0020
0000
0200
,
0000
0000
0000
0000
,
0330
0000
0010
0001
0010
0001
0000
0000
1000
0010
1000
0010
0000
0100
0001
0000
,
2002
0000
0000
0000
0000
0000
0000
0000
0003
0000
3010
0000
1000
0001
0000
0022
,
0000
0000
0000
0000
0000
0000
0030
0000
1003
0100
0010
0100
1000
0001
2000
0200
,
0000
0000
0000
0000
,
3300
0000
1000
0001
1000
0001
0000
0000
0010
0100
0010
0100
0000
0010
0001
0000
,
2002
0000
0000
0000
0000
0000
0000
0000
0003
0000
3010
0000
1000
0001
0000
0022
,
0000
0000
0000
0000
0000
0000
0003
0000
0130
1000
0001
0010
0000
0100
0000
2200
,
0000
0000
0000
0000
,
3300
0000
0000
0000
0000
0000
1000
0000
0000
0001
0000
0000
1000
0000
0000
0001
0000
0000
0000
0000
0000
0000
0000
0000
1000
0000
0000
0010
0000
0000
1000
0000
0000
0010
0000
0000
0000
0000
0000
2000
0000
0000
3001
0000
0010
0000
0200
0000
,
2000
0000
0000
0000
0000
0000
0000
0000
0300
0000
3001
0000
0100
0010
0000
2020
,
0000
0000
0000
0000
0000
0000
0030
0000
3001
0010
0001
1000
0010
0100
0002
2000
,
0000
0000
0000
0000
,
3003
0000
0001
0100
0001
0100
0000
0000
0010
0100
0010
0100
0000
0010
1000
0000
,
2002
0000
0000
0000
0000
0000
0003
0000
3020
0000
0000
0230
0000
0000
0302
0000
,
0203
0000
0000
0000
0000
0000
0000
0000
0000
0000
0000
0000
0310
1000
0010
1000
,
0002
0000
0000
0000
0000
0000
0003
0000
0000
1000
0100
1000
0002
0000
0020
0000
0000
0000
0003
0000
0000
0030
0000
0000
,
0200
0000
0000
0000
0000
0000
0000
0000
0000
0000
0000
0000
0000
0000
0000
0000
0000
0000
0000
0000
0000
0000
0000
0000
0000
0000
0000
0000
0000
0000
0000
0000
0000
0000
0000
0000
0000
0000
0000
0000
0000
0000
0000
0000
0000
0000
0000
0000
0300
0000
0000
0000
0000
0000
0000
0000
0000
0000
0000
0000
0000
0000
0000
0000
0000
0000
0000
0000
0000
0000
0000
0000
1000
0000
0000
0000
0000
0000
0000
0000
0100
0000
0000
0000
0000
0000
0000
0000
0010
0000
0000
0000
0000
0000
0000
0000
0200
0000
0000
0000
0000
0000
0000
0000
0000
0000
0000
0000
0000
0000
0000
0000
0000
0000
2300
0000
0000
0000
0000
0000
0000
0000
0000
0000
0000
0000
0000
0000
0000
0000
0000
0000
3002
0000
0000
0000
0000
0000
0000
0000
0000
0000
0000
0000
0203
0000
0000
0000
0000
0000
0000
0000
0000
0000
0000
0000
0000
0000
0000
0000
0000
0000
0000
0000
0000
0000
0000
0000
0320
0000
0000
0000
0000
0000
0000
0000
0000
0000
0000
0000
0000
0000
0000
0000
0000
0000
0000
0000
0000
0000
0000
0000
,
2030
0000
0000
0000
0000
0000
3000
0000
0000
0001
0010
0100
2000
0000
0002
0000
0000
0000
3000
0000
0000
0203
0000
0000
,
0320
0000
0000
0000
0000
0000
0000
0000
0000
0000
0000
0000
0000
0000
0000
0000
0000
0000
2030
0000
0000
0000
0000
0000
0000
0000
0000
0000
0000
0000
0000
0000
0000
0000
0000
0000
3002
0000
0000
0000
0000
0000
0000
0000
0000
0000
0000
0000
0023
0000
0000
0000
0000
0000
0000
0000
0000
0000
0000
0000
0000
0000
0000
0000
0000
0000
0000
0000
0000
0000
0000
0000
0230
0000
0000
0000
0000
0000
0000
0000
0000
0000
0000
0000
0000
0000
0000
0000
2300
0000
0000
0000
0000
0000
0000
0000
0000
0000
0000
0000
0000
0000
0000
0000
0000
0000
0000
0000
0000
0000
0000
0000
0000
0000
0000
0000
0000
0000
0000
0000
0004
0000
0000
0000
0000
0000
0000
0000
0000
0000
0000
0000
0000
0000
0000
0000
0000
0000
0000
0000
0000
0000
0000
0000
0000
0000
0000
0000
0000
0000
0000
0000
0000
0000
0000
0000
0000
0000
0000
0000
0000
0000
0000
0000
0000
0000
0000
0000
3000
0000
0000
0000
0000
0000
0000
0000
0000
0000
0000
0000
0000
0000
0000
0000
0000
0000
0000
0000
0000
0000
0000
0000
,
0203
0000
0310
1000
0010
1000
0000
0000
0001
0010
0001
0010
0000
0000
0000
0000
,
0100
1000
0100
1000
0100
0010
0000
0000
0001
1000
0001
2000
3000
0020
0030
0200
,
0300
0000
0001
0100
0001
0100
0000
0000
0010
1000
0010
1000
0000
0000
0000
0000
,
0001
0010
0001
0010
0001
1000
0000
0000
0001
0100
0001
0100
0000
0001
2000
3000
,
2200
0000
0000
0000
0000
0000
0000
0000
0000
0000
3000
0000
0310
0001
0010
0200
,
0000
0000
0000
0000
2300
3001
0000
0100
,
0220
0000
0000
0000
0000
0000
0000
0000
0000
0000
0300
0000
1030
0001
0010
0100
,
0000
0000
0000
1100
0000
0000
1000
0000
1002
0000
0100
0000
1003
0100
1000
0100
,
2000
0000
0000
0000
3001
0010
0100
2000
0000
0000
3002
0000
0203
0000
0320
0000
,
1030
0001
0010
0100
0000
1000
0000
0002
0000
0000
0000
0000
1003
0100
1000
0100
,
0020
0000
0000
0000
0130
1000
0001
0020
0000
0000
0032
0000
2003
0000
3020
0000
,
0130
0001
1000
0100
0000
0010
0000
0200
0000
0000
0000
0000
0310
0001
0010
0001
,
2000
0000
0000
0000
3001
0100
0010
2000
0000
0000
3002
0000
0023
0000
0230
0000
,
0310
0001
0010
0100
0000
1000
0000
0002
0000
0000
0000
0000
1003
0010
1000
0001
,
2000
0000
0000
0000
3001
0010
0100
2000
0000
0000
0000
0000
3001
0010
0100
0020
,
0000
0000
0000
0000
0000
0130
1000
0002
0000
0000
0000
0000
0000
0000
1003
0010
,
0100
0001
0000
1000
0000
0100
0000
0200
0000
0000
0000
0310
0001
1000
0002
0020
,
0000
0000
0000
0000
0000
0000
0003
0000
0130
1000
0001
0100
0010
0100
0000
0100
,
0002
0000
0000
0000
1003
0100
0010
0002
0000
0000
2003
0000
3020
0000
0230
0000
,
0301
0100
0010
1000
0000
0001
0000
0200
0000
0000
0000
0000
0310
1000
0010
1000
,
0002
0000
0000
0000
1003
0100
0010
0002
0000
0000
2003
0000
3200
0000
0320
0000
,
0031
0010
0100
1000
0000
0100
0010
0002
0000
0000
0000
0000
1003
0010
0100
0001
,
2000
0000
0000
0000
0000
3100
0010
0002
0000
0000
2003
0000
3020
0000
0230
0000
,
0301
0100
0010
2000
0000
0000
3001
0100
0010
0200
0000
0000
0301
0100
0001
1000
,
0100
0010
0100
2000
0000
0000
3001
0100
0010
0200
0000
0000
0302
0000
0000
0000
,
2003
0000
0000
3200
,
0000
0000
0320
0000
,
0000
0000
0032
0000
0000
2003
0000
0000
,
3002
0000
0000
0000
0000
0000
0000
0000
0000
0000
0000
0000
0000
0000
0000
0000
0000
0000
0000
0000
0000
0000
0000
0000
1003
0000
0000
0000
0000
0000
0000
0000
0100
0000
0000
0000
0000
0000
0000
0000
0010
0000
0000
0000
0000
0000
0000
0000
0002
0000
0000
0000
0000
0000
0000
0000
0000
0000
0000
0000
0000
0000
0000
0000
0000
0000
2003
0000
0000
0000
0000
0000
0000
0000
0000
0000
0000
0000
0000
0000
0000
0000
0000
0000
3010
0000
0000
0000
0000
0000
0200
0000
0000
0000
0000
0000
0000
0000
0000
0000
0000
0000
0000
0000
0000
0000
0000
0000
0000
0000
0000
0000
0000
0000
0000
0000
0000
0000
0000
0000
0000
0000
0000
0000
0000
0000
0000
0000
0000
0000
0000
0000
0000
0000
0000
0000
0000
0000
0000
0000
0000
0000
0000
0000
0301
0000
0000
0000
0000
0000
0100
0000
0000
0000
0000
0000
0001
0000
0000
0000
0000
0000
0100
0000
0000
0000
0000
0000
0010
0000
0000
0000
0000
0000
1000
0000
0000
0000
0000
0000
0010
0000
0000
0000
0000
0000
1000
0000
0000
0000
0000
0000
,
0002
0000
0000
0000
0000
0000
0000
0000
0000
0000
0000
0000
0000
0000
0000
0000
0000
0000
0000
0000
0000
0000
0000
0000
1003
0000
0000
0000
0000
0000
0000
0000
0010
0000
0000
0000
0000
0000
0000
0000
0100
0000
0000
0000
0000
0000
0000
0000
0002
0000
0000
0000
0000
0000
0000
0000
0000
0000
0000
0000
0000
0000
0000
0000
0000
0000
2003
0000
0000
0000
0000
0000
0000
0000
0000
0000
0000
0000
0000
0000
0000
0000
0000
0000
3020
0000
0000
0000
0000
0000
0000
0000
0000
0000
0000
0000
0000
0000
0000
0000
0000
0000
0000
0000
0000
0000
0000
0000
0000
0000
0000
0000
0000
0000
0000
0000
0000
0000
0000
0000
0000
0000
0000
0000
0000
0000
0000
0000
1030
0000
0000
0000
0000
0000
0000
0000
0001
0000
0000
0000
0000
0000
0000
0000
0200
0000
0000
0000
0000
0000
0000
0000
0000
0000
0000
0000
0000
0000
0000
0000
0000
0000
0000
0000
0000
0000
0000
0000
0300
0000
0000
0000
0000
0000
0000
0000
0000
0000
0000
0000
0000
0000
0000
0000
0000
0000
0000
0000
0000
0000
0000
0000
,
0020
0000
0000
0000
0000
0000
2030
0000
0000
3000
0001
0100
,
0020
0000
0000
0000
0000
0000
2030
0000
0000
0000
3001
0100
,
0020
0000
1030
0001
1000
0001
1000
0100
0000
0010
0001
0010
0001
0010
0100
1000
,
0100
1000
0100
1000
0100
0010
0000
0001
1000
0001
1000
0001
0100
0010
0100
0010
,
0100
0010
0100
0001
0000
1000
0100
1000
0100
1000
0001
0000
1000
0010
1000
0010
,
1000
0001
1000
0000
0001
0010
0100
0010
0200
0000
0000
0000
0000
0000
0000
0000
,
0000
0000
0000
0000
0000
1300
0100
0020
0000
0000
0000
0000
0000
0000
0000
0000
,
0000
0000
0000
0000
0000
0130
1000
0002
0000
0000
0000
0000
0000
0000
0000
0000
,
0000
0000
0000
0000
0000
1003
0100
0010
0000
0100
0010
0001
0000
0010
0100
2000
,
0000
3001
0100
0010
1000
0001
0010
0200
2000
0000
0000
0000
0000
0000
0000
0000
,
0300
0000
3001
0000
0100
0010
0000
2020
0000
0000
0000
0000
0000
0000
0030
0000
,
3001
0010
0100
1000
0000
0001
0000
0202
0000
0000
0000
0000
0000
0000
0000
0000
,
0000
0000
0000
0000
0000
0000
0000
0000
0303
0000
0100
0010
0100
0010
0000
0000
,
1000
0010
1000
0010
0000
1000
0001
0000
0022
0000
0000
0000
0000
0000
0000
0000
,
0003
0000
0130
0000
1000
0001
0000
0202
0000
0000
0000
0000
0000
0000
0003
0000
,
0310
1000
0001
0010
0100
1000
0002
0200
0000
0000
0000
0000
0000
0000
0000
0000
,
0000
0000
0000
0000
0000
0000
0000
0000
0303
0000
0100
0010
0100
0010
0000
0000
,
1000
0001
1000
0001
0000
0010
0100
0000
2200
0000
0000
0000
0000
0000
0000
0000
,
0300
0000
3001
0000
0100
0010
0000
2020
0000
0000
0000
0000
0000
0000
0030
0000
,
3001
0010
0100
1000
0000
0001
0000
0202
0000
0000
0000
0000
0000
0000
0000
0000
,
0000
0000
0000
0000
0000
0000
0000
0000
0303
0000
0100
0010
0100
0010
0000
0000
,
1000
0000
0000
0010
0000
0000
1000
0000
0000
0010
0000
0000
0000
0000
0000
2000
0000
0000
3001
0000
0010
0000
0200
0000
2000
0000
0000
0000
0000
0000
0000
0000
0000
0000
0000
0000
0000
0000
0000
0000
0000
0000
0000
0000
0000
0000
0000
0000
,
0300
0000
3001
0000
0100
0010
0000
2020
0000
0000
0000
0000
0000
0000
0030
0000
,
3001
0100
0010
0100
0001
1000
0002
0200
0000
0000
0000
0000
0000
0000
0000
0000
,
0000
0000
0000
0000
0000
0000
0000
0000
0303
0000
0001
1000
0001
1000
0000
0000
,
0100
0010
0100
0010
0000
0100
0000
0000
0100
0000
1000
0100
1000
0100
0000
0000
,
0010
0001
0010
0001
0000
1000
0010
1000
0002
0000
1003
0100
0010
0001
0000
0000
,
1000
0100
0010
0001
0000
1000
0000
0000
0001
0010
0100
0010
0001
1000
0000
0000
,
0010
0000
0000
0000
0000
0000
0000
0000
0000
0000
0000
0000
1000
0000
0000
0000
0000
0000
0000
0000
0000
0000
0000
0000
0010
0000
0000
0000
0000
0000
0000
0000
0000
0000
0000
0000
1000
0000
0000
0000
0000
0000
0000
0000
0000
0000
0000
0000
0000
0000
0000
0000
0000
0000
0000
0000
0000
0000
0000
0000
0001
0000
0000
0000
0000
0000
0000
0000
0000
0000
0000
0000
1000
0000
0000
0000
0000
0000
0000
0000
0100
0000
0000
0000
0000
0000
0000
0000
0010
0000
0000
0000
0000
0000
0000
0000
0004
0000
0000
0000
0000
0000
4000
0000
0000
0000
0000
0000
0000
0000
0000
0000
0000
0000
0000
0000
0000
0000
0000
0000
0000
0000
0000
0000
0000
0000
0000
0000
0000
0000
0000
0000
0000
0000
0000
0000
0000
0000
0000
0000
0000
0000
0000
0000
0000
0000
0000
0000
0000
0000
0000
0000
0000
0000
0000
0000
0000
0000
0000
0000
0000
0000
0000
0000
0000
0000
0000
0000
0000
0000
0000
0000
0000
0000
0000
0000
0000
0000
0000
0000
0000
0000
0000
0000
0000
0000
0000
0000
0000
0000
0000
0000
,
3003
0220
0000
0330
0000
0000
0000
0000
;

//---------------dance-single - Hard----------------
#NOTES:
     dance-single:
     Ace Of Hearts (2014):
     Hard:
     7:
     0.360,0.000,0.011,0.648,0.344: // measure 1
0000
0000
0000
0000
,  // measure 2
0000
0000
0000
0000
,  // measure 3
0001
0000
0001
0000
1000
0000
1000
0010
,  // measure 4
1000
0000
0001
0000
0001
0000
0010
0100
,  // measure 5
0010
0000
0001
0000
0001
0000
1000
0100
,  // measure 6
1000
0000
0001
0000
0000
0000
1000
0000
0000
0010
0000
0000
1000
0000
0000
0000
,  // measure 7
0002
0000
0000
0000
0000
0000
0000
0000
0000
0000
1003
0000
0100
0000
0000
0020
,  // measure 8
0000
0000
0000
0000
0000
0000
0000
0000
0031
0000
0010
0100
0000
0010
0000
0002
,  // measure 9
0000
0000
0000
0000
,  // measure 10
0003
0000
1000
0000
0000
1000
0000
0000
0010
0000
0000
0010
0000
0000
0000
0000
,  // measure 11
0200
0000
0000
0000
0000
0000
0000
0000
0000
0000
0301
0000
1000
0000
0000
0020
,  // measure 12
0000
0000
0000
0000
0000
0000
0000
0000
1030
0000
0001
0000
1000
0000
0001
0200
,  // measure 13
0000
0000
0000
0000
,  // measure 14
0300
0000
0001
0000
0000
0001
0000
0000
1000
0000
0000
1000
0000
0000
0000
0000
,  // measure 15
0002
0000
0000
0000
0000
0000
0000
0000
0000
0000
0103
0000
0010
0000
0000
2000
,  // measure 16
0000
0000
0000
0000
0000
0000
0000
0000
3001
0000
0100
0010
0000
0100
0000
0002
,  // measure 17
0000
0000
0000
0000
,  // measure 18
0003
0000
1000
0000
0000
1000
0000
0000
0001
0000
0000
0001
0000
4000
0000
0000
,  // measure 19
3200
0000
0000
0000
0000
0000
0000
0000
0000
0000
0310
0000
0001
0000
0000
2000
,  // measure 20
0000
0000
0000
0000
0000
0000
0000
0000
3001
0000
0100
0000
0010
0000
0100
0002
,  // measure 21
0000
0000
0000
0000
,  // measure 22
0003
0000
0100
0000
0000
0100
0000
0000
0010
0000
0000
0010
0000
0000
1000
0000
,  // measure 23
2002
0000
0000
0000
,  // measure 24
0000
0000
0000
3003
,  // measure 25
0002
0000
0000
0000
0000
0000
0003
0000
0000
2000
0000
3001
0020
0000
0230
0000
0000
0000
0000
0000
0000
0300
0000
0000
,  // measure 26
0020
0000
0000
0000
0000
0000
0000
0000
0000
0000
0000
0000
0000
0000
0000
0000
0000
0000
0000
0000
0000
0000
0000
0000
0000
0000
0000
0000
0000
0000
0000
0000
0000
0000
0000
0000
0000
0000
0000
0000
0000
0000
0000
0000
0000
0000
0000
0000
0030
0000
0000
0000
0000
0000
0000
0000
0000
0000
0000
0000
0000
0000
0000
0000
0000
0000
0000
0000
0000
0000
0000
0000
0002
0000
0000
0000
0000
0000
0000
0000
0000
0000
0000
0000
0000
0000
0000
0000
1003
0000
0000
0000
0000
0000
0000
0000
0200
0000
0000
0000
0000
0000
0000
0000
0000
0000
0000
0000
0000
0000
0000
0000
0000
0000
0320
0000
0000
0000
0000
0000
0000
0000
0000
0000
0000
0000
0000
0000
0000
0000
0000
0000
0130
0000
0000
0000
0000
0000
0000
0000
0000
0000
0000
0000
2000
0000
0000
0000
0000
0000
0000
0000
0000
0000
0000
0000
0000
0000
0000
0000
0000
0000
0000
0000
0000
0000
0000
0000
3002
0000
0000
0000
0000
0000
0000
0000
0000
0000
0000
0000
0000
0000
0000
0000
0000
0000
0000
0000
0000
0000
0000
0000
,  // measure 27
0203
0000
0000
0000
0000
0000
0300
0000
0000
0020
0000
0130
0002
0000
2003
0000
0000
0000
0000
0000
0000
3002
0000
0000
,  // measure 28
0023
0000
0000
0000
0000
0000
0000
0000
0000
0000
0000
0000
0000
0000
0000
0000
0000
0000
0230
0000
0000
0000
0000
0000
0000
0000
0000
0000
0000
0000
0000
0000
0000
0000
0000
0000
1300
0000
0000
0000
0000
0000
0000
0000
0000
0000
0000
0000
0002
0000
0000
0000
0000
0000
0000
0000
0000
0000
0000
0000
0000
0000
0000
0000
0000
0000
0000
0000
0000
0000
0000
0000
0203
0000
0000
0000
0000
0000
0000
0000
0000
0000
0000
0000
0000
0000
0000
0000
0320
0000
0000
0000
0000
0000
0000
0000
0000
0000
0000
0000
0000
0000
0000
0000
0000
0000
0000
0000
0000
0000
0000
0000
0000
0000
0000
0000
0000
0000
0000
0000
0000
0000
0000
0000
0000
0000
0000
0000
0000
0000
0000
0000
0000
0000
0000
0000
0000
0000
0000
0000
0000
0000
0000
0000
0000
0000
0000
0000
0000
0000
0000
0000
0000
0000
0000
0000
0000
0000
0000
0000
0000
0000
0000
0000
0000
0000
0000
0000
0030
0000
0000
0000
0000
0000
0000
0000
0000
0000
0000
0000
0000
0000
0000
0000
0000
0000
0000
0000
0000
0000
0000
0000
,  // measure 29
0000
0000
1000
0000
0000
1000
0000
0000
0001
0000
0000
0001
0000
0000
0000
0000
,  // measure 30
0010
0000
0100
0000
0000
0100
0000
0000
1000
0000
0000
1000
0000
0000
0000
0000
,  // measure 31
0000
0000
0001
0000
0000
0001
0000
0000
0100
0000
0000
0100
0000
0000
0000
0000
,  // measure 32
0010
0000
0100
0000
0000
0100
0000
0000
0001
0000
0000
0001
0000
0000
0000
0000
,  // measure 33
2000
0000
0000
0000
0000
0000
0000
0000
0000
0000
0000
0000
3001
0000
0000
0200
,  // measure 34
0000
0000
0000
0000
0302
1003
0000
0001
,  // measure 35
0020
0000
0000
0000
0000
0000
0000
0000
0000
0000
0000
0000
0130
0000
0000
1000
,  // measure 36
0000
0000
0000
0001
0000
0000
1000
0000
0020
0000
0000
0000
0000
0000
0000
0000
,  // measure 37
2030
0000
0000
0000
3001
0000
0000
0200
0000
0000
0310
0000
1000
0000
0010
0000
,  // measure 38
0100
0000
0000
0001
0000
1000
0000
0200
0000
0000
0000
0000
0300
0000
0000
0000
,  // measure 39
0020
0000
0000
0000
0130
0000
0000
2000
0000
0000
3001
0000
0010
0000
0100
0000
,  // measure 40
0020
0000
0000
0031
0000
1000
0000
0020
0000
0000
0000
0000
0030
0000
0000
0000
,  // measure 41
2000
0000
0000
0000
3001
0000
0000
0020
0000
0000
0031
0000
0010
0000
0100
0000
,  // measure 42
0010
0000
0000
0001
0000
1000
0000
0200
0000
0000
0000
0000
0300
0000
0010
0000
,  // measure 43
0002
0000
0000
0000
1003
0000
0000
0020
0000
0000
0000
0000
1030
0000
0000
0002
,  // measure 44
0000
0000
0000
0000
0003
0000
0000
2000
0000
0000
0000
0000
0000
0000
3001
0000
,  // measure 45
0010
0000
0000
0001
0000
1000
0000
0002
0000
0000
0000
0000
1003
0000
0000
0020
,  // measure 46
0000
0000
0000
0000
0130
0001
0100
0000
,  // measure 47
0020
0000
0000
0000
1030
0000
0000
0002
0000
0000
1003
0000
0100
0000
0010
0000
,  // measure 48
0200
0000
0000
1300
0000
0001
0000
2000
0000
0000
0000
0000
3000
0000
0000
0000
,  // measure 49
0002
0000
0000
0000
1003
0000
0000
0020
0000
0000
1030
0000
0001
0000
0010
0000
,  // measure 50
0001
0000
0000
1000
0000
0100
0000
0020
0000
0000
0000
0000
0030
0000
0000
0000
,  // measure 51
0002
0000
0000
0000
0000
1003
0000
0020
0000
0000
1030
0000
0010
0000
0100
0000
,  // measure 52
0020
0000
0000
2030
0000
0000
3002
0000
0023
0000
0000
0000
0030
0000
0000
0000
,  // measure 53
0200
0000
0000
2300
0000
0000
3002
0000
0203
0000
0000
0000
0302
0000
0000
0000
,  // measure 54
2003
0000
0000
3200
,  // measure 55
0000
0000
0320
0000
,  // measure 56
0000
0000
0032
0000
0000
0023
0000
0000
,  // measure 57
0230
0000
0000
0000
0320
0000
0000
0000
0032
0000
0000
2003
0000
0000
3010
0200
0000
0000
0000
0000
0000
0000
0000
0000
0304
0000
0000
0000
0000
0000
0000
0000
,  // measure 58
2003
0000
0000
0000
0000
0000
0000
0000
0000
0000
0000
0000
0000
0000
0000
0000
0000
0000
0000
0000
0000
0000
0000
0000
3200
0000
0000
0000
0000
0000
0000
0000
0000
0000
0000
0000
0000
0000
0000
0000
0000
0000
0000
0000
0000
0000
0000
0000
0320
0000
0000
0000
0000
0000
0000
0000
0000
0000
0000
0000
0000
0000
0000
0000
0000
0000
0230
0000
0000
0000
0000
0000
0000
0000
0000
0000
0000
0000
0000
0000
0000
0000
0000
0000
2300
0000
0000
0000
0000
0000
0000
0000
0000
0000
0000
0000
0000
0000
0000
0000
0000
0000
0000
0000
0000
0000
0000
0000
0000
0000
0000
0000
0000
0000
0000
0000
0000
0000
0000
0000
0000
0000
0000
0000
0000
0000
0000
0000
3002
0000
0000
0000
0000
0000
0000
0000
0000
0000
0000
0000
0000
0000
0000
0000
0203
0000
0000
0000
0000
0000
0000
0000
0000
0000
0000
0000
0000
0000
0000
0000
0000
0000
0000
0000
0000
0000
0000
0000
0300
0000
0000
0000
0000
0000
0000
0000
0000
0000
0000
0000
0000
0000
0000
0000
0000
0000
0000
0000
0000
0000
0000
0000
,  // measure 59
0020
0000
0000
0000
0000
0000
2030
0000
0000
0000
3001
0010
,  // measure 60
0200
0000
0000
0000
0000
0000
0320
0000
0000
0000
0130
0010
,  // measure 61
0001
0000
4000
0400
0000
0000
0000
3300
0000
4000
0004
0000
0000
0000
0000
0000
,  // measure 62
0000
0000
0000
0000
0000
3003
0000
0004
0400
0000
0000
0000
0000
0000
0000
0000
,  // measure 63
0000
0000
0000
0303
0000
0400
0040
0000
0000
0000
0330
0000
0040
4000
0000
0000
,  // measure 64
0000
3030
4000
0000
3002
0000
0000
0000
,  // measure 65
0000
0000
0000
0000
0000
0000
1003
0200
0000
0000
0000
0000
0000
0000
0000
0000
,  // measure 66
0000
0000
0000
0000
0000
0000
0310
0002
0000
0000
0000
0000
0000
0000
0000
0000
,  // measure 67
0000
0000
0000
0000
0000
0000
1003
0020
0000
0000
1030
0002
0000
0000
1003
0020
,  // measure 68
0000
0430
0000
0000
0320
0000
0000
0000
,  // measure 69
0000
0000
1030
0000
0001
0000
0000
0020
0000
0000
0000
0000
0000
0000
0000
0000
,  // measure 70
0230
0000
1300
0001
0000
1000
0000
0200
0000
0000
0000
0000
0000
0000
0000
0000
,  // measure 71
0000
0000
0000
0000
0000
0000
0000
0000
0300
0000
0010
0000
0000
0010
0000
0000
,  // measure 72
0001
0000
0000
0001
0000
0000
0000
0000
2000
0000
0000
0000
0000
0000
0000
0000
,  // measure 73
0000
0000
3010
0000
0100
0000
0000
0002
0000
0000
0000
0000
0000
0000
0000
0000
,  // measure 74
1003
0000
0010
0000
1000
0000
0001
0200
0000
0000
0000
0000
0000
0000
0000
0000
,  // measure 75
0000
0000
0000
0000
0000
0000
0000
0000
0300
0000
0001
0000
0000
0001
0000
0000
,  // measure 76
1000
0000
0000
1000
0000
0000
0000
0000
0200
0000
0000
0000
0000
0000
0000
0000
,  // measure 77
0000
0000
1300
0000
0100
0000
0000
0020
0000
0000
0000
0000
0000
0000
0000
0000
,  // measure 78
0230
0000
1300
0001
0000
1000
0000
0200
0000
0000
0000
0000
0000
0000
0000
0000
,  // measure 79
0000
0000
0000
0000
0000
0000
0000
0000
0300
0000
1000
0000
0000
1000
0000
0000
,  // measure 80
0001
0000
0000
0001
0000
0040
0000
0000
0230
0000
0000
0000
0000
0000
0000
0000
,  // measure 81
0000
0000
0310
0000
0001
0000
0000
2000
0000
0000
0000
0000
0000
0000
0000
0000
,  // measure 82
3001
0000
0100
0000
0010
0000
0100
0002
0000
0000
0000
0000
0000
0000
0000
0000
,  // measure 83
0000
0000
0000
0000
0000
0000
0000
0000
0003
0000
1000
0000
0000
1000
0000
0000
,  // measure 84
0001
0000
0000
0001
0000
0000
0000
0000
0000
0000
0010
0000
0000
0010
0000
0000
,  // measure 85
0100
0000
0000
0100
0000
0000
0000
0000
0000
0000
1000
0000
0000
1000
0000
0000
,  // measure 86
0100
0000
0000
0100
0000
0000
0000
0000
0010
0000
0001
0000
0000
0001
0000
0000
,  // measure 87
1000
0000
0000
1000
0000
0004
0000
0000
4003
0004
0000
0000
0000
0000
0000
0000
,  // measure 88
3003
0220
0000
0330
0000
0000
0000
0000
;

//---------------dance-single - Medium----------------
#NOTES:
     dance-single:
     Ace Of Hearts (2014):
     Medium:
     5:
     0.272,0.000,0.006,0.665,0.000: // measure 1
0000
0000
0000
0000
,  // measure 2
0000
0000
0000
0000
,  // measure 3
1000
1000
1000
2000
,  // measure 4
3100
0100
0100
0200
,  // measure 5
0310
0010
0010
0020
,  // measure 6
0034
0000
0000
0003
,  // measure 7
2000
0000
3000
0001
,  // measure 8
0002
0000
1003
0010
,  // measure 9
0200
0000
0000
0000
,  // measure 10
0300
0000
0002
0000
0000
0003
0000
0000
0002
0000
0000
0003
0000
0000
0000
0000
,  // measure 11
0200
0000
0300
0010
,  // measure 12
2000
0000
0000
0000
3001
0010
0001
0000
,  // measure 13
2000
0000
0000
0000
,  // measure 14
3000
0000
0020
0000
0000
0030
0000
0000
0020
0000
0000
0030
0000
0000
0000
0000
,  // measure 15
0200
0000
0300
0001
,  // measure 16
2000
0000
3001
0010
,  // measure 17
0200
0000
0000
0000
,  // measure 18
0300
0000
2000
0000
0000
3000
0000
0000
2000
0000
0000
3000
0000
0000
0000
0000
,  // measure 19
0002
0000
0003
1000
,  // measure 20
0020
0000
0000
0000
1030
0001
1000
0000
,  // measure 21
0200
0000
0000
0000
,  // measure 22
0300
0000
2000
0000
0000
3000
0000
0000
2000
0000
0000
3000
0000
0000
0002
0000
,  // measure 23
0200
0000
0000
0000
,  // measure 24
0000
0000
0000
0303
,  // measure 25
0200
0000
0300
0001
2000
0000
0000
3000
,  // measure 26
0200
0000
0300
0010
0002
2003
3020
0230
,  // measure 27
0302
0000
0003
2000
3200
0000
0300
0020
,  // measure 28
0032
0000
2003
3002
0203
0000
0000
0300
,  // measure 29
0000
0000
0020
0000
0000
0030
0000
0000
0020
0000
0000
0030
0000
0000
0000
0000
,  // measure 30
4000
0000
0000
0000
0000
3000
0000
0000
2000
0000
0000
3000
0000
0000
0000
0000
,  // measure 31
0000
0000
0002
0000
0000
0003
0000
0000
0002
0000
0000
0003
0000
0000
0000
0000
,  // measure 32
0400
0000
0000
0000
0000
0300
0000
0000
0200
0000
0000
0300
0000
0000
0000
0000
,  // measure 33
0002
0000
0000
1003
,  // measure 34
0200
0000
0000
0000
1300
0001
0000
0000
,  // measure 35
0020
0000
0000
0031
,  // measure 36
1000
0000
0010
0100
0020
0000
0000
0000
,  // measure 37
2030
3001
0010
0100
,  // measure 38
1000
0001
1000
0000
0200
0000
0300
0000
,  // measure 39
0020
0031
1000
0001
,  // measure 40
1000
0010
1000
0000
0002
0000
0003
0000
,  // measure 41
2000
3010
0200
0301
,  // measure 42
1000
0001
1000
0000
0200
0000
0300
0000
,  // measure 43
0020
0130
2000
0000
,  // measure 44
3002
0000
0203
0000
,  // measure 45
0310
0000
1000
0001
2000
0000
0000
0000
,  // measure 46
3020
0000
0030
0000
,  // measure 47
0200
0301
2000
3001
,  // measure 48
0010
0001
0010
0000
0200
0000
0300
0000
,  // measure 49
2000
3001
0200
0310
,  // measure 50
1000
0010
1000
0000
0002
0000
0003
0000
,  // measure 51
2000
3001
0020
0130
,  // measure 52
0020
0000
0000
0030
0000
0000
0002
0000
0000
0000
0000
0000
0003
0000
0000
0000
,  // measure 53
1000
0010
1000
0001
,  // measure 54
2000
0000
0000
3200
,  // measure 55
0000
0000
0320
0000
,  // measure 56
0000
0000
0032
0000
0000
2003
0000
0000
,  // measure 57
3002
1003
0010
1000
0002
0000
0003
0000
,  // measure 58
2000
3001
0010
0100
2000
0000
3002
0003
,  // measure 59
0020
0000
0032
0000
,  // measure 60
2003
0000
3200
0000
,  // measure 61
0320
0034
0000
0000
0003
4000
0000
0000
,  // measure 62
0000
0000
0000
3000
0040
0000
0000
0000
,  // measure 63
0000
0000
0030
4000
0000
3000
0004
0000
,  // measure 64
0000
0003
4000
0000
3200
0000
0000
0000
,  // measure 65
0000
0000
0320
0000
,  // measure 66
0000
0000
0032
0000
,  // measure 67
0000
0000
1003
0010
,  // measure 68
2000
3000
0002
0000
,  // measure 69
0000
1003
0020
0000
,  // measure 70
1030
0001
0200
0000
,  // measure 71
0000
0000
0000
0000
0000
0000
0000
0000
0300
0000
0020
0000
0000
0030
0000
0000
,  // measure 72
0020
0000
0000
0030
0000
0000
0000
0000
2000
0000
0000
0000
0000
0000
0000
0000
,  // measure 73
0000
3001
0020
0000
,  // measure 74
0031
1000
0001
0000
0200
0000
0000
0000
,  // measure 75
0000
0000
0000
0000
0000
0000
0000
0000
0300
0000
0020
0000
0000
0030
0000
0000
,  // measure 76
0020
0000
0000
0030
0000
0000
0000
0000
2000
0000
0000
0000
0000
0000
0000
0000
,  // measure 77
0000
3001
0020
0000
,  // measure 78
0031
0010
0001
0000
2000
0000
0000
0000
,  // measure 79
0000
0000
0000
0000
0000
0000
0000
0000
3000
0000
0020
0000
0000
0030
0000
0000
,  // measure 80
0020
0000
0000
0030
0000
0000
0000
0000
2000
0000
0000
0000
0000
0000
0000
0000
,  // measure 81
0000
3001
0020
0000
,  // measure 82
0130
0010
0100
0000
2000
0000
0000
0000
,  // measure 83
0000
0000
0000
0000
0000
0000
0000
0000
3000
0000
0002
0000
0000
0003
0000
0000
,  // measure 84
0002
0000
0000
0003
0000
0000
0000
0000
0000
0000
2000
0000
0000
3000
0000
0000
,  // measure 85
2000
0000
0000
3000
0000
0000
0000
0000
0000
0000
0020
0000
0000
0030
0000
0000
,  // measure 86
0020
0000
0000
0030
0000
0000
0000
0000
4000
0000
0000
0000
0000
3000
0000
0000
,  // measure 87
0002
0000
0000
0003
0000
0000
0000
0000
0400
0000
0000
0000
0000
0000
0000
0000
,  // measure 88
0300
0220
0000
0330
0000
0000
0000
0000
;

//---------------dance-single - Easy----------------
#NOTES:
     dance-single:
     Ace Of Hearts (2014):
     Easy:
     3:
     0.200,0.000,0.011,0.469,0.000: // measure 1
0000
0000
0000
0000
,  // measure 2
0000
0000
0000
0000
,  // measure 3
0001
0001
0001
0000
,  // measure 4
1000
1000
1000
0000
,  // measure 5
0100
0100
0100
0000
,  // measure 6
0020
0000
0000
0030
,  // measure 7
0002
0000
0000
1003
,  // measure 8
2000
0000
3100
0100
,  // measure 9
0200
0000
0000
0000
,  // measure 10
0300
0000
0000
0000
,  // measure 11
0020
0000
0000
0031
,  // measure 12
0002
0000
1003
1000
,  // measure 13
2000
0000
0000
0000
,  // measure 14
3000
0000
0000
0000
,  // measure 15
0020
0000
0000
0130
,  // measure 16
0200
0000
0301
0001
,  // measure 17
0002
0000
0000
0000
,  // measure 18
0003
0000
0000
0000
,  // measure 19
2000
0000
0000
3010
,  // measure 20
0020
0000
0130
0100
,  // measure 21
0200
0000
0000
0000
,  // measure 22
0300
0000
0000
0000
,  // measure 23
2002
0000
0000
0000
,  // measure 24
0000
0000
0000
3003
,  // measure 25
0002
0000
0003
1000
2000
0000
3000
0000
,  // measure 26
0200
0000
0300
0010
0020
0000
0032
0000
,  // measure 27
2003
0000
3000
0010
0020
0000
0030
0000
,  // measure 28
2000
0000
3002
0000
2003
0000
0000
3000
,  // measure 29
0020
0000
0000
0030
,  // measure 30
2000
0000
0000
3000
,  // measure 31
0002
0000
0000
0003
,  // measure 32
0020
0000
0000
0030
,  // measure 33
0002
0000
0000
1003
,  // measure 34
2000
0000
3010
0000
,  // measure 35
0020
0000
0000
0130
,  // measure 36
0100
0001
0002
0000
,  // measure 37
1003
1000
2000
3000
,  // measure 38
0100
0100
0200
0300
,  // measure 39
0010
0010
0020
0030
,  // measure 40
0001
0001
0002
0003
,  // measure 41
1000
1000
2000
3000
,  // measure 42
0010
0010
0020
0030
,  // measure 43
0100
0100
0200
0000
,  // measure 44
0302
0000
2003
0000
,  // measure 45
3100
0100
0200
0000
,  // measure 46
0320
0000
0030
0000
,  // measure 47
0001
0001
0002
0003
,  // measure 48
0100
0100
0200
0300
,  // measure 49
0010
0010
0020
0030
,  // measure 50
1000
1000
2000
3000
,  // measure 51
0002
0000
0023
0000
,  // measure 52
0130
0100
0200
0300
,  // measure 53
1000
1000
0001
0001
,  // measure 54
0002
0000
0000
2003
,  // measure 55
0000
0000
3200
0000
,  // measure 56
0000
0320
0000
0000
,  // measure 57
0031
0001
0002
0003
,  // measure 58
1000
1000
2000
3200
,  // measure 59
0320
0000
0230
0000
,  // measure 60
2300
0000
3002
0000
,  // measure 61
0043
0000
0000
0030
,  // measure 62
0004
0000
0000
0003
,  // measure 63
4000
0000
3000
0004
,  // measure 64
0000
0000
2003
0000
,  // measure 65
0000
0000
3200
0000
,  // measure 66
0000
0000
0320
0000
,  // measure 67
0000
0000
0031
0001
,  // measure 68
0002
0003
2000
0000
,  // measure 69
0000
3010
0020
0000
,  // measure 70
0130
0100
0200
0000
,  // measure 71
0000
0000
0300
0000
,  // measure 72
0000
0000
0002
0000
,  // measure 73
0000
1003
2000
0000
,  // measure 74
3100
0100
0200
0000
,  // measure 75
0000
0000
0300
0000
,  // measure 76
0000
0000
0020
0000
,  // measure 77
0000
0031
0002
0000
,  // measure 78
1003
1000
2000
0000
,  // measure 79
0000
0000
3000
0000
,  // measure 80
0000
0000
0002
0000
,  // measure 81
0000
0103
0200
0000
,  // measure 82
0310
0010
0020
0000
,  // measure 83
0000
0000
2030
0000
,  // measure 84
0000
3000
0020
0000
,  // measure 85
0000
0030
0200
0000
,  // measure 86
0000
0300
0002
0000
,  // measure 87
0000
0003
0400
0000
,  // measure 88
0300
0220
0000
0330
0000
0000
0000
0000
;

//---------------dance-single - Novice----------------
#NOTES:
     dance-single:
     Ace Of Hearts (2014):
     Beginner:
     1:
     0.123,0.000,0.011,0.296,0.000: // measure 1
0000
0000
0000
0000
,  // measure 2
0000
0000
0000
0000
,  // measure 3
2000
0000
3000
0000
,  // measure 4
0200
0000
0300
0000
,  // measure 5
0020
0000
0030
0000
,  // measure 6
0002
0000
0000
0003
,  // measure 7
2000
0000
3000
0000
,  // measure 8
0100
0000
0100
0000
,  // measure 9
0200
0000
0000
0000
,  // measure 10
0300
0000
0000
0000
,  // measure 11
2000
0000
0000
0000
,  // measure 12
3000
0000
0001
0000
,  // measure 13
0002
0000
0000
0000
,  // measure 14
0003
0000
0000
0000
,  // measure 15
0200
0000
0000
0000
,  // measure 16
0300
0000
0010
0000
,  // measure 17
0020
0000
0000
0000
,  // measure 18
0030
0000
0000
0000
,  // measure 19
2000
0000
0000
0000
,  // measure 20
3000
0000
0001
0000
,  // measure 21
0002
0000
0000
0000
,  // measure 22
0003
0000
0000
0000
,  // measure 23
2002
0000
0000
0000
,  // measure 24
0000
0000
0000
3003
,  // measure 25
1000
0000
1000
0000
,  // measure 26
0001
0000
0001
0000
,  // measure 27
0010
0000
0010
0000
,  // measure 28
0100
0000
0100
0000
,  // measure 29
2000
0000
3000
0000
,  // measure 30
2000
0000
3000
0000
,  // measure 31
0002
0000
0003
0000
,  // measure 32
0002
0000
0003
0000
,  // measure 33
2000
0000
3000
0000
,  // measure 34
0100
0000
0100
0000
,  // measure 35
0200
0000
0300
0000
,  // measure 36
0010
0000
0010
0000
,  // measure 37
0001
0000
0001
0000
,  // measure 38
0002
0000
0003
0000
,  // measure 39
1000
0000
1000
0000
,  // measure 40
2000
0000
3000
0000
,  // measure 41
0100
0000
0100
0000
,  // measure 42
0200
0000
0300
0000
,  // measure 43
0010
0000
0010
0000
,  // measure 44
0020
0000
0030
0000
,  // measure 45
0001
0000
0001
0000
,  // measure 46
0002
0000
0003
0000
,  // measure 47
1000
0000
1000
0000
,  // measure 48
2000
0000
3000
0000
,  // measure 49
0010
0000
0010
0000
,  // measure 50
0020
0000
0030
0000
,  // measure 51
0100
0000
0100
0000
,  // measure 52
0200
0000
0300
0000
,  // measure 53
0001
0000
0001
0000
,  // measure 54
0002
0000
0000
2003
,  // measure 55
0000
0000
3200
0000
,  // measure 56
0000
0320
0000
0000
,  // measure 57
0031
0001
0002
0003
,  // measure 58
1000
1000
2000
3000
,  // measure 59
0200
0000
0300
0000
,  // measure 60
0010
0000
0010
0000
,  // measure 61
0040
0000
0000
0000
,  // measure 62
0000
0000
0000
0000
,  // measure 63
0000
0000
0000
0000
,  // measure 64
0000
0030
0002
0000
,  // measure 65
0003
0000
2000
0000
,  // measure 66
3000
0000
0020
0000
,  // measure 67
0030
0000
0100
0000
,  // measure 68
0100
0000
0002
0000
,  // measure 69
0000
0000
0003
0000
,  // measure 70
1000
0000
2000
0000
,  // measure 71
0000
0000
3000
0000
,  // measure 72
0000
0000
0200
0000
,  // measure 73
0000
0000
0300
0000
,  // measure 74
0010
0000
0020
0000
,  // measure 75
0000
0000
0030
0000
,  // measure 76
0000
0000
0002
0000
,  // measure 77
0000
0000
0003
0000
,  // measure 78
1000
0000
2000
0000
,  // measure 79
0000
0000
3000
0000
,  // measure 80
0000
0000
0020
0000
,  // measure 81
0000
0000
0030
0000
,  // measure 82
0100
0000
0200
0000
,  // measure 83
0000
0000
0300
0002
,  // measure 84
0000
0003
0000
2000
,  // measure 85
0000
3000
0000
0020
,  // measure 86
0000
0030
0200
0000
,  // measure 87
0300
0020
0000
0000
,  // measure 88
0030
0220
0000
0330
0000
0000
0000
0000
;
