#TITLE:Pastel Flags;
#SUBTITLE:;
#ARTIST:Anamanaguchi;
#TITLETRANSLIT:;
#SUBTITLETRANSLIT:;
#ARTISTTRANSLIT:;
#GENRE:Chiptune;
#CREDIT:Ace Of Hearts;
#BANNER:Pastel Flags - Bn.png;
#BACKGROUND:Pastel Flags - Bg.jpg;
#LYRICSPATH:;
#CDTITLE:Ace Of Hearts.png;
#MUSIC:Pastel Flags.ogg;
#OFFSET:2.460;
#SAMPLESTART:57.200;
#SAMPLELENGTH:12.000;
#SELECTABLE:YES;
#DISPLAYBPM:93.000:186.000;
#BPMS:0.000=92.975,8.000=185.950,110.000=92.975,113.000=185.950,229.000=92.975,233.000=185.950,333.000=92.975,337.000=185.950,387.000=92.975,390.000=185.950,408.500=371.900,409.000=185.950,412.500=371.900,413.000=185.900,440.500=371.900,441.000=185.950,444.500=371.900,445.000=185.950,448.500=371.900,449.000=185.950,453.000=92.975,453.250=371.900,453.750=185.950;
#STOPS:408.500=0.081
,412.500=0.081
,440.500=0.081
,444.500=0.081
,448.500=0.081
;
#BGCHANGES:;
#KEYSOUNDS:;

//---------------dance-single - Expert----------------
#NOTES:
     dance-single:
     Ace Of Hearts (2014):
     Challenge:
     10:
     0.803,0.856,0.035,1.000,0.134: // measure 1
0000
0000
0000
0000
,  // measure 2
0000
0000
0000
0000
0002
0000
0000
0000
2003
0000
0000
0000
3200
0000
0000
0300
,  // measure 3
0120
0000
0130
1000
0000
0002
0000
0203
,  // measure 4
0000
0320
2030
3002
0023
0230
0320
0032
,  // measure 5
2003
0000
3001
0020
0000
0230
0000
2300
,  // measure 6
0000
3001
0200
0310
0000
0100
0020
1030
,  // measure 7
1002
0000
0013
0100
0000
1000
0000
0002
,  // measure 8
0000
1003
0020
0000
0130
0001
2000
0000
,  // measure 9
3200
0000
0310
0200
0000
2300
0000
3040
,  // measure 10
0000
0000
0000
0000
0000
1030
0020
0030
,  // measure 11
0210
0000
0301
2000
0000
3002
0000
0203
,  // measure 12
0000
0320
2030
3002
0023
0032
2003
3020
,  // measure 13
0230
0000
0301
2000
0000
3200
0000
0320
,  // measure 14
0000
0130
0020
0031
0000
1000
0200
0310
,  // measure 15
0210
0000
1300
0001
0000
2000
0000
3020
,  // measure 16
0000
0000
0130
0000
0002
0000
0000
0000
1003
0000
0100
0000
0020
0000
0000
0030
,  // measure 17
0210
0000
0000
0000
1300
0002
0000
0203
,  // measure 18
0000
0304
1000
0000
0010
0000
1000
0003
,  // measure 19
0002
0000
0023
0000
,  // measure 20
0430
4300
3004
0000
4003
3040
4030
3004
,  // measure 21
0000
0043
0430
0000
4300
0000
3000
0000
,  // measure 22
0002
0000
1003
0100
1000
0001
0000
0200
,  // measure 23
0000
0301
1000
0100
0010
0001
0000
2000
,  // measure 24
3004
0403
0340
0000
4030
3004
0043
0430
,  // measure 25
0000
4300
3004
0000
4003
0000
3200
0000
,  // measure 26
0320
0000
0031
0010
0100
1000
0000
0200
,  // measure 27
0300
0000
0010
0000
0001
0000
1000
0100
1000
0000
0001
0000
1000
0000
0020
0000
,  // measure 28
0430
0000
0000
0000
0304
0000
0000
0000
4003
0000
0000
0000
3000
0000
0000
0000
0020
0000
0000
0000
0000
0000
0000
0000
0030
0000
1000
0000
0000
0000
0001
0010
,  // measure 29
0001
1000
0000
0200
0000
0000
0310
0000
0001
0000
0010
0000
0100
0000
1000
0000
,  // measure 30
0000
0002
0000
1003
0010
0100
0010
1000
,  // measure 31
0000
0000
0001
0100
0002
0000
0000
0000
0003
0000
1000
0000
0020
0000
0000
0000
,  // measure 32
0130
0001
0000
1000
0000
0002
0000
0023
,  // measure 33
0000
0230
0000
1300
0001
1000
0100
0010
,  // measure 34
0000
0200
0000
1300
0001
0100
0001
1000
,  // measure 35
0000
0000
0010
0100
0020
0000
0000
0000
0030
0000
0000
0000
0100
0000
0100
0000
,  // measure 36
0000
0002
0000
2003
0000
3200
0000
0320
,  // measure 37
0000
0032
0000
0003
0000
0000
1000
1000
,  // measure 38
0000
0020
0000
0230
0000
0302
0000
2003
,  // measure 39
0000
3200
0000
0000
0300
0010
0001
2000
,  // measure 40
0000
3200
0000
2300
0000
3002
0000
0023
,  // measure 41
0000
0230
0000
1300
0001
0100
0001
1000
,  // measure 42
0000
0200
0000
0310
0001
1000
0001
1000
,  // measure 43
0000
0000
0000
0000
0000
0000
0000
0001
0020
0000
0000
0000
2030
0000
0000
0000
3020
0000
0000
0000
0032
0000
0000
0000
2003
0000
0000
0000
3020
0000
0000
0000
,  // measure 44
0032
0023
2030
3001
0020
0000
0130
0100
,  // measure 45
0000
2000
0000
3001
0000
0200
0000
0320
,  // measure 46
0000
2030
0000
3001
0010
0100
0010
0001
,  // measure 47
0000
2000
0000
3001
0100
0010
0100
0001
,  // measure 48
0000
0000
1000
0100
2000
0000
3001
0000
0100
0000
0010
0000
1000
0000
0010
0000
,  // measure 49
0100
0001
0000
1000
0000
0200
0000
0320
,  // measure 50
0000
0032
0000
1003
0010
0100
0010
1000
,  // measure 51
0000
0002
0000
1003
0100
0010
0100
1000
,  // measure 52
0000
0000
0001
0100
0004
4000
0000
0000
0000
0000
0000
0000
0000
0000
0000
0000
,  // measure 53
0000
0000
0000
0000
,  // measure 54
3003
0000
0004
0403
0340
0430
0304
4003
,  // measure 55
3400
0000
0340
0000
0031
0010
0001
0010
0100
1000
0100
1000
0100
0010
0100
0010
,  // measure 56
0001
1000
0001
1000
0002
0000
0023
0000
0230
0000
2300
0000
3002
0000
0023
0000
,  // measure 57
0230
2300
3002
0023
0230
2300
3002
0023
,  // measure 58
0230
0000
2300
0000
3001
0100
0010
0100
0002
0000
0000
0000
0203
0000
0000
0000
,  // measure 59
0320
0000
2030
0000
3001
0100
0000
0010
,  // measure 60
0000
2000
0000
3002
0023
2030
3020
0032
,  // measure 61
2003
3010
0200
0000
0301
2000
0000
3200
,  // measure 62
0000
0320
0000
0430
0340
0032
0003
4000
,  // measure 63
3400
0320
0032
0000
1003
0100
0000
1000
,  // measure 64
0000
0001
0000
1000
0020
0000
1030
0010
,  // measure 65
0200
0000
0302
0000
1003
0100
0000
2000
,  // measure 66
0000
3002
0000
4003
3400
0320
0030
0400
,  // measure 67
0340
0032
2003
0000
3010
0100
0000
0001
,  // measure 68
0000
2000
0000
3002
0203
2300
3200
0302
,  // measure 69
2003
3200
0320
0000
0031
2000
0000
3200
,  // measure 70
0000
0320
0000
0031
2000
3010
0000
0100
,  // measure 71
0002
1003
2000
0000
3010
0100
0000
0001
,  // measure 72
0000
2000
0000
3100
0020
0000
0130
1000
,  // measure 73
0002
0000
0203
0000
0000
0000
0301
2000
,  // measure 74
0000
3020
0000
4030
0001
0000
0100
0000
,  // measure 75
0001
0000
3000
0000
2000
0000
3001
0000
0100
0000
0010
0000
0100
0001
0100
0000
,  // measure 76
0010
0000
1000
0001
4000
0000
3040
0000
0430
0000
0000
0000
0304
0000
4003
0000
,  // measure 77
3400
0340
0000
0230
2300
3002
0203
2300
,  // measure 78
3200
0302
1003
0100
0010
0100
1000
0001
,  // measure 79
0000
2000
0000
3001
0200
0310
0000
1000
,  // measure 80
0002
0103
0020
0000
0000
0000
0230
0000
,  // measure 81
0000
0302
0000
1003
0020
0000
0130
0000
,  // measure 82
0002
0000
2003
0000
0000
0000
3010
0100
,  // measure 83
0000
0002
0000
0403
0010
0000
0001
0000
,  // measure 84
0010
0000
0000
0000
0300
0000
0000
0000
0200
0000
0000
0000
0000
0000
0000
0000
0302
0000
0000
0000
0000
0000
0000
0000
0000
0000
1003
0000
0000
0000
0100
0010
,  // measure 85
0100
2000
0000
3002
0000
0000
1003
0000
0100
0000
0001
0000
0100
0000
1000
0000
,  // measure 86
0000
0002
0000
1003
0010
0001
0010
1000
,  // measure 87
0000
0000
0001
0010
0200
0000
0000
0000
0300
0000
1000
0000
0001
0000
0100
0000
,  // measure 88
0001
1000
0000
0100
0000
0020
0000
0032
,  // measure 89
0000
0000
0013
0100
1000
0000
0000
0000
2002
0000
0000
0000
3000
0000
0103
0000
,  // measure 90
0020
0000
0200
0000
0000
0000
0030
0000
0302
0203
0320
2030
3002
0203
0320
2030
,  // measure 91
3002
0203
0320
2030
3002
0000
0000
0000
0043
0400
0000
0000
0000
0000
0000
0000
,  // measure 92
0000
0000
0000
0000
,  // measure 93
0330
0000
0400
4300
3004
0403
0340
0430
,  // measure 94
0304
0000
4003
0000
3001
0010
0001
0010
0100
1000
0100
1000
0001
0100
0001
0100
,  // measure 95
0010
1000
0010
1000
0002
0000
0023
0000
0230
0000
2300
0000
3002
0000
0023
0000
,  // measure 96
0230
2300
3002
0023
0230
2300
3002
0023
,  // measure 97
0230
2300
3002
1003
0010
1000
0002
0000
,  // measure 98
0023
0000
0000
0000
0230
0000
0000
2300
0000
0000
0000
0000
3000
0000
0000
0000
,  // measure 99
0001
0010
0001
2000
0000
3100
0010
0100
,  // measure 100
1000
0001
0100
0020
0000
0000
0000
0000
,  // measure 101
0230
0000
0302
0000
,  // measure 102
2003
0000
0000
0000
0000
0000
3010
0000
0000
0000
2000
0000
3001
0010
0100
0010
,  // measure 103
0001
0000
1000
0000
0000
0000
0002
0000
0000
0000
1003
0000
0001
0010
0100
0010
,  // measure 104
0001
1000
0000
0200
0000
0000
0000
0000
,  // measure 105
0000
0000
0000
0000
0000
0000
0000
0000
0020
0000
0000
0000
0000
0000
0000
0300
,  // measure 106
2000
0000
0000
0000
0000
0030
0002
0000
0000
0000
0000
3000
0200
0000
0000
0003
,  // measure 107
2000
0300
0002
0000
0000
3000
0200
0000
0000
0000
0000
0003
2000
0000
0000
0300
,  // measure 108
0002
0000
0000
3000
0020
0003
2000
0000
0000
0000
0000
0000
0000
0000
0000
0030
,  // measure 109
0002
0000
0000
0000
0000
0000
0000
3000
0020
0000
0000
0000
0000
0000
0000
0003
,  // measure 110
2000
0000
0000
0000
0000
0030
0002
0000
3000
0000
0103
0000
1000
0000
0001
0000
,  // measure 111
1000
0010
0000
0200
0000
0301
1000
0100
,  // measure 112
0010
0001
0000
2000
0000
3010
0100
0010
,  // measure 113
1000
0001
0000
2000
3100
0010
0001
1000
,  // measure 114
0002
0023
0230
0320
0032
0000
0000
0000
2003
0000
0000
0000
3000
0000
0000
0000
,  // measure 115
0200
0000
0310
0004
0000
0103
0000
2000
,  // measure 116
0000
3100
0000
0001
2000
0000
3100
0000
,  // measure 117
0010
0001
0000
0100
0020
0000
2030
3001
,  // measure 118
0000
0001
2000
0000
0000
0000
0000
0000
,  // measure 119
3100
0010
0000
0040
0000
0130
0000
2000
,  // measure 120
0000
3001
0000
0200
0304
0000
4003
3400
,  // measure 121
0000
0340
0000
0430
2300
3002
0203
0302
,  // measure 122
2003
3200
0320
0032
2003
0000
0000
0000
,  // measure 123
3002
0000
0103
0040
0000
1030
0000
0002
,  // measure 124
0000
0013
0000
0100
2000
0000
3001
0000
,  // measure 125
0010
0100
0000
1000
0002
0000
1003
0100
,  // measure 126
0000
1000
0002
0000
0000
0000
0000
0000
,  // measure 127
1003
0010
0000
0400
0000
0301
0000
4000
,  // measure 128
0000
3010
0000
0200
0000
0000
0000
0000
,  // measure 129
0302
0000
0000
0000
0000
0000
0000
0000
2003
0000
0000
0000
0000
0000
3001
0010
,  // measure 130
0200
0000
2300
3002
,  // measure 131
4003
0000
0000
0000
0000
3001
0000
0200
,  // measure 132
0000
0320
0000
1030
0004
4003
3400
0340
,  // measure 133
0430
4300
3004
0023
0030
0004
4003
3040
,  // measure 134
0430
0340
4030
3002
2003
0000
3002
0000
,  // measure 135
0203
0000
0000
0000
0000
0310
0000
2000
,  // measure 136
0000
3002
0000
0203
0340
4030
3004
0403
,  // measure 137
0340
0430
0304
2003
3000
0004
0043
0430
,  // measure 138
0340
0034
4003
3020
0230
0000
0302
0000
,  // measure 139
2003
0000
0000
3040
0000
0130
0000
0002
,  // measure 140
0000
2003
0000
3100
0040
0034
0043
4030
,  // measure 141
3040
0034
4003
3002
0003
4000
3004
0403
,  // measure 142
4300
3400
0304
2003
3020
0000
0230
0000
,  // measure 143
0304
0000
0000
0000
0000
1003
0000
0200
,  // measure 144
0000
0320
0000
0230
4300
3004
0403
4300
,  // measure 145
3400
0304
4003
3002
0003
4000
3004
0043
,  // measure 146
4030
3040
0034
2003
0000
3010
0100
0100
,  // measure 147
0001
0001
1000
4000
0000
3001
0100
0100
,  // measure 148
0010
0010
1000
1000
2004
0000
0000
0000
,  // measure 149
0000
0000
0000
0000
,  // measure 150
0000
0000
3003
0000
;

//---------------dance-single - Hard----------------
#NOTES:
     dance-single:
     Ace Of Hearts (2014):
     Hard:
     8:
     0.568,0.484,0.005,1.000,0.030:
0000
0000
0000
0000
,
0000
2000
3200
0320
,
0032
0000
1003
0100
0000
0020
0000
0230
,
0000
1300
0001
0000
2000
0000
3010
0000
,
0200
0000
0301
1000
0000
0100
0000
0020
,
0000
0031
1000
0001
0000
0010
0100
0000
,
2000
0000
3001
0100
0000
0010
0000
2000
,
0000
3001
0020
0000
0031
0010
0200
0000
,
2300
0000
3001
0200
0000
0320
0000
4030
,
0000
0000
0000
0000
0000
3001
0200
0000
,
0320
0000
1030
0002
0000
0023
0000
0230
,
0000
1300
0001
0000
0010
0001
0010
0000
,
0002
0000
1003
0020
0000
2030
0000
3002
,
0000
1003
0100
1000
0000
0001
0020
0000
,
0230
0000
1300
0001
0000
2000
0000
3200
,
0000
0310
0002
0000
1003
0001
2000
0000
,
3020
0000
0000
0000
1030
0002
0000
0203
,
0000
0340
0000
0000
0000
0000
0000
0000
,
2030
0000
3002
0000
,
4003
0000
3000
0000
0040
0000
0430
0304
,
0000
4003
3400
0000
0340
0000
0030
0000
,
0002
0000
0000
0000
1003
0010
0000
0200
,
0000
0000
0000
0000
0301
1000
0000
0000
,
0004
0000
0003
0000
0040
0000
0430
4300
,
0000
3004
0403
0000
0340
0000
0030
0000
,
2000
0000
0000
0000
3001
0010
0000
0200
,
0000
1300
1000
0000
0001
0010
0000
0000
,
0400
0000
0000
0000
0300
0000
0000
0000
2000
0000
0000
0000
3000
0001
0000
0200
,
0000
0320
0000
2030
0000
0000
3001
0000
0010
0000
0000
0000
0010
0000
0001
0000
,
0000
2000
0000
3100
0010
0000
0010
0100
,
0000
1000
0002
0000
0003
1000
0020
0000
,
0130
0001
0000
1000
0000
0200
0000
0320
,
0000
0230
0000
1300
0100
0000
0100
1000
,
0000
0002
0000
1003
0010
0000
0010
1000
,
0000
0001
0200
0000
0300
0000
0010
0010
,
0000
2000
0000
3002
0000
0203
0000
0302
,
0000
2003
0000
3000
0000
0000
0001
0001
,
0000
0020
0000
0032
0000
2003
0000
3020
,
0000
0230
0000
0000
0300
0000
0001
0200
,
0000
0320
0000
2030
0000
3020
0000
0230
,
0000
0302
0000
0103
0010
0000
0010
0100
,
0000
0002
0000
1003
0001
0000
0001
1000
,
0000
0000
0001
0010
0100
0010
0002
0000
,
2003
0000
3200
0000
0300
0000
0010
0010
,
0000
0002
0000
1003
0000
0020
0000
2030
,
0000
3002
0000
1003
0010
0000
0010
1000
,
0000
0002
0000
0013
0100
0000
0100
0010
,
0000
0001
2000
0000
3000
0001
0200
0000
,
0301
1000
0000
0100
0000
0020
0000
0032
,
0000
2003
0000
3001
0100
0000
0100
0001
,
0000
2000
0000
3100
0010
0000
0010
0100
,
0000
0000
0000
0000
4000
0004
0000
0000
0000
0000
0000
0000
0000
0000
0000
0000
,
0000
0000
0000
0000
,
0000
0000
0000
0000
,
0000
0000
0000
0000
,
0000
3003
0002
0013
0100
0010
0001
0000
,
1000
0000
0002
0103
0010
0100
0001
0000
,
1000
0020
2030
3002
,
0023
0000
0230
0000
1300
0001
0000
1000
,
0000
0200
0000
0310
0001
0000
2000
0000
,
3002
0000
0203
0000
0310
1000
0000
0001
,
0000
0020
0000
0430
0000
0000
0300
4000
,
0000
0000
3002
0000
1003
0010
0000
1000
,
0000
0001
0000
1000
0200
0000
1300
0001
,
2000
0000
3020
0000
0130
0001
0000
2000
,
0000
3200
0000
0340
0000
0000
0030
0004
,
0000
0000
2003
0000
3010
0100
0000
0010
,
0000
2000
0000
3001
0020
0000
0031
1000
,
0002
0000
2003
0000
3001
0200
0000
0320
,
0000
2030
0000
3001
0010
0002
0000
1003
,
0100
0000
0020
0000
0130
1000
0000
0001
,
0000
0200
0000
0301
2000
0000
3001
0010
,
0002
0000
0203
0000
0000
0000
0310
1000
,
0000
0002
0000
0403
0000
0000
0000
0000
,
0000
0302
0000
2003
,
0000
3400
0300
0040
,
0034
4003
0000
3001
0020
0000
0031
1000
,
0002
0000
2003
0000
0000
0000
3001
0100
,
0000
0020
0000
1030
0010
2000
0000
3001
,
0010
0200
0000
2300
,
0000
3002
0000
1003
0020
0000
0130
0000
,
0002
0000
2003
0000
0000
0000
3100
1000
,
0000
0002
0000
0043
0000
0000
0000
0000
,
0000
0000
0000
0000
0230
0000
0000
0000
2300
0000
0000
0000
0000
3001
0000
0200
,
0000
0302
0000
2003
0000
0000
3100
0000
0010
0000
0000
0000
0010
0000
0100
0000
,
0000
2000
0000
3001
0100
0000
0100
0001
,
0000
1000
0200
0000
0300
0010
0002
0000
,
1003
0010
0000
1000
0000
0002
0000
0023
,
0000
0130
1000
0000
2000
0000
0000
3001
,
0100
0000
0002
0000
0000
0000
0000
0000
4003
0040
0000
0000
0000
0000
0000
0000
,
0000
0000
0000
0000
3030
0000
0000
0000
0040
0400
0000
0000
0000
0000
0000
0000
,
0000
0000
0000
0000
,
0000
0000
0000
0000
,
0000
0000
0000
0000
,
0000
0330
0020
1030
0001
1000
0010
0000
,
0100
0000
0020
1030
0001
1000
0010
0000
,
0100
0002
0000
2003
,
3200
0000
0000
0000
2300
0000
0000
3002
0000
0000
0000
0000
0003
0000
0000
0000
,
2000
0000
3001
0200
0000
0000
0301
0100
,
0002
0000
1003
0020
0000
0000
0000
0000
,
2030
0000
3002
0000
,
0023
0000
0000
0130
0000
1000
0001
1000
,
0001
0010
0000
0200
0000
1300
0001
1000
,
0001
0100
0000
0002
0000
0000
0000
0000
,
0000
0000
2003
0000
,
3200
0000
0000
0302
0000
0000
0203
0000
,
2300
3002
0000
0203
0000
0000
0320
0000
,
2030
0000
3002
0023
0000
0000
0000
0000
,
2030
0000
3020
0000
,
0032
0000
0000
2003
0000
3001
0100
0001
,
0100
0010
0000
2000
0000
3001
0010
0001
,
0010
0100
0000
0020
0000
0031
1000
0001
,
1000
0010
0000
0200
0000
0000
0300
0000
,
0004
0003
2000
3000
,
0002
0000
0013
0400
0000
1300
0000
0002
,
0000
1003
0000
0100
0020
0000
0031
0000
,
1000
0001
0000
0100
0020
0000
1030
0001
,
0000
0001
2000
0000
0000
0000
0000
0000
,
3001
0010
0000
0400
0000
1300
0000
0002
,
0000
1003
0000
0200
0340
0000
0034
4003
,
0000
3040
0000
4030
3001
0100
0001
0000
,
1000
0100
1000
0000
0200
0000
0000
0000
,
0320
0000
0031
4000
0000
3001
0000
0200
,
0000
0310
0000
0100
0020
0000
1030
0000
,
0001
0010
0000
0010
0002
0000
1003
0010
,
0000
0010
2000
0000
0000
0000
0000
0000
,
3001
0010
0000
0400
0000
0310
0000
0004
,
0000
1003
0000
0200
0000
0000
0000
0000
,
0320
0000
0000
0000
0032
0000
0000
1003
,
0200
0000
0320
0032
,
4003
0000
0000
0000
0000
3010
0000
0200
,
0000
0302
0000
2003
3400
0000
0000
0000
,
0340
0000
0031
1000
0000
1000
0004
0000
,
4003
3400
0320
0230
,
2300
0000
0000
0000
0000
3001
0000
0200
,
0000
0320
0000
2030
3004
0000
0000
0000
,
4003
0000
3010
0100
0000
0100
0040
0000
,
4030
3004
0023
0230
,
2300
0000
0000
3004
0000
0103
0000
0020
,
0000
0230
0000
0301
4000
0000
0000
0000
,
3400
0000
0310
0001
0000
0001
0040
0000
,
0430
4300
3002
2003
,
3040
0000
0000
0000
0000
0130
0000
0002
,
0000
2003
0000
3200
0340
0000
0000
0000
,
0034
0000
1003
0010
0000
0010
4000
0000
,
3004
0000
0103
0020
0000
1030
0002
0000
,
0023
0000
0130
4000
0000
3001
0200
0000
,
0320
0000
1030
0001
4002
0000
0000
0000
,
0000
0000
0000
0000
,
0000
0000
3003
0000
;

//---------------dance-single - Medium----------------
#NOTES:
     dance-single:
     Ace Of Hearts (2014):
     Medium:
     6:
     0.352,0.261,0.005,0.777,0.020:
0000
0000
0000
0000
,
0000
0002
0023
0032
,
2003
0000
0000
3001
0000
0100
0000
0001
,
0000
2000
0000
3000
,
0020
0000
0000
1030
0000
0001
0000
1000
,
0000
0002
0000
0003
,
2000
0000
0000
3001
0000
0010
0000
0001
,
0000
2000
0000
3000
,
0020
0000
0000
1030
0000
0001
0000
4000
,
0000
0000
0000
0000
0000
3000
0000
0000
,
0002
0000
0000
1003
0000
0100
0000
2000
,
0000
3001
0001
0000
,
0020
0000
0000
0031
0000
0010
0000
0002
,
0000
1003
0000
1000
,
0020
0000
0000
1030
0000
0001
0000
2000
,
0000
3002
0203
0000
,
0302
0000
0000
0000
2003
0000
0000
3200
,
0000
0340
0000
0000
0000
0000
0000
0000
,
0032
0000
2003
0000
,
3400
0300
0040
0000
,
0030
0004
0000
0003
,
2000
0000
0000
0000
0000
3001
0000
0200
,
0000
0000
0000
0000
0000
0310
0000
0000
,
4000
3000
0040
0000
,
0030
0400
0000
0300
,
0002
0000
0000
0000
0000
1003
0000
0200
,
0000
0000
0000
0000
0000
0310
0000
0000
,
0004
0000
0000
0000
0003
0000
0000
0000
2000
0000
0000
0000
3000
0002
0000
0000
,
0000
0000
0000
2003
0000
0000
0000
0000
0000
0000
0000
0000
3010
0000
0000
0000
,
0000
0200
0000
0000
0000
0000
0301
0000
,
0000
2000
3000
0200
,
0000
0310
0000
0001
0000
0020
0000
0030
,
0000
0200
0000
0000
0000
0000
1300
0000
,
0000
0002
0000
0000
0000
0000
0103
0000
,
0000
0020
0030
1000
,
0000
0002
0000
0000
0000
0103
0000
0010
,
0000
0200
0000
0000
0000
0000
0301
0000
,
0000
1000
0000
0100
0000
1000
0000
0000
,
0000
0002
0000
0000
0003
0000
0010
0000
,
0000
0010
0000
0000
0000
0100
0000
0010
,
0000
0200
0000
0000
0000
0000
1300
0000
,
0000
0002
0000
0000
0000
0000
0013
0000
,
0000
0001
1000
0001
,
0000
2000
3000
0010
,
0000
0020
0000
0000
0000
1030
0000
0001
,
0000
2000
0000
0000
0000
0000
3001
0000
,
0000
0020
0000
0000
0000
0000
0130
0000
,
0000
2000
3000
0002
,
0000
1003
0000
0100
0000
2000
0000
0000
,
0000
3002
0000
0000
0000
0000
0103
0000
,
0000
0020
0000
0000
0000
0000
1030
0000
,
0000
0000
0000
0000
0004
4000
0000
0000
0000
0000
0000
0000
0000
0000
0000
0000
,
0000
0000
0000
0000
,
0000
0000
0000
0000
,
0000
0000
0000
0000
,
3003
2000
3020
2030
,
3000
0002
0023
0032
,
0003
2000
3020
2030
,
3002
0000
0023
0000
0000
0031
0000
1000
,
0000
0002
0000
0000
0000
0000
1003
0000
,
0000
0000
0002
0000
0000
1003
0000
0100
,
0000
1000
0000
0400
0000
0000
0300
0400
,
0000
0000
2300
0000
0000
3001
0000
0100
,
0000
0002
0000
0000
0000
0000
1003
0000
,
0000
0000
0002
0000
0000
1003
0000
0010
,
0000
1000
0000
0040
0000
0000
0030
0040
,
0000
0000
2030
0000
0000
3001
0000
0010
,
0000
0002
0000
0000
0000
0000
1003
0000
,
0000
0000
0020
0000
0000
0130
0000
0001
,
0000
0200
0000
0000
0310
0000
0000
0000
,
0010
0000
2000
0000
0000
3001
0000
0010
,
0000
0002
0000
0000
1003
0000
1000
0000
,
0000
0020
0000
1030
,
0000
0002
0000
0403
0000
0000
0000
0000
,
0000
0320
0000
2030
,
0000
3004
0003
4000
,
0000
3000
0020
0000
,
0030
0000
2000
0000
0000
0000
0000
3001
,
0000
0200
0000
0000
0000
0310
0000
0000
,
0020
0000
0000
2030
,
0000
3002
0000
0000
0013
0000
0100
0000
,
0000
2000
0000
3001
,
0000
2000
0000
3040
0000
0000
0000
0000
,
0000
0000
0000
0000
2030
0000
0000
0000
3002
0000
0000
0000
0000
0003
0000
1000
,
0000
0020
0000
2030
0000
0000
0000
0000
0000
0000
0000
0000
3001
0000
0000
0000
,
0000
0020
0000
0000
0000
0000
0130
0000
,
0000
0020
0030
0002
,
0000
1003
0000
0010
0000
2000
0000
0000
,
0000
3001
0002
0000
,
0000
2003
0000
0000
3004
0000
0000
0000
,
0000
0000
0000
0000
0003
0000
0000
0000
0040
0400
0000
0000
0000
0000
0000
0000
,
0000
0000
0000
0000
,
0000
0000
0000
0000
,
0000
0000
0000
0000
,
0330
0200
0320
0230
,
0300
2000
3002
2003
,
3000
0020
0000
2030
,
3002
0000
0000
0000
0023
0000
0000
0230
0000
0000
0000
0000
0000
0000
0000
0000
,
1300
0000
0000
0002
0000
0000
1003
0000
,
1000
0000
0000
0020
0000
0000
0000
0000
,
0230
0000
0302
0000
,
2003
0000
0000
3100
0000
0200
0000
0000
,
0000
0310
0000
0002
0000
0000
0000
0000
,
0000
1003
0000
0200
0000
0000
0000
0000
,
0000
0000
0320
0000
,
0032
0000
0000
2003
0000
0000
3020
0000
,
0230
0000
0000
0302
0000
0000
2003
0000
,
3200
0000
0000
0320
0000
0000
0000
0000
,
0032
0000
2003
0000
,
3020
0000
0000
0230
0000
0000
0000
0000
,
0000
0301
0000
2000
0000
0000
0000
0000
,
0000
3100
0000
0020
0000
0000
0000
0000
,
0000
0031
0000
2000
0000
0000
3000
0000
,
0040
0030
2000
3000
,
0002
0000
0000
1003
0000
0100
0000
1000
,
0000
0000
0001
0010
,
0001
0000
0000
0000
2000
0000
0000
3001
,
0000
0020
0000
0000
,
0031
0000
0000
1000
0000
0001
0000
2000
,
0000
0000
0000
3040
0000
0000
0000
0430
,
0000
0000
0000
0304
0000
0000
0003
0000
,
0000
0000
2000
3000
,
0020
0000
0000
0130
0000
0001
0000
0200
,
0000
0300
0000
0000
0001
0000
1000
0000
,
0001
0000
0000
0000
2000
0000
0000
3100
,
0000
0020
0000
0000
,
0031
0000
0000
1000
0000
0010
0000
2000
,
0000
0000
0000
3002
0000
0000
0000
0000
,
0203
0000
0320
0000
,
2030
0000
3002
0023
,
0430
0000
0000
0000
0000
1300
0000
0001
,
0000
2000
0000
3000
0004
0000
0000
0000
,
0043
0000
0000
0030
0000
0004
0000
0000
,
4003
0000
3010
1000
,
0020
0000
0000
0000
0000
1030
0000
0001
,
0000
2000
0000
3000
0400
0000
0000
0000
,
0340
0000
0000
0030
0000
0400
0000
0000
,
4300
0000
3001
0100
,
0002
0000
0000
0003
0000
1000
0000
0001
,
0000
1000
0000
0000
0004
0000
0000
0000
,
0043
0000
0000
0030
0000
0400
0000
0000
,
4300
0000
3001
1000
,
0004
0000
0000
0000
0000
1003
0000
0010
,
0000
2000
0000
0000
3004
0000
0000
0000
,
0403
0000
0000
0300
0000
0040
0000
0000
,
4030
0000
0000
3002
0000
0000
0013
0000
,
0020
0000
0000
0430
0000
0000
1300
0000
,
2000
3001
4002
0000
,
0000
0000
0000
0000
,
0000
0000
3003
0000
;

//---------------dance-single - Easy----------------
#NOTES:
     dance-single:
     Ace Of Hearts (2014):
     Easy:
     4:
     0.181,0.149,0.005,0.334,0.000:
0000
0000
0000
0000
,
0000
0000
0000
0000
,
0001
0000
0001
0000
,
0002
0000
0003
0000
,
1000
0000
1000
0000
,
2000
0000
3000
0000
,
0100
0000
0100
0000
,
0200
0000
0300
0000
,
0010
0000
0010
0000
,
0040
0000
0030
0000
,
0001
0000
0001
0000
,
0002
0000
0003
0000
,
1000
0000
1000
0000
,
2000
0000
3000
0000
,
0010
0000
0010
0000
,
0020
0000
0030
0000
,
0100
0000
0100
0000
,
0400
0000
0000
0300
,
0001
0000
0001
0000
,
0004
0000
0003
0000
,
0004
0000
0003
0000
,
2000
0000
3000
0000
,
2000
0000
3000
0000
,
0040
0000
0030
0000
,
0040
0000
0030
0000
,
0200
0000
0300
0000
,
0200
0000
0300
0000
,
0004
0000
0003
0000
,
1000
2000
0000
3000
,
0000
2000
0000
3000
,
0000
0000
0000
0002
,
0000
0003
0000
0100
,
0000
0200
0000
0300
,
0000
0200
0000
0300
,
0000
0000
0000
0010
,
0000
0010
0000
0020
,
0000
0030
0000
1000
,
0000
1000
0000
2000
,
0000
3000
0000
0001
,
0000
0001
0000
0100
,
0000
0200
0000
0300
,
0000
0200
0000
0300
,
0000
0020
0000
0000
,
0000
0030
0000
1000
,
0000
1000
0000
0100
,
0000
0200
0000
0300
,
0000
0200
0000
0300
,
0000
0000
0000
0010
,
0000
0010
0000
0001
,
0000
0002
0000
0003
,
0000
0002
0000
0003
,
0000
0040
0000
0000
,
0000
0000
0000
0000
,
0000
0000
0000
0000
,
0000
0000
0000
0000
,
0030
0001
0000
0001
,
0000
0001
0000
0001
,
0000
0000
2000
0000
,
3000
0010
0000
0010
,
0000
0020
0000
0030
,
0000
0100
0000
0100
,
0000
0400
0000
0000
,
0300
0001
0000
0001
,
0000
0002
0000
0003
,
0000
1000
0000
1000
,
0000
4000
0000
0000
,
3000
0100
0000
0100
,
0000
0200
0000
0300
,
0000
0010
0000
0010
,
0000
0020
0000
0030
,
0000
0001
0000
0001
,
0000
0002
0000
0003
,
0000
1000
0000
1000
,
0000
4000
0000
0000
,
3000
0100
0000
0100
,
0000
0400
0000
0300
,
0000
0010
0000
0010
,
0000
0020
0000
0030
,
0000
0020
0000
0030
,
0000
0002
0000
0003
,
0000
0002
0000
0003
,
0000
2000
0000
3000
,
0000
4000
0000
0000
,
0000
3000
0002
0000
,
0003
2000
0000
3000
,
0000
2000
0000
3000
,
0000
0000
0000
0010
,
0000
0010
0000
0100
,
0000
0200
0000
0300
,
0000
0004
0000
0000
,
0000
0003
0400
0000
,
0000
0000
0000
0000
,
0000
0000
0000
0000
,
0000
0000
0000
0000
,
0300
0010
0000
0010
,
0000
0010
0000
0010
,
0000
2000
0000
3000
,
0001
0001
0002
0000
,
1003
0000
2000
0000
,
3000
0000
0010
0000
,
0010
0000
0100
0000
,
0100
0000
0002
0000
,
0000
0003
0000
0000
2000
0000
0000
0000
,
0000
3000
0000
0000
0200
0000
0000
0000
,
0000
0000
2300
0000
,
3002
0000
0203
0000
,
0301
0000
0002
0000
,
1003
0000
2000
0000
,
3200
0000
2300
0000
,
3002
0000
0203
0000
,
0000
0300
0000
0000
0020
0000
0000
0000
,
0000
0030
0000
0000
2000
0000
0000
0000
,
0000
3000
0000
0000
0002
0000
0000
0000
,
0003
0000
0000
0000
,
1000
0000
1000
0000
,
0010
0000
0020
0000
,
0030
0000
0200
0000
,
0000
0000
0300
0000
,
0001
0000
0001
0000
,
0001
0000
4000
0000
,
0000
0000
3000
0000
,
0000
0000
0000
0000
,
0001
0000
0001
0000
,
0100
0000
0200
0000
,
0300
0000
0020
0000
,
0000
0000
0030
0000
,
1000
0000
2000
0000
,
3000
0000
0001
0000
,
0001
0000
0100
0000
,
0100
0000
0010
0000
,
0020
0000
0030
0000
,
1000
0000
4000
0000
,
0000
0000
3000
4000
,
0000
3000
0001
0000
,
0002
0000
0003
0000
,
0100
0000
0400
0000
,
0000
0000
0300
0400
,
0000
0300
0000
0000
,
0020
0000
0030
0000
,
0010
0000
0040
0000
,
0000
0000
0030
0040
,
0000
0030
1000
0000
,
2000
0000
3000
0000
,
0001
0000
0004
0000
,
0000
0000
0003
0004
,
0000
0003
0000
4000
,
0000
0000
3000
0004
,
0000
0003
4002
0000
,
0000
0000
0000
0000
,
0000
0000
3003
0000
;

//---------------dance-single - Novice----------------
#NOTES:
     dance-single:
     Ace Of Hearts (2014):
     Beginner:
     2:
     0.112,0.074,0.005,0.294,0.000:
0000
0000
0000
0000
,
0000
0000
0000
0000
,
2000
0000
0000
0000
,
3000
0000
0000
0000
,
0002
0000
0000
0000
,
0003
0000
0000
0000
,
0200
0000
0000
0000
,
0300
0000
0000
0000
,
0020
0000
0000
0000
,
0030
0000
0000
0000
,
2000
0000
0000
0000
,
3000
0000
0000
0000
,
0002
0000
0000
0000
,
0003
0000
0000
0000
,
0020
0000
0000
0000
,
0030
0000
0000
0000
,
0200
0000
0000
0000
,
0300
0000
0000
0000
,
1000
0000
0000
0000
,
4000
0000
0000
0000
,
0000
0000
3000
0000
,
0001
0000
0000
0000
,
0001
0000
0000
0000
,
0004
0000
0000
0000
,
0000
0000
0003
0000
,
0010
0000
0000
0000
,
0010
0000
0000
0000
,
0040
0000
0030
0000
,
0000
0100
0000
0000
,
0000
0100
0000
0000
,
0000
0000
0000
2000
,
0000
3000
0000
0000
,
0000
0001
0000
0000
,
0000
0001
0000
0000
,
0000
0000
0000
0200
,
0000
0000
0000
0000
,
0000
0300
0000
0002
,
0000
0000
0000
0000
,
0000
0003
0000
2000
,
0000
0000
0000
0000
,
0000
3000
0000
0000
,
0000
1000
0000
0000
,
0000
0002
0000
0000
,
0000
0003
0000
2000
,
0000
3000
0000
0000
,
0000
0100
0000
0000
,
0000
0100
0000
0000
,
0000
0000
0000
0020
,
0000
0030
0000
0000
,
0000
0001
0000
0000
,
0000
0001
0000
0000
,
0000
0040
0000
0000
,
0000
0000
0000
0000
,
0000
0000
0000
0000
,
0000
0000
0000
0000
,
0030
0002
0000
0000
,
0000
0000
0000
0000
,
0000
0003
2000
0000
,
3000
0020
0000
0000
,
0000
0030
0000
0000
,
0000
0200
0000
0000
,
0000
0300
0000
0000
,
0000
0002
0000
0000
,
0000
0003
0000
0000
,
0000
2000
0000
0000
,
0000
3000
0000
0000
,
0000
0200
0000
0000
,
0000
0300
0000
0000
,
0000
0020
0000
0000
,
0000
0030
0000
0000
,
0000
0002
0000
0000
,
0000
0003
0000
0000
,
0000
2000
0000
0000
,
0000
3000
0000
0000
,
0000
0010
0000
0000
,
0000
0040
0000
0000
,
0000
0000
0000
0030
,
0000
2000
0000
3000
,
0000
0001
0000
0000
,
0000
0002
0000
0003
,
0000
0200
0000
0300
,
0000
0002
0000
0003
,
0000
4000
0000
0000
,
0000
3000
0020
0000
,
0000
0130
0000
0000
,
0000
0100
0000
0000
,
0000
0000
0000
0002
,
0000
0003
0000
0000
,
0000
1000
0000
0000
,
0000
4000
0000
0000
,
0000
3000
0000
0400
,
0000
0000
0000
0000
,
0000
0000
0000
0000
,
0000
0000
0000
0000
,
0300
2000
0000
0000
,
0000
0000
0000
0000
,
0000
3000
0000
0000
,
0001
0000
0001
0000
,
0000
0000
0002
0000
,
0003
0000
2000
0000
,
0000
0000
3000
0000
,
0000
0000
0020
0000
,
0030
0000
0200
0000
,
0300
0000
0002
0000
,
0000
0000
2003
0000
,
0000
0000
3200
0000
,
0000
0000
0320
0000
,
0000
0000
0032
0000
,
2003
0000
3002
0000
,
0000
0000
0023
0000
,
0030
0000
0200
0000
,
0300
0000
2000
0000
,
3000
0000
0002
0000
,
0003
0000
0000
0000
,
2000
0000
3000
0000
,
0000
0000
1000
0000
,
0000
0000
0020
0000
,
0000
0000
0030
0000
,
0000
0000
0200
0000
,
0300
0000
0400
0000
,
0000
0000
0300
0000
,
0000
0000
0000
0000
,
0002
0000
0000
0000
,
0003
0000
1000
0000
,
0000
0000
2000
0000
,
0000
0000
3000
0000
,
0000
0000
0002
0000
,
0003
0000
0200
0000
,
0000
0000
0000
0000
,
0300
0000
0020
0000
,
0000
0000
0000
0000
,
0030
0000
4000
0000
,
0000
0000
0000
0000
,
3000
0000
0002
0000
,
0000
0000
0000
0000
,
0003
0000
0400
0000
,
0000
0000
0000
0000
,
0300
0000
0020
0000
,
0000
0000
0000
0000
,
0030
0000
4000
0000
,
0000
0000
0000
0000
,
3000
0000
0002
0000
,
0000
0000
0000
0000
,
0003
0000
0040
0000
,
0000
0000
0000
0000
,
0030
0000
0004
0000
,
0003
0000
4000
0000
,
3000
0000
2004
0000
,
0000
0000
0000
0000
,
0000
0000
3003
0000
;
