#TITLE:Overall;
#SUBTITLE:;
#ARTIST:Gaddan & Braxen;
#TITLETRANSLIT:;
#SUBTITLETRANSLIT:;
#ARTISTTRANSLIT:;
#GENRE:Chiptune;
#CREDIT:Ace Of Hearts;
#BANNER:Overall - Bn.png;
#BACKGROUND:Overall - Bg.jpg;
#LYRICSPATH:;
#CDTITLE:Ace Of Hearts.png;
#MUSIC:Overall.ogg;
#OFFSET:2.060;
#SAMPLESTART:25.440;
#SAMPLELENGTH:12.000;
#SELECTABLE:YES;
#BPMS:0.000=113.430;
#STOPS:;
#BGCHANGES:;
#KEYSOUNDS:;

//---------------dance-single - Expert----------------
#NOTES:
     dance-single:
     Ace Of Hearts (2014):
     Challenge:
     11:
     0.956,0.000,0.173,1.000,1.000:
0000
0000
0000
0000
,
0000
0000
0000
0000
,
0000
0000
0000
0000
,
0000
0000
0000
0000
,
0000
0000
0000
0000
,
0002
0000
0013
0100
0000
2000
0000
0000
0000
0002
0000
0000
3000
0000
0103
0010
0000
0010
1000
0000
1000
0001
0000
0000
,
0021
0000
0000
0000
0000
0000
0030
0000
0000
0000
0200
0000
0000
0000
0000
0000
0300
0000
2000
0000
0000
0000
0000
0000
3001
0000
0000
0000
0010
0100
0010
0000
0000
0000
0001
0000
1000
0000
0100
0000
1000
0000
0100
0000
1000
0000
0100
0000
,
0020
0000
0130
2000
0000
3002
0000
0000
0000
1000
0000
0000
0010
0000
0000
1003
0010
1000
0020
0000
0130
0002
0000
0003
,
2001
0000
0000
0000
0000
3200
0000
0000
0000
0000
0000
0300
0120
0000
0000
0000
0000
0000
0000
0000
0000
0000
0000
0000
,
0032
0000
0000
0000
1003
0000
0200
0000
0000
0000
1300
0000
0001
0000
0000
0000
0100
0010
0100
0000
0000
0000
0100
0000
0001
0000
0000
0000
0001
0000
1000
0000
0100
0000
1000
0000
0002
0000
0000
0000
1003
0000
0200
0000
0000
0000
0310
0000
,
0001
0000
1000
0100
0010
0100
2000
0000
3001
0010
0000
0010
0100
1000
0100
1000
0000
1000
0001
0000
0001
0100
0000
0100
,
0010
0000
0010
0100
0000
0100
0001
0100
0001
1000
0000
1000
0100
0000
0100
0010
0000
0010
0001
0000
0001
1000
0000
1000
,
0010
0100
0010
1000
0000
1000
0001
0000
0001
1000
0000
1000
0100
0010
0100
1000
0000
1000
0001
0000
0001
0100
0010
0100
,
0002
0000
1003
0020
0000
0230
0000
0000
0000
0002
0000
0000
0300
0000
1003
0100
0000
0100
0010
0000
0010
0100
0000
0000
,
2100
0000
0000
0000
0000
0000
3000
0000
0000
0000
0002
0000
0000
0000
0000
0000
0003
0000
0200
0000
0000
0000
0000
0000
0300
0000
0000
0000
0010
0100
0010
0000
0000
0000
0010
0000
1000
0000
0001
0000
1000
0000
0001
0000
1000
0000
0001
0000
,
0020
0000
0130
1000
0000
0002
0000
0000
0000
0100
0000
0000
2003
0000
0000
3100
0010
0100
1000
0000
1000
0001
0000
0000
,
0201
0000
0000
0000
0000
0320
0000
0000
0000
0000
0000
0030
2010
0000
0000
0000
0000
0000
0000
0000
0000
0000
0000
0000
,
3002
0000
0000
0000
0013
0000
0100
0000
0000
0000
0100
0000
0010
0000
0000
0000
0010
0001
0010
0000
0000
0000
0010
0000
0100
0000
0000
0000
0100
0000
1000
0000
0100
0000
1000
0000
0001
0000
0000
0000
0001
0000
0100
0000
0000
0000
0100
0000
,
0010
0000
0010
1000
0010
1000
0001
0000
0001
1000
0000
1000
0100
0010
0100
1000
0000
1000
0001
0000
0001
0100
0000
0100
,
0010
0000
0010
1000
0000
1000
0001
0010
0001
1000
0000
1000
0010
0000
0010
0100
0000
0100
0001
0000
0001
1000
0000
1000
,
0100
0010
0100
1000
0000
1000
0001
0000
0001
0100
0000
0100
0010
1000
0010
0100
0000
0100
0001
0000
0001
1000
0100
1000
,
0200
0000
0000
0310
0000
0002
0000
0000
1003
0020
0000
0000
0000
0000
0130
0001
0100
0001
1000
0000
1000
0200
0000
0300
,
0120
0000
0000
0000
0000
0000
0032
0000
1003
0200
0000
0000
0320
0000
0031
1000
0001
1000
0010
0000
0010
0100
0000
0100
,
0002
0000
0000
0000
0000
0000
1003
0000
0020
0000
0000
0000
0130
0000
0100
0001
0100
0001
1000
0000
1000
0100
0000
0100
,
0010
0100
0010
0001
0000
0001
2000
0000
0000
3010
0000
0100
0000
0000
0100
0001
0100
0001
1000
0000
0000
0000
0000
0000
,
0001
0010
0001
2000
0000
3000
1200
0000
0000
0320
0000
0030
0012
0000
0000
1003
0000
0200
0000
0000
0000
0320
0000
0000
,
0032
0000
1003
0200
0000
0000
0310
0001
0010
0200
0000
0000
2300
0000
3001
0020
0000
0230
0000
0000
0000
0000
0000
0300
,
2100
0000
0000
3001
0000
0001
0100
0000
0100
0010
0000
0010
1000
0000
1000
0001
0000
0001
0200
0000
0000
0000
0000
0000
,
0320
0000
0000
2030
0000
3001
0010
0000
0010
0100
0000
0100
1000
0000
1000
0001
0000
0001
0100
0000
0100
0000
0000
0000
,
0020
0000
0000
0000
0130
0000
0001
0000
0000
0000
2000
0000
0000
0000
0000
0000
0000
0000
0000
0000
0000
0000
0000
0000
0000
0000
0000
0000
0000
0000
0000
0000
0000
0000
3001
0000
0010
0000
0000
0000
0010
0000
0100
0000
0000
0000
0010
0001
,
0010
0000
0002
0000
0000
0000
0000
0000
2003
0000
0000
0000
3010
0000
0010
1000
0000
1000
0001
0000
0001
0010
0000
0010
,
0100
0000
0100
2000
0000
0000
3002
0000
0103
0020
0000
0000
1030
0000
1000
0001
0000
0001
0200
0000
0000
0320
0000
0000
,
2030
0000
3001
0020
0000
0000
0230
0000
0310
0002
0000
0003
2002
0000
0000
0003
0000
0000
3200
0000
0000
0000
0000
0300
,
0120
0000
0000
0000
0000
0000
0000
0000
0000
0000
0031
0010
0001
0000
0000
0000
0001
0000
1000
0000
0000
0000
1000
0000
0010
0000
0000
0000
0010
0000
0100
0000
0010
0000
0100
0000
0001
0000
0000
0000
0001
0000
1000
0000
0000
0000
0000
0000
,
1020
0000
0000
0000
0000
0000
0130
0000
0002
0000
0000
0000
2003
0000
0000
0000
0000
3100
0010
0100
0010
0002
0000
0000
,
2003
0000
0000
0000
3010
0000
0100
0000
0000
0000
0100
0010
0100
0000
0000
0000
0100
0000
0001
0000
0000
0000
0001
0000
1000
0000
0000
0000
1000
0000
0100
0000
0000
0000
0100
0000
0010
0000
0000
0000
0010
0001
0010
0000
0000
0000
0010
0000
,
0100
0000
0100
1000
0000
1000
0001
0000
0001
0100
0000
0100
0010
0100
0010
1000
0000
1000
0001
0000
0001
0010
0000
0010
,
0200
0000
1300
0001
0000
0200
0000
0000
0000
0020
0000
0000
0300
0000
1030
0001
0000
0001
1000
0000
1000
0010
0000
0000
,
0210
0000
0000
0000
0000
0000
0300
0000
0000
0000
0002
0000
0000
0000
0000
0000
0003
0000
2000
0000
0000
0000
0000
0000
0000
0000
0000
0000
3001
0010
0001
0000
0000
0000
0001
0000
1000
0000
0010
0000
1000
0000
0001
0000
0100
0000
0001
0000
,
1000
0000
1000
0100
0000
0020
0000
0000
0000
0100
0000
0000
0032
0000
0000
1003
0010
1000
0010
0000
0010
0200
0000
0300
,
0102
0000
0000
0000
0000
2003
0000
0000
0000
0000
0000
3000
1200
0000
0000
0000
0000
0000
0000
0000
0000
0000
0000
0000
,
0310
0000
0000
0000
0010
0000
0001
0000
0000
0000
0001
0000
1000
0000
0000
0000
1000
0100
1000
0000
0000
0000
1000
0000
0001
0000
0000
0000
0001
0000
0100
0000
0010
0000
0100
0000
0001
0000
0000
0000
0001
0000
1000
0000
0000
0000
1000
0000
,
0100
0000
0100
0010
0001
0010
0100
0000
0100
1000
0000
1000
0001
1000
0001
0100
0000
0100
0010
0000
0010
1000
0000
1000
,
0001
0000
0001
0010
0000
0010
0100
1000
0100
0010
0000
0010
0001
0000
0001
1000
0000
1000
0010
0000
0010
0100
0000
0100
,
0001
0100
0001
1000
0000
1000
0100
0000
0100
0010
0000
0010
0100
1000
0100
0010
0000
0010
0001
0000
0001
1000
0001
1000
,
0020
0000
0000
0130
0000
0002
0000
0000
1003
0020
0000
0000
0000
0000
1030
0001
0010
0001
1000
0000
1000
0200
0000
0300
,
0120
0000
0000
0000
0000
0000
0032
0000
1003
0020
0000
0000
0130
0000
0100
0001
1000
0001
0100
0000
0100
0010
0000
0010
,
2000
0000
0000
0000
0000
0000
3001
0000
0020
0000
0000
0000
0230
0000
1300
0100
0010
0100
1000
0000
1000
0001
0000
0001
,
0100
0010
0100
0001
0000
0001
2000
0000
0000
3010
0000
0200
0000
0000
0301
1000
0100
1000
0001
0000
0000
0000
0000
0000
,
1000
0010
1000
0002
0000
0000
0023
0000
0000
0230
0000
0300
2100
0000
0000
3001
0000
0200
0000
0000
0000
0320
0000
0000
,
2030
0000
3001
0020
0000
0000
0130
1000
0100
0020
0000
0000
0031
0000
0001
1000
0000
0200
0000
0000
0000
0000
0000
0000
,
0320
0000
0000
0000
0000
0000
0031
0000
0000
0000
0001
0000
1000
0000
0000
0000
1000
0100
1000
0000
0000
0000
1000
0000
0001
0000
0000
0000
0001
0000
0100
0000
0000
0000
0020
0000
0000
0000
0000
0000
0000
0000
0000
0000
0000
0000
0030
0000
,
0210
0000
0000
0301
0000
0001
1000
0000
1000
0100
0000
0100
0010
0000
0010
0100
1000
0100
1000
0000
0000
2000
0000
0000
,
3001
0000
0000
0000
0001
0000
0200
0000
0000
0000
0320
0000
0000
0000
0000
0000
0000
0000
0000
0000
0000
0000
0000
0000
0000
0000
0000
0000
0000
0000
0000
0000
0000
0000
1030
0000
0001
0000
0000
0000
0010
0100
0010
0000
0000
0000
0001
0000
,
1000
0000
0020
0000
0000
0000
0000
0000
2030
0000
0000
0000
3001
0000
0001
0100
0000
0100
0010
0000
0010
1000
0000
1000
,
0001
0000
0001
0020
0000
0000
0130
0000
0100
2000
0000
0000
3001
0000
0001
0010
0000
0010
0200
0000
0000
2300
0000
0000
,
3001
0000
0001
0200
0000
0000
0301
0000
0001
2000
0000
3000
1200
0000
0000
0000
0000
0000
0320
0000
0000
0000
0000
0030
,
0012
0000
0000
0000
0000
0000
0000
0000
0000
0000
1003
0100
1000
0000
0000
0000
1000
0000
0001
0000
0000
0000
0001
0000
0100
0000
0000
0000
0100
0000
0010
0000
0100
0000
0010
0000
2000
0000
0000
0000
3002
0000
0000
0000
0000
0000
0003
0000
,
0021
0000
0000
0000
0000
0000
0130
0000
2000
0000
0000
0000
3001
0000
0001
0100
0000
0100
0010
1000
0010
0200
0000
0000
,
0301
0000
0000
0000
0001
0000
1000
0000
0000
0000
1000
0100
1000
0000
0000
0000
1000
0000
0001
0000
0000
0000
0001
0000
1000
0000
0000
0000
1000
0000
0001
0000
0000
0000
0001
0010
0001
0000
0000
0000
0001
0000
1000
0000
0000
0000
1000
0000
,
0010
0000
0010
0100
0000
0100
0001
0000
0001
1000
0000
1000
0100
0010
0100
1000
0000
1000
0001
0000
0001
0200
0000
0300
,
0220
0000
0000
0000
,
0000
0000
0000
0000
,
0330
0000
0000
0000
;

//---------------dance-single - Hard----------------
#NOTES:
     dance-single:
     Ace Of Hearts (2014):
     Hard:
     9:
     0.691,0.000,0.008,0.953,0.814:
0000
0000
0000
0000
,
0000
0000
0000
0000
,
0000
0000
0000
0000
,
0000
0000
0000
0000
,
0000
0000
0000
0000
,
2000
0000
3001
0010
0000
0200
0000
0000
0000
0000
0000
0000
0000
0000
0310
0001
0000
0010
0100
0000
0010
0002
0000
0000
,
2003
0000
0000
3000
0000
0002
0000
0000
0003
0200
0000
0000
0000
0000
0310
1000
0000
0001
4000
0000
0000
0000
0000
0000
,
3002
0000
0013
0200
0000
2300
0000
0000
0000
0000
0000
0000
0000
0000
0000
3004
0000
0000
0000
0000
0103
0020
0000
0000
,
2030
0000
0000
0000
0000
3002
0000
0000
0000
0000
0000
0000
0023
0000
0000
0000
0000
0000
0000
0000
0000
0000
0000
0000
,
0130
0000
0010
0001
0000
0010
0100
0000
0010
0002
0000
0000
1003
0000
0100
0040
0000
0000
0000
0000
0031
0020
0000
0000
,
0031
0000
1000
0400
0000
0000
0000
0000
0310
0002
0000
0000
0043
0000
0000
0000
0000
0130
1000
0000
0100
2000
0000
0000
,
3001
0000
0100
0001
0000
0100
0040
0000
0000
0000
0000
0000
1030
0000
0010
0100
0000
0010
1000
0000
0010
0200
0000
0000
,
0304
0000
0000
0000
0000
0103
0001
0000
0100
0020
0000
0000
4030
0000
0000
0000
0000
3001
1000
0000
0001
0040
0000
0000
,
0230
0000
1300
0001
0000
0200
0000
0000
0000
0000
0000
0000
0000
0000
0310
1000
0000
0001
1000
0000
0001
0020
0000
0000
,
0230
0000
0000
0300
0000
2000
0000
0000
3000
0002
0000
0000
0000
0000
0013
0100
0000
0010
0004
0000
0000
0000
0000
0000
,
1003
0000
0010
1000
0000
0002
0000
0000
0000
0000
0000
0000
0000
0000
0000
4003
0000
0000
0000
0000
3100
0010
0000
0000
,
0002
0000
0000
0000
0000
0023
0000
0000
0000
0000
0000
0000
0230
0000
0000
0000
0000
0000
0000
0000
0000
0000
0000
0000
,
1300
0000
0001
0010
0000
0100
0010
0000
0001
2000
0000
0000
3001
0000
1000
0400
0000
0000
0000
0000
1300
0002
0000
0000
,
0013
0000
0100
4000
0000
0000
0000
0000
3100
0020
0000
0000
0430
0000
0000
0000
0000
1300
0001
0000
1000
0200
0000
0000
,
0310
0000
0001
1000
0000
0001
4000
0000
0000
0000
0000
0000
3010
0000
0100
0001
0000
0100
0001
0000
0100
0020
0000
0000
,
4030
0000
0000
0000
0000
3001
0010
0000
0001
2000
0000
0000
3040
0000
0000
0000
0000
0130
0001
0000
0100
0040
0000
0000
,
2030
0000
0000
0000
0000
3002
0000
0000
0000
0023
0000
0000
0000
0000
0130
4000
0000
0000
0000
0000
3001
0200
0000
0000
,
0302
0000
0000
0000
0000
0000
2003
0000
3100
0020
0000
0000
0130
0000
1000
0004
0000
0000
0000
0000
1003
0020
0000
0000
,
0230
0000
0000
0000
0000
0000
0310
0000
2000
0000
0000
0000
3001
0000
0010
0400
0000
0000
0000
0000
0310
0002
0000
0000
,
4003
0000
0000
0000
0000
3001
0010
0000
0000
0001
0000
1000
0000
0000
0100
4000
0000
0000
0000
3000
0000
0000
0000
0000
,
0004
0000
0000
0000
0000
0000
1003
0000
0000
0010
0000
0000
1000
0000
0000
0001
0000
0020
0000
0000
0000
0130
0000
0000
,
1000
0000
0100
0020
0000
0000
0034
0000
0000
0000
0000
0000
2003
0000
3100
0020
0000
0230
0000
0000
0000
0000
0000
0000
,
2300
0000
0000
3001
0000
0010
0100
0000
1000
0100
0000
0010
0001
0000
0010
0100
0000
2000
0000
0000
0000
0000
0000
0000
,
3002
0000
0000
0013
0000
0100
1000
0000
0100
0010
0000
0001
0010
0000
0100
1000
0000
0100
0020
0000
0032
0000
0000
0000
,
1003
0000
0100
0010
0000
0200
0000
0000
0000
0000
0000
0000
0000
0000
0000
0000
0000
1300
0001
0000
1000
0001
0000
0010
,
0100
0000
2000
0000
0000
0000
0000
0000
0000
0000
0000
0000
3001
0000
0010
0200
0000
0000
0310
0000
0001
0020
0000
0000
,
0130
0000
1000
0002
0000
0000
2003
0000
3100
0020
0000
0000
0031
0000
0001
1000
0000
1000
0200
0000
0000
0320
0000
0000
,
0031
0000
1000
0200
0000
0000
1300
0000
0001
0200
0000
0000
0320
0000
0000
0000
0000
0000
2030
0000
0000
0000
0000
0000
,
3002
0000
0000
0000
0000
0000
1003
0000
0100
0010
0000
0100
1000
0000
0100
0040
0000
0000
0000
0000
0031
0000
0000
0000
,
2000
0000
0000
3010
0200
0000
0302
0000
0000
4003
0000
0000
,
3100
0000
0010
0100
0000
2000
0000
0000
0000
0000
0000
0000
3001
0000
0100
0010
0000
0100
0001
0000
0100
0010
0000
0100
,
0001
0000
1000
0001
0000
1000
0100
0000
1000
0100
0000
0010
0400
0000
0000
0000
0000
1300
0001
0000
1000
0001
0000
0100
,
0002
0000
1003
0010
0000
0200
0000
0000
0000
0000
0000
0000
0000
0000
0301
1000
0000
0010
0100
0000
0010
1000
0000
0000
,
0002
0000
0000
0003
0000
0020
0000
0000
0030
0200
0000
0000
0300
0000
1000
0001
0000
0100
0004
0000
0000
0000
0000
0000
,
1003
0000
0100
0010
0000
0200
0000
0000
0000
0000
0000
0000
0000
0000
0000
4300
0000
0000
0000
0000
3001
0200
0000
0000
,
0320
0000
0000
0000
0000
2030
0000
0000
0000
0000
0000
0000
3002
0000
0000
0000
0000
0000
0000
0000
0000
0000
0000
0000
,
0013
0000
0100
1000
0000
0100
0010
0000
0100
1000
0000
0100
0010
0000
0100
4000
0000
0000
0000
0000
3001
0100
0000
0001
,
1000
0000
0100
0040
0000
0000
0000
0000
0031
1000
0000
0001
0400
0000
0000
0000
0000
0310
1000
0000
0010
0100
0000
0010
,
1000
0000
0001
1000
0000
0001
0040
0000
0000
0000
0000
0031
1000
0000
0010
1000
0000
0001
0010
0000
0001
1000
0000
0010
,
4000
0000
0000
0000
0000
3001
0100
0000
0001
1000
0000
0100
4000
0000
0000
0000
0000
3001
0100
0000
0001
4000
0000
0000
,
3200
0000
0000
0000
0000
0320
0000
0000
0000
0032
0000
0000
0000
0000
1003
0040
0000
0000
0000
0000
1030
0002
0000
0000
,
0023
0000
0000
0000
0000
0000
0230
0000
0310
0002
0000
0000
1003
0000
0010
4000
0000
0000
0000
0000
3001
0200
0000
0000
,
0320
0000
0000
0000
0000
0000
2030
0000
3002
0000
0000
0000
0013
0000
0400
0000
0000
0000
0000
0000
1300
0001
0000
0100
,
0004
0000
0000
0000
0000
1003
0200
0000
0000
0310
0000
0002
0000
0000
4003
0000
0000
0000
3000
0000
0000
0000
0000
0000
,
0040
0000
0000
0000
0000
0000
1030
0000
0000
0001
0000
0000
1000
0000
0000
0100
0000
0020
0000
0000
0000
0032
0000
0000
,
1003
0000
0100
0020
0000
0000
0034
0000
0000
0000
0000
0000
2003
0000
3001
0010
0000
0200
0000
0000
0000
0000
0000
0000
,
1300
0000
0000
0001
0000
0100
0010
0000
1000
0010
0000
0100
0001
0000
0100
0010
0000
2000
0000
0000
0000
0000
0000
0000
,
3002
0000
0000
1003
0000
0100
0010
0000
0100
1000
0000
0100
0010
0000
0100
1000
0000
0100
0020
0000
0000
0032
0000
0000
,
2003
0000
3100
0010
0000
0002
0000
0000
0000
0000
0000
0000
0000
0000
0000
0000
0000
1003
0010
0000
1000
0001
0000
1000
,
0010
0000
0200
0000
0000
0000
0000
0000
0000
0000
0000
0000
0301
0000
1000
0200
0000
0000
1300
0000
0001
0020
0000
0000
,
0130
0000
1000
0200
0000
0000
0310
0000
0001
0020
0000
0000
0130
0000
0100
1000
0000
1000
0002
0000
0000
0203
0000
0000
,
0310
0000
1000
0002
0000
0000
0013
0000
0100
2000
0000
0000
3002
0000
0000
0000
0000
0000
0203
0000
0000
0000
0000
0000
,
0320
0000
0000
0000
0000
0000
1030
0000
0001
0010
0000
0001
1000
0000
0001
0040
0000
0000
0000
0000
0230
0000
0000
0000
,
2300
0000
0000
0000
0000
0000
3001
0000
0200
0000
0000
0000
0310
0000
0100
0001
0000
0100
0040
0000
0000
0000
0000
0000
,
2030
0000
3001
0010
0000
0200
0000
0000
0000
0000
0000
1300
0100
0000
0010
0001
0000
0010
0100
0000
1000
0100
0000
0010
,
0001
0000
1000
0010
0000
0100
0001
0000
0100
0010
0000
1000
0004
0000
0000
0000
0000
1003
0100
0000
0010
0001
0000
0000
,
2002
0000
0000
0000
,
0000
0000
0000
0000
,
3003
0000
0000
0000
;

//---------------dance-single - Medium----------------
#NOTES:
     dance-single:
     Ace Of Hearts (2014):
     Medium:
     7:
     0.414,0.000,0.008,0.443,0.120:
0000
0000
0000
0000
,
0000
0000
0000
0000
,
0000
0000
0000
0000
,
0000
0000
0000
0000
,
0000
0000
0000
0000
,
0002
0000
0000
1003
0000
0200
0000
0000
0000
0000
0000
0000
0000
0000
0000
0000
0000
0000
0310
0000
0000
0001
0000
0000
,
1000
0000
0000
0000
0000
0010
0000
0000
0000
2000
0000
0000
0000
0000
0000
3001
0000
0000
0040
0000
0000
0000
0000
0000
,
0031
0000
0000
1000
0000
0002
0000
0000
0000
0000
0000
0000
0000
0000
0000
1003
0000
0000
0010
0000
0000
1000
0000
0000
,
0001
0000
0000
0000
0000
0200
0000
0000
0000
0000
0000
0000
0320
0000
0000
0000
0000
0000
0000
0000
0000
0000
0000
0000
,
1030
0001
1000
0001
0010
0004
0000
1003
,
0010
4000
0000
3001
0040
0000
0031
1000
,
0001
0100
0004
0000
1003
0100
1000
0100
,
0040
0000
0031
1000
0004
0000
0003
1000
,
0002
0000
0000
1003
0000
0200
0000
0000
0000
0000
0000
0000
0000
0000
0000
0000
0000
0000
0310
0000
0000
0001
0000
0000
,
0010
0000
0000
0000
0000
0100
0000
0000
0000
2000
0000
0000
0000
0000
0000
3001
0000
0000
0400
0000
0000
0000
0000
0000
,
0301
0000
0000
1000
0000
0200
0000
0000
0000
0000
0000
0000
0000
0000
0000
0310
0000
0000
0100
0000
0000
0010
0000
0000
,
0001
0000
0000
0000
0000
2000
0000
0000
0000
0000
0000
0000
3020
0000
0000
0000
0000
0000
0000
0000
0000
0000
0000
0000
,
0130
0001
0100
0001
1000
0400
0000
0310
,
0001
0040
0000
0130
4000
0000
3001
0100
,
0001
1000
0004
0000
0013
0100
0010
0100
,
4000
0000
3001
0100
0004
0000
1003
0010
,
2000
0000
0000
0000
0000
3002
0000
0000
0000
0023
0000
0000
0000
0000
0000
0034
0000
0000
0000
0000
0000
1003
0000
0000
,
0020
0000
1030
0001
1000
0004
0000
1003
,
0200
0000
0000
0000
0000
0000
0310
0000
0002
0000
0000
0000
1003
0000
0000
0040
0000
0000
0000
0000
0000
1030
0000
0000
,
0004
0000
0000
0000
0000
0000
1003
0000
0000
0001
0000
0010
0000
0000
0000
0400
0000
0000
0000
0300
0000
0000
0000
0000
,
4000
0000
0000
0000
0000
0000
3001
0000
0000
0100
0000
0000
0001
0000
0000
0000
0000
2000
0000
0000
0000
3001
0000
0000
,
0010
0000
0000
0100
0000
0000
0040
0000
0000
0000
0000
0000
0130
0000
0000
0010
0000
0002
0000
0000
0000
0000
0000
0000
,
1003
0000
0000
0010
0000
0000
0100
0000
0000
0001
0000
0000
0100
0000
0000
0001
0000
2000
0000
0000
0000
0000
0000
0000
,
3001
0100
0010
0100
0001
1000
0002
0000
,
1003
0000
0000
0100
0000
0020
0000
0000
0000
0000
0000
0000
0000
0000
0000
0000
0000
0000
0031
0000
0000
1000
0000
0000
,
0001
0000
0020
0000
0000
0000
0000
0000
0000
0000
0000
0000
0130
0000
0000
1000
0000
0000
0100
0000
0000
1000
0000
0000
,
0001
0100
0001
0100
0001
1000
0001
1000
,
0100
1000
0100
1000
0002
0000
2003
0000
,
3020
0000
0130
0001
0100
0004
0000
0003
,
2000
0000
0000
3001
0200
0000
0302
0000
0000
4003
0000
0000
,
3100
0000
0000
0010
0000
0002
0000
0000
0000
0000
0000
0000
1003
0000
0000
0010
0000
0000
1000
0000
0000
0010
0000
0000
,
0100
0001
0100
0001
4000
0000
0000
3000
,
0020
0000
0000
1030
0000
0002
0000
0000
0000
0000
0000
0000
0000
0000
0000
1003
0000
0000
0100
0000
0000
1000
0000
0000
,
0001
0000
0000
0000
0000
1000
0000
0000
0000
0200
0000
0000
0000
0000
0000
0310
0000
0000
0004
0000
0000
0000
0000
0000
,
1003
0000
0000
0010
0000
2000
0000
0000
0000
0000
0000
0000
0000
0000
0000
3004
0000
0000
0000
0000
0000
0003
0000
0000
,
1000
0000
0000
0000
0000
0200
0000
0000
0000
0000
0000
0000
0320
0000
0000
0000
0000
0000
0000
0000
0000
0000
0000
0000
,
0031
1000
0001
1000
0100
0040
0000
0031
,
1000
0004
0000
1003
0040
0000
1030
0001
,
1000
0001
0040
0000
0130
1000
0100
1000
,
0004
0000
1003
0010
4000
0000
3001
0010
,
0002
0000
0000
0000
0000
2003
0000
0000
0000
3020
0000
0000
0000
0000
0000
4030
0000
0000
0000
0000
0000
3000
0000
0000
,
0002
0000
0103
0010
0100
0004
0000
1003
,
0002
0000
0000
0000
0000
0000
1003
0000
0200
0000
0000
0000
0340
0000
0000
0000
0000
0000
0031
0000
0000
1000
0000
0000
,
0004
0000
0000
0000
0000
0000
1003
0000
0000
0001
0000
0020
0000
0000
0000
0430
0000
0000
0000
0300
0000
0000
0000
0000
,
4000
0000
0000
0000
0000
0000
3001
0000
0000
0100
0000
0000
0002
0000
0000
0000
0000
2003
0000
0000
0000
3001
0000
0000
,
0010
0000
0000
0100
0000
0000
0040
0000
0000
0000
0000
0000
0032
0000
0000
1003
0000
0200
0000
0000
0000
0000
0000
0000
,
0310
0000
0000
0001
0000
0000
0010
0000
0000
0001
0000
0000
1000
0000
0000
0001
0000
0020
0000
0000
0000
0000
0000
0000
,
0130
1000
0001
0100
0001
1000
0001
0000
,
1000
0000
0000
0100
0000
0020
0000
0000
0000
0000
0000
0000
0000
0000
0000
0000
0000
0000
0031
0000
0000
1000
0000
0000
,
0001
0000
0200
0000
0000
0000
0000
0000
0000
0000
0000
0000
0310
0000
0000
1000
0000
0000
0010
0000
0000
1000
0000
0000
,
0001
0010
0001
0010
0100
1000
0001
1000
,
0001
0100
0001
0100
0020
0000
0230
0000
,
0302
0000
1003
0100
1000
0400
0000
0300
,
0020
0000
0000
0000
0000
0000
0031
0000
2000
0000
0000
0000
3001
0000
0000
0100
0000
0000
0004
0000
0000
0000
0000
0000
,
1003
0000
0000
0001
0000
0200
0000
0000
0000
0000
0000
0000
0310
0000
0000
1000
0000
0000
0010
0000
0000
1000
0000
0000
,
0001
0010
0001
0010
0400
0000
1300
0001
,
2002
0000
0000
0000
,
0000
0000
0000
0000
,
3003
0000
0000
0000
;

//---------------dance-single - Easy----------------
#NOTES:
     dance-single:
     Ace Of Hearts (2014):
     Easy:
     4:
     0.211,0.000,0.008,0.173,0.000: // measure 1
0000
0000
0000
0000
,  // measure 2
0000
0000
0000
0000
,  // measure 3
0000
0000
0000
0000
,  // measure 4
0000
0000
0000
0000
,  // measure 5
0000
0000
0000
0000
,  // measure 6
1000
2000
3000
0001
,  // measure 7
0001
0000
0000
0001
0000
0000
4000
0000
,  // measure 8
3000
2000
3000
0010
,  // measure 9
0010
0000
0020
0030
,  // measure 10
0100
0100
0001
0001
,  // measure 11
1000
1000
0400
0300
,  // measure 12
0010
0010
0001
0001
,  // measure 13
4000
3000
0040
0030
,  // measure 14
0100
0200
0300
0001
,  // measure 15
0001
0000
0000
0001
0000
0000
0400
0000
,  // measure 16
0300
0200
0300
0010
,  // measure 17
0010
0000
2000
3000
,  // measure 18
0001
0001
0010
0010
,  // measure 19
0100
0100
4000
3000
,  // measure 20
0001
0001
0100
0100
,  // measure 21
0040
0030
4000
3000
,  // measure 22
0001
0000
0000
0002
0000
0000
0003
0000
,  // measure 23
1000
1000
4000
3000
,  // measure 24
0010
0010
0040
0030
,  // measure 25
0400
0300
0001
0001
,  // measure 26
4000
3000
0100
0100
,  // measure 27
0010
0010
0001
0001
,  // measure 28
1000
1000
0010
0020
,  // measure 29
1030
1000
0001
0001
,  // measure 30
0010
0020
0030
0100
,  // measure 31
0200
0300
1000
1000
,  // measure 32
0001
0001
0002
0003
,  // measure 33
0010
0010
0020
0030
,  // measure 34
0100
0100
4000
3000
,  // measure 35
0001
0001
1000
1000
,  // measure 36
0010
0010
0100
0100
,  // measure 37
0001
0001
0004
0003
,  // measure 38
0100
0200
0300
0010
,  // measure 39
0010
0000
0000
0010
0000
0000
0400
0000
,  // measure 40
0300
0002
0003
1000
,  // measure 41
1000
0000
0200
0300
,  // measure 42
0010
0010
0001
0001
,  // measure 43
1000
1000
0040
0030
,  // measure 44
0100
0100
0001
0001
,  // measure 45
4000
3000
0004
0003
,  // measure 46
0010
0000
0000
0020
0000
0000
0030
0000
,  // measure 47
0100
0100
0400
0300
,  // measure 48
1000
1000
4000
3000
,  // measure 49
0004
0003
0400
0300
,  // measure 50
0040
0030
1000
1000
,  // measure 51
0001
0001
0200
0300
,  // measure 52
0010
0010
1000
2000
,  // measure 53
3001
0001
0010
0010
,  // measure 54
0100
0200
0300
1000
,  // measure 55
2000
3000
0001
0001
,  // measure 56
0100
0100
0010
0010
,  // measure 57
1000
1000
2000
3000
,  // measure 58
0001
0001
0040
0030
,  // measure 59
0100
0100
1000
1000
,  // measure 60
0001
0001
0100
0100
,  // measure 61
0001
0001
4000
3000
,  // measure 62
2002
0000
0000
0000
,  // measure 63
0000
0000
0000
0000
,  // measure 64
3003
0000
0000
0000
;

//---------------dance-single - Novice----------------
#NOTES:
     dance-single:
     Ace Of Hearts (2014):
     Beginner:
     2:
     0.124,0.000,0.008,0.195,0.000: // measure 1
0000
0000
0000
0000
,  // measure 2
0000
0000
0000
0000
,  // measure 3
0000
0000
0000
0000
,  // measure 4
0000
0000
0000
0000
,  // measure 5
0000
0000
0000
0000
,  // measure 6
0002
0000
0003
0000
,  // measure 7
0002
0000
0003
0000
,  // measure 8
2000
0000
3000
0000
,  // measure 9
2000
0000
3000
0000
,  // measure 10
0100
0000
0100
0000
,  // measure 11
0010
0000
0010
0000
,  // measure 12
0001
0000
0001
0000
,  // measure 13
1000
0000
1000
0000
,  // measure 14
0020
0000
0030
0000
,  // measure 15
0020
0000
0030
0000
,  // measure 16
0200
0000
0300
0000
,  // measure 17
0200
0000
0300
0000
,  // measure 18
0001
0000
0001
0000
,  // measure 19
1000
0000
1000
0000
,  // measure 20
0010
0000
0010
0000
,  // measure 21
0100
0000
0100
0000
,  // measure 22
0002
0000
0003
0000
,  // measure 23
2000
0000
3000
0000
,  // measure 24
0100
0000
0100
0000
,  // measure 25
0010
0000
0010
0000
,  // measure 26
0001
0000
0001
0000
,  // measure 27
1000
0000
1000
0000
,  // measure 28
0020
0000
0030
0000
,  // measure 29
0100
0000
0100
0000
,  // measure 30
0002
0000
0003
0000
,  // measure 31
2000
0000
3000
0000
,  // measure 32
0100
0000
0100
0000
,  // measure 33
0010
0000
0010
0000
,  // measure 34
0001
0000
0001
0000
,  // measure 35
1000
0000
1000
0000
,  // measure 36
0010
0000
0010
0000
,  // measure 37
0100
0000
0100
0000
,  // measure 38
0020
0000
0030
0000
,  // measure 39
0020
0000
0030
0000
,  // measure 40
2000
0000
3000
0000
,  // measure 41
2000
0000
3000
0000
,  // measure 42
0001
0000
0001
0000
,  // measure 43
0010
0000
0010
0000
,  // measure 44
0100
0000
0100
0000
,  // measure 45
1000
0000
1000
0000
,  // measure 46
0002
0000
0003
0000
,  // measure 47
0002
0000
0003
0000
,  // measure 48
0200
0000
0300
0000
,  // measure 49
0200
0000
0300
0000
,  // measure 50
0010
0000
0010
0000
,  // measure 51
1000
0000
1000
0000
,  // measure 52
0002
0000
0003
0000
,  // measure 53
0010
0000
0010
0000
,  // measure 54
0200
0000
0300
0000
,  // measure 55
2000
0000
3000
0000
,  // measure 56
0001
0000
0001
0000
,  // measure 57
0100
0000
0100
0000
,  // measure 58
0001
0000
0001
0000
,  // measure 59
1000
0000
1000
0000
,  // measure 60
0010
0000
0010
0000
,  // measure 61
1000
0000
1000
0000
,  // measure 62
2002
0000
0000
0000
,  // measure 63
0000
0000
0000
0000
,  // measure 64
3003
0000
0000
0000
;
