#TITLE:One More Lovely;
#SUBTITLE:;
#ARTIST:Risk Junk;
#TITLETRANSLIT:;
#SUBTITLETRANSLIT:;
#ARTISTTRANSLIT:;
#GENRE:;
#CREDIT:Ace Of Hearts;
#BANNER:One More Lovely - Bn.png;
#BACKGROUND:One More Lovely - Bg.png;
#LYRICSPATH:;
#CDTITLE:;
#MUSIC:One More Lovely.ogg;
#OFFSET:0.575;
#SAMPLESTART:54.800;
#SAMPLELENGTH:10.000;
#SELECTABLE:YES;
#BPMS:0.000=200.000;
#STOPS:150.000=0.300
;
#BGCHANGES:;
#FGCHANGES:;
#KEYSOUNDS:;

//---------------dance-single - Expert----------------
#NOTES:
     dance-single:
     Ace Of Hearts (2014):
     Challenge:
     13:
     1.000,0.000,0.781,0.657,1.000: // measure 1
0000
0000
0000
0000
,  // measure 2
0000
0000
0000
0000
,  // measure 3
0M01
0010
0001
0000
2M00
0000
0000
0000
3001
0000
M011
0000
0000
0000
0010
0000
,  // measure 4
011M
0100
1000
10M1
0000
M101
0000
0100
,  // measure 5
011M
0010
1000
1M01
0000
M011
0000
0010
,  // measure 6
011M
0100
1000
0001
01M1
0100
M110
0010
,  // measure 7
1M10
0000
1000
0000
10M1
0000
0001
0010
M200
0000
1300
0000
0000
0000
0001
0000
,  // measure 8
01M1
0100
0010
101M
0000
1M01
0000
0001
,  // measure 9
M011
0010
0100
11M0
0000
1M01
0000
0001
,  // measure 10
M101
0100
0010
202M
0030
3001
0M11
0010
,  // measure 11
010M
1000
0100
0000
011M
0000
0010
0001
0010
0000
M11M
0000
0000
0000
0100
1000
,  // measure 12
0100
0010
0100
0010
0001
1000
0001
0000
0000
0000
M1M1
0000
0000
0000
0100
0010
,  // measure 13
1000
0001
1000
0001
1000
0100
0010
0000
0000
0000
MM11
0000
0000
0000
0001
0010
,  // measure 14
0100
1000
0100
1000
0001
0100
0010
0000
101M
0000
1000
0000
1M01
0000
0001
0010
,  // measure 15
0100
1000
0100
0010
0001
0000
1000
0000
0010
0000
M11M
0000
0000
0000
0100
0001
,  // measure 16
1000
0100
1000
0100
0010
0001
1000
0000
0000
0000
1M1M
0000
0000
0000
0010
0100
,  // measure 17
0001
0100
0001
0100
0010
1000
0001
0000
0000
0000
MM11
0000
0000
0000
0010
0100
,  // measure 18
1000
0001
1000
0001
0100
0010
1000
0000
2002
0000
0000
3003
0022
0000
0000
0033
,  // measure 19
0220
0000
0000
0330
0100
1000
0001
2000
0200
0000
0000
3300
0220
0000
0000
0330
,  // measure 20
0010
0001
0010
0000
0100
1000
0100
0000
100M
0100
0010
0100
10M0
0000
0001
0010
,  // measure 21
M100
0010
0001
0000
10M0
0100
1000
0000
M001
0100
0010
0100
00M1
0000
1000
0010
,  // measure 22
010M
0010
1000
0001
1M00
0001
1000
0000
0001
0010
0100
0010
0001
0000
1000
0100
,  // measure 23
0010
0001
0010
0100
1000
0000
0001
0100
0010
1000
0010
0100
0001
0000
1000
0100
,  // measure 24
0010
0001
0010
0100
1000
0000
0001
1000
0100
0010
0100
1000
0001
0000
1000
0001
,  // measure 25
0100
0010
0100
0001
1000
0000
0001
1000
0010
0100
0010
1000
0001
0000
1000
0001
,  // measure 26
0010
0100
0010
0001
1000
0000
0001
0100
0010
1000
0010
0100
0001
0000
1000
0100
,  // measure 27
0010
0001
0010
0100
1000
0000
0001
0100
0010
1000
0010
0100
0001
0000
1000
0100
,  // measure 28
0010
0001
0010
0100
1000
0000
0001
0010
0100
0010
0100
0010
0001
0000
1000
0010
,  // measure 29
0100
0010
0100
0010
1000
0000
0010
1000
0001
1000
0001
1000
0100
0000
0010
0001
,  // measure 30
1000
0001
1000
0001
0200
0000
0000
0300
0220
0000
0000
0000
0000
0000
0000
0000
,  // measure 31
0330
0000
0000
0000
0020
0000
0000
0030
2010
0000
0000
0000
3002
0000
0000
0000
,  // measure 32
0023
0200
0001
0000
,  // measure 33
0330
0000
0000
0000
0200
0000
0000
0300
2100
0000
0000
0000
3002
0000
0000
0000
,  // measure 34
0203
0020
1000
0000
,  // measure 35
0330
0000
0000
0000
0020
0000
0000
0030
2010
0000
0000
0000
3002
0000
0000
0000
,  // measure 36
2003
0002
0010
0000
,  // measure 37
3003
0000
0000
0000
0002
0000
0000
0003
0021
0000
0130
0000
0000
0000
1100
0000
,  // measure 38
0000
0000
2000
0000
0000
0000
3000
0000
0MM0
0000
0000
0000
010M
0010
0100
0000
,  // measure 39
200M
0000
0000
3000
1002
0000
0013
0100
1000
0000
0001
0000
1000
0100
0010
0000
,  // measure 40
0010
0100
1000
0000
1002
0000
0103
0010
1000
0000
0001
0000
0010
0100
1000
0000
,  // measure 41
1000
0100
0010
0000
0012
0000
1003
0010
0100
0000
0001
0000
1000
0010
0100
0000
,  // measure 42
0100
0010
1000
0000
1002
0000
0013
0100
1000
0000
0001
0000
1000
0001
0010
0000
,  // measure 43
0010
0001
1000
0000
1020
0000
0130
0001
1000
0000
0100
0000
0010
0001
1000
0000
,  // measure 44
1000
0001
0100
0000
0120
0000
1030
0001
0010
0000
0100
0000
1000
0001
0100
0000
,  // measure 45
0100
0001
1000
0000
1200
0000
0310
0001
1000
0000
0010
0000
0100
0001
1000
0000
,  // measure 46
1000
0001
0100
0000
0120
0000
1030
0001
0010
0000
0100
0000
1000
0001
1000
0000
,  // measure 47
0001
0010
0100
1000
0100
M00M
0100
0001
0100
0000
0001
0100
0010
1000
0010
0100
,  // measure 48
0001
0000
0100
0001
0100
M00M
0100
1000
0100
0000
1000
0100
0010
0001
0010
0100
,  // measure 49
1000
0000
0100
1000
0100
M00M
0100
0001
0100
0000
0010
1000
0001
0100
0001
1000
,  // measure 50
0010
0000
0100
0001
0100
M00M
0100
1000
0100
0000
0010
0001
1000
0100
1000
0001
,  // measure 51
0010
0000
0100
1000
0100
M00M
0100
0001
0100
0000
0001
1000
0010
0100
0010
1000
,  // measure 52
0001
0000
0010
0001
0010
M00M
0010
1000
0010
0000
1000
0100
0010
0001
0010
0100
,  // measure 53
1000
0000
0100
1000
0100
M00M
0100
0001
0100
0000
0001
1000
0100
0010
0100
1000
,  // measure 54
0001
0000
0010
0001
0010
M00M
0010
1000
0010
0000
1000
0010
0100
0001
0100
0010
,  // measure 55
1000
0001
1000
0100
0010
0001
0010
0001
1000
0100
1000
0100
1000
0001
1000
0001
,  // measure 56
0100
0001
0100
0001
1000
0100
1000
0100
0010
0001
0010
0001
1000
0001
1000
0001
,  // measure 57
0100
0010
0100
0010
1000
0010
1000
0010
0100
0001
0100
0001
1000
0001
1000
0001
,  // measure 58
0010
0100
0010
0100
0010
0001
0010
0001
1000
0010
1000
0010
1000
0001
1000
0001
,  // measure 59
0010
0001
0010
0001
1000
0100
1000
0100
0010
0100
0010
0100
1000
0100
1000
0100
,  // measure 60
0010
0001
0010
0001
1000
0010
1000
0010
0100
0001
0100
0001
1000
0001
1000
0001
,  // measure 61
0010
0100
0010
0100
1000
0001
1000
0001
0100
0010
0100
0010
1000
0010
1000
0010
,  // measure 62
0100
0001
0100
0001
1000
0100
1000
0100
0010
0001
0010
0001
1000
0010
1000
0010
,  // measure 63
1000
0010
1000
0010
0200
0000
0000
0300
01M1
0000
0000
0000
1M01
0000
0000
0000
,  // measure 64
11M0
111M
M110
0M11
,  // measure 65
10M1
111M
M110
01M1
,  // measure 66
1M01
11M1
110M
1M01
,  // measure 67
0001
0000
02M1
0000
0000
000M
0000
0300
M110
0000
0000
0000
101M
0000
0000
0000
,  // measure 68
10M1
1M11
M011
011M
,  // measure 69
0100
0000
21M0
0000
0000
0M00
0000
3000
10M1
0000
0000
0000
M101
0000
0000
0000
,  // measure 70
1M01
0000
0000
0000
11M1
0000
0000
0000
M101
0000
0000
0000
0100
0010
0100
0010
,  // measure 71
1000
0001
1000
0001
0020
0000
0000
0000
0200
0000
0000
0030
2000
00M0
0000
0300
,  // measure 72
0020
0M00
0000
3000
0002
M000
0000
0030
2000
00M0
0000
0003
0200
000M
0000
3000
,  // measure 73
0002
M000
0000
0300
2000
0M00
0000
0003
0200
000M
0000
3000
0002
M000
0000
0300
,  // measure 74
2000
0M00
0000
0003
0020
000M
0000
3000
0002
M000
0030
0000
2000
00M0
0003
0000
,  // measure 75
3001
0000
0010
0000
0002
0000
2000
0000
0000
0000
0000
0000
0000
0000
0000
0000
0000
0000
0010
0000
0000
3003
0000
0000
,  // measure 76
1000
21M0
0M11
01M1
,  // measure 77
0M11
3000
01M2
0000
1M10
0000
11M0
0000
,  // measure 78
1M10
0003
10M1
000M
0100
0000
0110
0010
,  // measure 79
0001
0000
0010
0001
0010
M00M
0010
1000
0010
0000
1000
0001
0100
0010
0100
0001
,  // measure 80
1000
0000
0100
1000
0100
M00M
0100
0001
0100
0000
0001
1000
0100
0010
0100
1000
,  // measure 81
0001
0000
0010
0001
0010
M00M
0010
1000
0010
0000
1000
0001
0010
0100
0010
0001
,  // measure 82
1000
0000
0100
1000
0100
M00M
0100
0001
0100
0000
0001
0100
0010
1000
0010
0100
,  // measure 83
0001
1000
0001
0000
M201
0000
0000
0000
000M
0000
0000
0000
0300
0000
0000
0000
,  // measure 84
0002
0000
0000
0003
0021
0000
0000
0000
0230
0000
0000
0000
2300
0000
0000
0000
,  // measure 85
3002
0000
0000
0003
0201
0000
0000
0000
0000
0000
0000
0000
0300
0000
0000
0000
,  // measure 86
0010
1000
0010
1000
0M01
0010
0100
0010
0001
0000
1000
0100
1000
0000
0001
0100
,  // measure 87
0010
1000
0010
0100
00M1
0100
0010
0100
0001
0000
1000
0100
1000
0000
0001
0010
,  // measure 88
0100
0000
0000
1000
0000
0000
0100
0000
0000
0010
0000
0000
M001
0000
0000
0010
0000
0000
0001
0000
0000
0010
0000
0000
0100
0000
0000
1000
0000
0000
0100
0000
0000
1000
0000
0000
00M4
0000
4000
0000
0000
0000
0000
0000
0000
0000
0000
0000
,  // measure 89
0000
0000
0000
0003
3001
0010
0001
0010
0100
1000
0100
1000
0001
0100
0001
0100
,  // measure 90
0010
0100
0010
0100
0001
1000
0001
1000
0001
0100
0020
0000
0000
0000
0000
0000
,  // measure 91
0000
0000
0000
0000
,  // measure 92
0000
0030
0000
0000
0000
0000
0000
0000
;

//---------------dance-single - Hard----------------
#NOTES:
     dance-single:
     Ace Of Hearts (2014):
     Hard:
     10:
     0.790,0.000,0.408,0.878,0.293: // measure 1
0000
0000
0000
0000
,  // measure 2
0000
0000
0000
0000
,  // measure 3
1000
0100
1000
0000
0002
0000
0000
0000
1003
0000
1100
0000
0M00
0000
0001
0000
,  // measure 4
0100
0010
0100
0001
0000
1001
M000
0100
,  // measure 5
0010
1000
0010
0100
0000
0110
00M0
0001
,  // measure 6
1000
0000
0100
0000
1000
0000
0001
0000
0010
0000
0001
0000
0010
M00M
0010
0000
,  // measure 7
1000
0000
0001
0000
0100
M00M
0100
0000
1000
0000
1100
0000
M000
0000
0010
0000
,  // measure 8
0001
1000
0001
0010
0000
0110
0M00
0001
,  // measure 9
1000
0010
1000
0001
0000
0101
000M
0010
,  // measure 10
1000
0000
0001
0000
1000
0000
0020
0000
0000
0000
1030
0000
0010
M00M
0010
0000
,  // measure 11
0001
0000
1000
0000
0100
M00M
0100
0000
0001
0000
1001
0000
M000
0000
0100
0000
,  // measure 12
0010
1000
0010
0100
0000
0101
000M
0010
,  // measure 13
1000
0001
1000
0010
0000
0110
0M00
1000
,  // measure 14
0001
0000
0010
0000
0001
0000
1000
0000
0001
0000
0100
0000
0010
M00M
0010
0000
,  // measure 15
0001
0000
1000
0000
0100
M00M
0100
0000
0001
0000
1001
0000
000M
0000
0100
0000
,  // measure 16
0010
0001
0010
0100
0000
1100
M000
0010
,  // measure 17
0001
1000
0001
0010
0000
0110
0M00
0001
,  // measure 18
1000
0010
1000
0001
0021
0000
0230
0000
,  // measure 19
2300
0000
0000
0000
3001
0010
0100
0010
0002
0000
0000
0000
2003
0000
0000
0000
,  // measure 20
3002
0000
0000
0000
1003
0100
0010
0100
2000
0000
0000
0000
3002
0000
0000
0000
,  // measure 21
0023
0000
0000
0000
0230
0000
1300
0001
2000
0000
0000
0000
3002
0000
0000
0000
,  // measure 22
0013
0100
0020
0000
0032
0000
0000
0000
4003
0040
0000
0000
0000
0000
0000
0000
,  // measure 23
0000
0000
0000
0000
0000
0000
3030
0000
0040
0400
0000
0000
0000
0000
0000
0000
,  // measure 24
0000
0000
0000
0000
0000
0000
0330
0000
0400
0004
0000
0000
0000
0000
0000
0000
,  // measure 25
0000
0000
0000
0000
0000
0000
0303
0000
0004
4000
0000
0000
0000
0000
0000
0000
,  // measure 26
0000
0000
0000
0000
0000
0000
3003
0000
4000
0400
0000
0000
0000
0000
0000
0000
,  // measure 27
0000
0000
0000
0000
0000
0000
3300
0000
0400
0040
0000
0000
0000
0000
0000
0000
,  // measure 28
0000
0000
0000
0000
0000
0000
0330
0000
0040
0004
0000
0000
0000
0000
0000
0000
,  // measure 29
0033
0000
0004
4000
0000
0000
0000
0000
0000
0000
0000
0000
0000
0000
0000
0000
,  // measure 30
0000
3003
2000
0000
3020
0000
0000
0000
,  // measure 31
0030
2000
3002
0023
,  // measure 32
2030
0MMM
3020
0000
0032
0000
0000
0000
,  // measure 33
0003
2000
3002
0203
,  // measure 34
2300
0MMM
3200
0000
0302
0000
0000
0000
,  // measure 35
0003
0002
2003
3200
,  // measure 36
0302
MMM0
0203
0000
2300
0000
0000
0000
,  // measure 37
3000
0000
0000
0000
2000
0000
0000
3000
1001
0000
0001
0000
0000
0000
0101
0000
,  // measure 38
0000
0000
0200
0000
0000
0000
0000
0000
0300
0000
0M00
0000
0010
0100
0010
0000
,  // measure 39
2000
0000
0000
3000
1002
0000
0000
0000
0023
0000
0000
0000
2030
0000
0000
0000
,  // measure 40
3020
0032
0000
0200
,  // measure 41
0000
2000
0000
3303
,  // measure 42
0100
0010
2000
0000
3002
0000
0023
0000
,  // measure 43
0230
2000
0000
0020
,  // measure 44
0030
0002
3303
0200
,  // measure 45
0320
0000
0000
0030
0012
0000
0000
0000
0000
0000
0000
0000
2003
0000
0000
0000
,  // measure 46
0000
0000
3002
0000
0203
0000
2300
0MMM
,  // measure 47
3200
0000
0000
0000
0302
0000
1003
0100
1000
0000
0001
0000
0010
0001
0010
0000
,  // measure 48
0100
0000
1000
0000
0001
0000
0100
0010
0100
0000
0001
0000
1000
0100
1000
0000
,  // measure 49
0001
0000
0100
0000
0010
0000
0100
0001
0100
0000
0010
0000
1000
0001
1000
0000
,  // measure 50
0100
0000
0010
0000
0001
0000
1000
0100
1000
0000
0001
0000
0010
0100
0010
0000
,  // measure 51
0001
0000
1000
0000
0010
0000
0100
0001
0100
0000
0010
0000
1000
0001
1000
0000
,  // measure 52
0100
0000
0010
0000
0001
0000
1000
0010
1000
0000
0001
0000
0100
0010
0100
0000
,  // measure 53
0001
0000
1000
0000
0100
0000
0010
0001
0010
0000
0100
0000
1000
0001
1000
0000
,  // measure 54
0020
0000
0000
0030
0110
0000
0100
0000
0000
0000
0002
0000
1003
0100
1000
0000
,  // measure 55
0001
1000
1004
0000
0043
0000
0430
0000
,  // measure 56
4300
3004
0403
4300
,  // measure 57
3400
0304
4003
3004
,  // measure 58
0043
0034
0043
4030
,  // measure 59
3040
0034
4003
3040
,  // measure 60
0430
0304
0403
4300
,  // measure 61
3400
0304
4003
3400
,  // measure 62
0340
0000
0000
0000
0034
0000
0000
0000
4003
0000
0000
0000
3100
0010
0100
0010
,  // measure 63
0100
0000
1000
0200
2000
0000
0000
0000
0010
0000
0000
0000
0001
0000
0000
0000
,  // measure 64
0010
3300
2002
0000
0010
0000
0100
0000
,  // measure 65
0010
3003
0202
0000
0010
0000
1000
0000
,  // measure 66
0010
0303
M100
0000
0010
0000
101M
0000
,  // measure 67
1000
0000
1M02
0000
0000
0000
0000
0003
0011
0000
0000
0000
110M
0000
0000
0000
,  // measure 68
1001
M101
1010
011M
,  // measure 69
0010
0000
2M10
0000
0000
0000
0000
3000
1001
0000
0000
0000
M011
0000
0000
0000
,  // measure 70
0110
0000
0000
0000
110M
0000
0000
0000
1001
0000
0000
0000
0001
0100
0010
0100
,  // measure 71
0001
1000
1002
0000
0M10
0000
1M00
0000
,  // measure 72
0M13
0120
0M01
1M00
,  // measure 73
0M31
2001
01M0
00M1
,  // measure 74
31M0
0210
10M0
00M1
,  // measure 75
13M0
0000
0100
0000
0010
0000
0002
0000
0000
0000
0000
0000
0000
0000
0000
0003
0000
0000
2001
0000
0000
0000
0000
0000
,  // measure 76
3200
0000
0000
0300
0120
0000
0000
0000
0001
0000
0000
0000
1000
0000
0000
0000
,  // measure 77
0130
0210
0010
0001
,  // measure 78
0310
0000
0012
0000
1003
0000
1100
0100
,  // measure 79
0010
0001
0010
0000
0200
0000
1300
0001
1000
0000
0010
0000
1000
0010
1000
0000
,  // measure 80
0001
0000
0010
0000
0100
0000
1000
0001
1000
0000
0010
0000
0100
0001
0100
0000
,  // measure 81
0010
0000
1000
0000
0001
0000
0010
0100
0010
0000
0001
0000
1000
0100
1000
0000
,  // measure 82
0001
0000
0100
0000
0010
0000
1000
0010
1000
0000
0001
0000
0100
0010
0100
0000
,  // measure 83
0001
0000
1000
0100
2000
0000
0000
0000
0000
0000
0000
0000
3000
0000
0000
0000
,  // measure 84
0002
0023
0230
2300
,  // measure 85
3002
0203
0000
0300
,  // measure 86
0010
1000
0010
1000
0020
0000
0130
0000
0000
0000
0101
0000
0000
0000
0002
0000
,  // measure 87
1003
0100
1000
0100
2000
0000
3001
0000
0000
0000
0011
0000
0000
0000
0020
0000
,  // measure 88
0031
1000
0001
1000
0002
0000
0103
0000
0002
0000
0103
0000
0020
0000
1030
0000
,  // measure 89
0020
0000
1030
0000
0001
0010
0001
0010
0001
0000
1000
0000
0010
0100
0010
0100
,  // measure 90
0010
0000
1000
0000
0001
0000
1000
0100
1000
0100
0020
0000
0000
0000
0000
0000
,  // measure 91
0000
0000
0000
0000
,  // measure 92
0000
0030
0000
0000
0000
0000
0000
0000
;

//---------------dance-single - Medium----------------
#NOTES:
     dance-single:
     Ace Of Hearts (2014):
     Medium:
     8:
     0.605,0.000,0.177,1.000,0.009:
0000
0000
0000
0000
,
0000
0000
0000
0000
,
0001
0100
0002
0000
0003
1000
000M
1000
,
0100
0010
0100
1000
0000
0001
M000
0001
,
0010
0100
0010
0001
0000
0010
0M00
0010
,
0100
1000
0100
0010
0001
0001
1000
1000
,
0010
0010
0100
0100
0000
0001
M000
0001
,
0100
0010
0100
0001
0000
1000
000M
1000
,
0010
0100
0010
1000
0000
0010
0M00
0010
,
1000
0001
1000
0020
0000
0130
0001
0001
,
1000
1000
0100
0100
0000
0010
0M00
0010
,
0001
1000
0001
0010
0000
0100
00M0
0100
,
1000
0001
1000
0100
0000
1000
000M
1000
,
0001
0010
0001
1000
0010
0010
1000
1000
,
0001
0001
0010
0010
0000
0100
00M0
0100
,
0010
0001
0010
0100
0000
1000
000M
1000
,
0001
0100
0001
1000
0000
0010
0M00
0010
,
1000
0001
1000
0010
0200
0000
0302
0000
,
2003
3200
2300
3002
,
0023
0230
2300
3002
,
0203
0320
2030
3002
,
0023
0230
4300
0000
,
0000
0000
3004
0000
,
0000
0000
0043
0000
,
0000
0000
0430
0000
,
0000
0000
4300
0000
,
0000
0000
3004
0000
,
0000
0000
0403
0000
,
0000
0340
0000
0000
0000
0000
0000
0000
,
0000
0030
2000
0000
30M2
0000
0000
0000
,
00M3
2000
302M
2030
,
320M
2300
302M
0000
,
0030
0200
M302
0023
,
M032
0203
M302
0000
,
0003
2000
302M
2030
,
32M0
2300
3M02
0000
,
0003
0000
2000
0000
3001
0100
0000
0010
,
0000
2000
0000
0000
3000
M000
0001
0010
,
0001
2000
3200
0320
,
0032
2003
0000
3020
,
0000
0030
0220
0000
0000
0000
0030
0000
,
0301
1000
0002
0000
0023
0000
0230
0000
,
2300
3000
2002
0000
0000
3003
0022
0000
,
0000
0033
2200
0000
0300
0000
3002
0000
,
0203
0300
0120
0000
0000
0000
2030
0000
,
0000
3000
0002
0000
0023
0000
0230
0000
,
0320
0030
0012
0000
0000
0000
0003
0000
,
2000
0000
3002
0000
0023
0000
2030
0M0M
,
3020
0032
0000
0003
,
0002
0000
2003
0000
3200
0000
0302
M0M0
,
0203
2300
0000
3000
,
0002
0000
2003
0000
3020
0000
0032
MM00
,
0023
2030
0000
3000
,
0002
0000
0013
0100
0000
1000
0000
0002
,
0000
0000
0000
0003
2001
0000
0000
0000
3100
0000
0000
0000
0M10
0000
0000
0000
,
00M1
0011
0010
01M0
,
1M00
0000
1001
0000
0001
000M
0100
0000
,
0M10
1010
1000
M001
,
001M
0110
0100
1M00
,
M001
0101
0100
0M10
,
100M
1001
0001
001M
,
01M0
1100
1000
M001
,
010M
0120
1000
0100
,
1030
2000
0010
0001
,
3010
0020
1000
0100
,
1030
2000
3001
0010
,
0001
2000
0000
0000
3010
0000
0100
0000
,
0001
10M1
1000
0100
,
0010
0002
0000
0000
1003
0000
0010
0000
,
0100
M101
0001
1000
,
0100
0120
0031
1000
,
0010
0100
0010
1000
,
0001
0100
0100
0010
,
0010
1000
1000
0001
,
0001
0000
0010
0000
0100
0000
2000
0000
0000
0000
0000
0000
0000
0000
0000
3000
0000
0000
1002
0000
0000
0000
0000
0000
,
0103
0010
0100
0001
,
1000
0001
0010
0100
,
1000
0000
0001
0000
1000
0000
0100
0010
,
0200
2300
0000
3000
,
0002
0000
2003
0000
3200
0000
0302
M0M0
,
0203
2300
0000
3000
,
2000
0000
3002
0000
0203
0000
2300
00MM
,
3200
0302
0000
0003
,
0002
0000
2003
0000
3020
0000
0032
MM00
,
0023
2030
0000
3000
,
0002
0000
0013
0100
0000
1000
0000
0002
,
0000
0000
1003
0100
0000
1000
0000
0002
,
0000
0000
1003
0100
1000
0100
0010
0001
,
0010
0001
2000
0000
0000
0000
0000
0000
,
0000
0000
0000
0000
3000
2020
0000
0000
,
0000
0000
0000
0000
,
0000
3030
0000
0000
0000
0000
0000
0000
;

//---------------dance-single - Easy----------------
#NOTES:
     dance-single:
     Ace Of Hearts (2014):
     Easy:
     5:
     0.302,0.000,0.009,0.417,0.000:
0000
0000
0000
0000
,
0000
0000
0000
0000
,
1000
0000
1000
0000
0000
0001
0000
0000
,
0002
0000
0000
0003
0000
0010
0000
0000
,
0020
0000
0000
0030
0000
0100
0000
0000
,
0200
0000
0000
0300
1000
0000
1000
0000
,
1000
0000
0000
0000
0000
0001
0000
0000
,
0002
0000
0000
0003
0000
1000
0000
0000
,
2000
0000
0000
3000
0000
0010
0000
0000
,
0010
0000
0000
0020
0000
0000
0000
0000
,
0030
0000
0000
0000
0000
1000
0000
0000
,
2000
0000
0000
3000
0000
0001
0000
0000
,
0002
0000
0000
0003
0000
0010
0000
0000
,
0020
0000
0000
0030
0100
0000
0100
0000
,
0100
0000
0000
0000
0000
1000
0000
0000
,
2000
0000
0000
3000
0000
0001
0000
0000
,
0002
0000
0000
0003
0000
0100
0000
0000
,
0200
0000
0000
0300
0010
0000
0010
0000
,
0020
0030
1000
1000
,
2000
3000
0001
0001
,
0002
0003
0010
0010
,
0020
0030
0004
0000
,
0000
0000
0000
0000
,
0003
0000
4000
0000
,
0000
0000
0000
0000
,
3000
0000
0040
0000
,
0000
0000
0000
0000
,
0030
0000
0400
0000
,
0000
0000
0000
0000
,
0300
0000
0002
0000
,
0003
0000
1000
1000
,
1000
0000
0020
0000
,
0030
0000
0100
0100
,
0100
0000
0002
0000
,
0003
0000
1000
1000
,
1000
0000
0200
0000
,
0300
0000
0000
0000
0010
0000
0000
0010
,
0000
0020
0000
0000
0030
0000
0001
0000
,
0001
0002
0000
0000
,
1003
2000
0000
3020
,
0000
2030
0000
3000
,
0000
0001
0001
0001
,
0000
0020
0000
0032
,
0000
0023
0000
0030
,
0000
0002
0000
2003
,
0000
3001
0001
0001
,
0000
0020
0000
0030
,
0000
0100
0100
0100
,
0000
2000
0000
3000
,
0000
0001
0001
0001
,
0000
0020
0000
0030
,
0000
0100
0100
0100
,
0000
2000
0000
3000
,
0000
0000
0001
0000
0000
0001
0000
0002
,
0000
0003
1000
1000
,
1000
0000
0100
0100
,
0100
0000
0010
0010
,
0010
0000
0100
0100
,
0100
0000
1000
1000
,
1000
0000
0001
0001
,
0001
0000
0100
0100
,
0100
0000
0010
0010
,
0010
0000
1000
1000
,
1000
0000
0001
0001
,
0001
0000
0010
0010
,
0010
0000
0100
0100
,
0000
0200
0000
0000
0300
0000
1000
0000
,
1000
0000
0001
0001
,
0000
0002
0000
0000
0003
0000
1000
0000
,
1000
0000
0010
0010
,
0000
0100
0100
0100
,
0000
0001
0001
0001
,
0000
1000
1000
1000
,
0000
0100
0100
0100
,
0000
2000
0000
3000
,
0000
0001
0001
0001
,
0000
0100
0100
0100
,
0000
0010
0010
0010
,
0000
2000
0000
3000
,
0000
0001
0001
0001
,
0000
0020
0000
0030
,
0000
0100
0100
0100
,
0000
2000
0000
3000
,
0000
0001
0001
0001
,
0000
0200
0000
0300
,
0000
0000
0010
0000
0000
0010
0000
0020
,
0000
0000
0130
0000
0000
0100
0000
0200
,
0000
0301
0001
0001
,
0000
2000
0000
0000
,
0000
0000
0000
0000
3000
2002
0000
0000
,
0000
0000
0000
0000
,
0000
3003
0000
0000
0000
0000
0000
0000
;

//---------------dance-single - Novice----------------
#NOTES:
     dance-single:
     Ace Of Hearts (2014):
     Beginner:
     3:
     0.189,0.000,0.009,0.408,0.000:
0000
0000
0000
0000
,
0000
0000
0000
0000
,
0000
0000
2000
0000
,
3000
0000
2000
0000
,
3000
0000
2000
0000
,
3000
0000
0020
0000
,
0030
0000
0200
0000
,
0300
0000
0200
0000
,
0300
0000
0200
0000
,
0300
0000
0002
0000
,
0003
0000
2000
0000
,
3000
0000
2000
0000
,
3000
0000
2000
0000
,
3000
0000
0002
0000
,
0003
0000
0020
0000
,
0030
0000
0020
0000
,
0030
0000
0020
0000
,
0030
0000
0100
0000
,
0100
0000
0200
0000
,
0300
0000
1000
0000
,
1000
0000
2000
0000
,
3000
0000
0004
0000
,
0000
0000
0000
0000
,
0003
0000
4000
0000
,
0000
0000
0000
0000
,
3000
0000
0400
0000
,
0000
0000
0000
0000
,
0300
0000
0040
0000
,
0000
0000
0000
0000
,
0030
0000
0002
0000
,
0003
0000
1000
0000
,
1000
0000
2000
0000
,
3000
0000
0010
0000
,
0010
0000
0020
0000
,
0030
0000
0100
0000
,
0100
0000
0200
0000
,
0300
0000
0001
0000
,
0001
0000
0000
0000
,
0000
2000
0000
3000
,
0000
0010
0000
0010
,
0000
0020
0000
0030
,
0000
0200
0000
0300
,
0000
0001
0000
0001
,
0000
0002
0000
0003
,
0000
1000
0000
1000
,
0000
2000
0000
3000
,
0000
0020
0000
0030
,
0000
0100
0000
0100
,
0000
0200
0000
0300
,
0000
0001
0000
0001
,
0000
0002
0000
0003
,
0000
1000
0000
1000
,
0000
2000
0000
3000
,
0000
0100
0000
0100
,
0000
0000
0000
0010
,
0000
0000
0000
0010
,
0000
0000
0000
0001
,
0000
0000
0000
0001
,
0000
0000
0000
1000
,
0000
0000
0000
1000
,
0000
0000
0000
0010
,
0000
0000
0000
0010
,
0000
0000
0000
0100
,
0000
0000
0000
0100
,
0000
0000
0000
0001
,
0000
0000
0001
0000
,
0000
0002
0000
0003
,
0000
0000
1000
0000
,
0000
2000
0000
3000
,
0000
0020
0000
0000
,
0000
0030
0000
0100
,
0000
0100
0000
0000
,
0000
0002
0000
0003
,
0000
1000
0000
1000
,
0000
2000
0000
3000
,
0000
0100
0000
0100
,
0000
0200
0000
0300
,
0000
0020
0000
0030
,
0000
0002
0000
0003
,
0000
1000
0000
1000
,
0000
2000
0000
3000
,
0000
0010
0000
0010
,
0000
0020
0000
0030
,
0000
0100
0000
0100
,
0000
0200
0000
0300
,
0000
0002
0000
0003
,
0000
2000
0000
3000
,
0000
0001
0000
0001
,
0000
0002
0000
0000
,
0000
0000
0003
2002
,
0000
0000
0000
0000
,
3003
0000
0000
0000
;
