#TITLE:Nano-Desu;
#SUBTITLE:;
#ARTIST:Yui Horie;
#TITLETRANSLIT:;
#SUBTITLETRANSLIT:;
#ARTISTTRANSLIT:;
#GENRE:Silly J-Pop;
#CREDIT:Ace Of Hearts;
#BANNER:Nano-Desu - Bn.png;
#BACKGROUND:Nano-Desu - Bg.png;
#LYRICSPATH:;
#CDTITLE:Ace Of Hearts.png;
#MUSIC:Nano-Desu.ogg;
#OFFSET:2.200;
#SAMPLESTART:23.400;
#SAMPLELENGTH:12.000;
#SELECTABLE:YES;
#BPMS:0.000=70.000,10.000=140.000,46.000=70.000,48.000=140.000,232.000=70.000,234.000=140.000,294.000=70.000,296.000=140.000,384.000=70.000,400.000=35.000,405.000=70.000,427.000=140.000,543.000=70.000,547.000=35.000;
#STOPS:;
#BGCHANGES:;
#KEYSOUNDS:;

//---------------dance-single - Expert----------------
#NOTES:
     dance-single:
     Ace Of Hearts (2014):
     Challenge:
     10:
     0.752,0.689,0.624,0.948,0.334:
0000
0000
0000
0000
,
0002
0013
0002
0013
0000
0200
0310
0100
0000
2000
3001
0001
0020
0130
0020
0130
,
2000
3001
2000
3001
0000
0002
0013
0200
4300
0000
0000
3001
0010
0000
0410
0000
,
0000
1300
0001
0000
0041
0000
0000
0030
0210
0000
1300
0000
0001
0000
0101
0000
,
0000
0100
0010
1010
0000
1000
0001
0010
,
0210
1300
1200
0310
0012
1003
1000
1010
,
0000
0020
0130
0001
2001
0000
0000
3100
,
0020
0000
0130
1000
1001
0001
0100
0110
,
0000
0010
1000
1001
0000
0001
0010
0100
,
2100
3001
0102
1003
1200
0310
0001
1001
,
0000
0000
2000
0000
3010
0000
2000
3000
1002
0000
0000
0000
0000
0000
0103
0000
,
0020
0000
1030
0000
0002
0000
0013
0000
0200
1300
1000
0002
0103
0100
0040
0000
,
1030
0010
0001
0010
2000
0000
3001
0010
,
0100
0010
0001
1000
0000
1000
0001
0100
,
0010
0001
0010
1000
0001
0010
0100
1000
,
1001
0001
0101
0100
0101
0001
1000
0100
,
0010
1000
0010
0001
2000
0000
3001
1000
,
0001
0100
1000
0100
0000
0100
0010
1000
,
0001
0010
1000
0010
0001
1000
0010
0200
,
0300
0001
1001
1000
1001
0000
0000
0000
,
0002
0000
1003
0100
0010
0001
0010
0100
2000
0000
0000
3001
0010
0200
0000
1300
,
0001
2000
0000
3001
0100
0002
0000
1003
0200
0000
0302
0000
0203
0000
2300
0000
,
3001
0100
0002
0000
1003
0020
0030
0010
0200
0000
0301
0100
0010
0200
0000
0301
,
2000
0000
3100
0020
0030
0010
0200
0300
2200
0000
0000
0000
3300
0000
0000
0000
,
1001
0001
0100
0010
2020
0030
3001
0010
,
1010
1000
0010
0011
0000
0001
0010
0001
,
2000
3100
0002
0103
1000
0100
0001
0100
,
1100
1000
1001
0001
1001
1000
0010
0100
,
0001
0100
1000
0100
0001
0010
1000
0010
,
0001
1000
0010
0100
0000
0100
0010
1000
,
0001
0010
0100
1000
0100
0010
0001
1001
,
0000
1000
1010
0010
1010
0000
0000
0000
,
0010
0200
0300
0100
0010
1000
0010
0100
0002
0000
1003
0200
0300
0100
0010
0100
,
1000
0100
0010
0001
0010
0100
1000
0001
2000
0000
3020
0000
0032
0000
0023
0000
,
1030
0002
0000
1003
0010
2000
0000
3001
0100
0010
0200
0000
2300
0000
3200
0000
,
0301
2000
3000
1000
0200
0000
0310
0100
2000
0000
3000
0001
0010
0001
2000
0020
,
0000
0000
0000
0000
,
0000
3030
0000
0000
,
2002
3000
0013
0100
2100
3001
0100
0010
,
2010
3001
0010
0220
0030
1300
1001
0000
,
0202
0003
0310
1000
2200
0000
3000
0310
,
0011
0001
1000
2002
0000
3003
0000
0000
,
2020
3000
0130
0001
1001
1000
1100
0100
,
0110
0010
0001
0202
0003
0310
1000
0000
,
1001
0001
0011
0010
0200
1300
0001
0100
,
0020
0130
0001
2000
3000
0001
0010
0100
,
2200
0000
0300
3002
0200
0000
0000
0000
,
0000
0000
0000
0303
0000
0100
0010
1000
,
2002
0000
3000
0023
0200
0000
0000
0000
,
0000
0000
0000
0000
0330
0100
1000
0001
,
0201
0310
1000
1010
0000
1000
0001
0011
,
0000
0010
0100
1000
1002
0103
0102
1003
,
1200
0310
0001
1001
0000
2000
3100
0010
,
0012
0000
0000
1003
0020
0000
0130
0001
,
2001
3100
0010
0011
0000
0001
1000
1010
,
0000
0010
0100
0001
2001
3010
2010
3001
,
0011
0010
0100
1100
0000
2000
3001
0100
,
0120
0000
0000
1030
0002
0000
1003
0010
,
0200
0301
0001
2000
3100
0100
0040
0000
0031
0000
1000
0000
0010
0000
0100
0000
,
0020
0000
0130
0001
0100
1000
0100
0101
,
0000
0001
1000
0100
0010
0001
0010
1000
,
0010
0001
1000
0010
0110
0100
0101
0001
,
0201
0310
1000
0001
1000
0100
0001
0100
,
1000
1000
0001
0001
0020
0000
0130
1100
,
0000
1000
0001
0100
0010
1000
0010
0001
,
0010
1000
0001
0011
0000
0010
0100
1000
,
1002
0000
0003
0000
0000
0000
0000
0000
2000
0000
3001
0010
0002
0000
1003
0010
,
0100
0020
0000
1030
0002
0000
0000
1003
0100
0010
0000
0010
0100
1000
0000
1000
,
0002
0000
0203
0000
2300
0000
3200
0000
0302
0000
1003
0010
0100
0000
0100
0010
,
2000
0000
0000
3002
0000
0000
0003
0000
0020
0000
0130
1000
0000
1000
0001
0000
,
0202
0000
0303
0000
0110
0010
1000
0001
,
0022
0003
0130
0010
1000
0010
0001
1001
,
0000
1000
0010
0100
0001
0100
1000
0100
,
0001
0000
1000
0000
0100
0000
0010
0000
0011
0001
1001
1000
1200
0310
0001
1000
,
1010
0010
0100
0001
1001
1000
0100
0010
,
0012
0000
1003
1100
0000
0100
0010
0001
,
1000
0100
0001
0100
1000
0001
0100
0110
,
0000
0010
1000
0001
0101
0000
0000
0000
,
0100
0020
0000
0130
0001
1000
0001
0100
0020
0000
0230
0000
0301
1000
0100
1000
,
0002
0000
0013
0100
1000
0100
0010
0100
2000
0000
3200
0000
0302
0000
0203
0000
,
2300
0000
3001
0100
0010
0100
0001
0100
0010
2000
0000
3001
0010
0000
0010
0100
,
0000
0100
2000
0000
3001
0100
0000
0100
0020
0000
0030
1000
0001
1000
0200
0020
,
0000
0000
0000
0000
,
0330
0000
0000
0000
,
0022
0030
1003
0010
0210
0301
1000
0100
,
0110
0010
0100
2200
0300
3001
0101
0000
,
0120
1030
0001
0010
0110
0100
1000
0001
,
1001
1000
0010
0220
0000
0330
0000
0000
,
0101
0001
1000
0100
0110
0010
0001
1000
,
1010
0010
0100
0202
0300
1003
1100
0000
,
0220
0300
0031
1000
1010
0010
0100
0001
,
1001
1000
0100
0110
0000
0010
0100
1000
,
2002
0000
3000
0013
2200
0000
0000
0000
,
0000
0000
3300
0000
0000
1000
0001
1000
,
2020
0000
3000
0130
0202
0000
0000
0000
,
0000
0000
0000
0000
0303
0001
1000
0010
,
0110
0000
0100
0010
0200
0000
0301
0000
1000
0000
0000
0001
0020
0000
0130
0000
1000
0000
0001
0010
0002
0000
1003
0000
0100
0000
0010
0000
0020
0000
0000
0000
,
0130
0000
1000
0100
1000
0000
0001
0000
0010
0000
0001
0000
1000
0000
0010
0000
2000
0000
0000
0000
3020
0000
0000
0000
0230
0000
0000
0000
0302
0000
0000
0000
,
1003
0100
0010
0001
0000
0001
0010
0100
2000
0000
3000
0000
0000
0000
0000
0000
,
0001
0100
0010
1000
0000
2000
3000
0010
0100
0001
1000
0100
0010
0001
0000
1000
,
0200
0000
0000
0000
0310
0000
0100
0000
1000
0000
0000
0000
0000
0000
0001
0000
2000
0000
0000
0000
3010
0000
0100
0000
0002
0000
0000
0000
1003
0000
0100
0000
0020
0000
0000
0000
0000
0000
0000
0000
0030
0000
0200
0000
0000
0000
2300
0000
3004
0040
0000
0000
0000
0000
0000
0000
0000
0000
0000
0000
0000
0000
0000
0000
,
0033
0020
0230
2300
3002
0000
1003
0010
0100
0010
1000
0001
0010
0100
1000
0002
,
0000
1003
0100
0000
0020
0000
0130
1000
0002
0000
0003
0100
0010
0100
0001
2000
,
0000
3000
0000
0000
2000
0000
3100
0010
0001
0010
0100
1000
0001
0100
0010
0200
,
0000
0301
1000
0000
0001
0010
0100
0010
0001
0000
0001
1000
0010
0100
0010
1000
,
0000
1000
0001
0010
0200
0000
0000
1300
0002
0000
0000
0000
0000
0000
0003
0000
,
0000
1000
0010
1000
0002
0000
0000
0023
0230
0000
0000
0300
4100
0000
0000
3001
,
0100
0000
0140
0000
0000
1030
0001
0000
0401
0000
0000
0300
0220
0000
0300
0000
,
1030
0001
0011
0010
0100
1000
1001
0001
,
0100
0220
0300
1030
1001
0000
0011
0010
,
0100
1000
1001
0001
0100
0010
1010
1000
,
0001
0022
0000
0033
0000
0000
0110
0100
,
1000
0001
0101
0100
0010
1000
1001
0001
,
0010
0220
0030
1300
1001
0000
0202
0003
,
0310
1000
1001
0001
0010
0001
1001
1000
,
0010
0110
0000
0100
0010
1000
2002
0000
,
3000
0023
0200
0000
0000
0000
0000
0000
,
0330
0000
0000
0100
1000
0100
0220
0000
,
0300
0032
2000
0000
0000
0000
0000
0000
,
0000
0000
3003
1000
0010
0100
0102
1003
,
0100
0110
0000
0010
0001
1001
0000
1000
,
0020
0130
0102
1003
2100
3001
0201
0310
,
1000
1001
0000
0001
0011
0010
0210
0000
,
0000
1300
0002
0103
0010
0010
2010
3001
,
0010
0110
0000
0100
1000
1001
0000
0001
,
0200
0310
2010
3001
0012
1003
1020
0130
,
0001
1001
0000
2000
3100
0010
0012
0000
,
0000
1003
0020
0130
0001
0001
1000
0010
,
0100
0101
0000
0001
1000
1100
0000
0100
,
0010
0001
1002
1003
2001
3001
0101
0100
,
0010
1010
0000
1000
0001
0010
0110
0000
,
0100
1000
0001
0001
2000
3100
0110
0010
,
0001
1001
0000
1000
0010
0110
0000
0100
,
0001
1000
2200
3300
0022
0033
1001
1000
,
0010
0000
0110
0000
0000
0000
0200
0000
0301
0000
2000
3000
2200
0000
0000
0000
,
0000
0000
0000
0000
3300
0000
0000
0000
0000
0000
0000
0000
0200
0310
0001
1001
,
0000
0000
2000
0000
3010
0000
0100
0000
0202
0000
0303
0000
0000
0000
0001
0000
2000
0000
0000
0000
0000
0000
3000
0000
0002
0013
0100
1000
0000
2000
3100
0020
,
0032
0000
2003
0000
3002
0023
0230
0000
0000
0000
0300
0000
0000
0000
0000
0000
0000
0000
0000
0000
0000
0000
0000
0000
0000
0000
0000
0000
0000
0000
0000
0000
;

//---------------dance-single - Hard----------------
#NOTES:
     dance-single:
     Ace Of Hearts (2014):
     Hard:
     8:
     0.558,0.408,0.022,0.561,0.199:
0000
0000
0000
0000
,
1000
0010
1000
0010
0000
1000
0001
1000
0000
0001
0010
0001
0020
0030
0200
0300
,
1000
0100
0010
0001
0000
0001
0010
0100
4000
0000
0000
0000
3001
0000
0040
0000
,
0000
0130
4000
0000
3001
0100
0001
0100
,
0000
0010
0100
0010
0000
1000
0001
1000
,
0020
0030
0200
0300
0001
0100
0010
1000
,
0000
1000
0010
0100
0002
0000
0000
1003
,
0020
0000
2030
0000
3001
0010
0001
0010
,
0000
0100
0010
0100
0000
1000
0100
1000
,
0200
0300
0020
0030
0001
0010
0100
1000
,
0000
1000
0100
0010
0002
0000
0000
1003
,
0200
0000
0000
0000
0310
0000
0001
0000
2000
0000
3001
0020
0000
0130
4000
0000
,
3001
0010
0001
0010
0200
0000
1300
0001
,
1000
0001
1000
0100
0000
1000
0100
1000
,
0001
1000
0001
1000
0001
0100
0001
0100
,
0001
1000
0100
1000
0100
0010
0100
0010
,
0100
1000
0100
1000
0002
0000
1003
0010
,
1000
0010
1000
0001
0000
0100
0010
0100
,
0001
1000
0001
1000
0100
0010
0100
0010
,
0000
0001
1000
0001
1000
0000
0000
0000
,
0002
0000
1003
0000
0020
0000
0130
0000
0002
0000
0000
1003
0200
0000
0000
0310
,
0002
0000
0000
0013
0200
0000
0000
0310
0002
0000
1003
0000
0010
0000
1000
0000
,
0001
0000
0010
0000
0001
1000
0000
0000
0200
0000
1300
0000
0100
0000
0000
0000
,
0020
0000
0031
1000
0000
1000
0001
0000
0200
0000
0000
0000
0300
0000
0000
0000
,
0010
1000
0010
1000
0002
0000
0013
0100
,
0010
0100
1000
0001
0000
1000
0100
1000
,
0002
0103
0002
0103
0010
1000
0010
1000
,
0001
1000
0100
1000
0100
0010
0100
0010
,
0001
1000
0001
1000
0010
0100
0010
0100
,
0001
1000
0001
1000
0000
0100
0010
0100
,
1000
0100
1000
0100
0010
0001
0010
0001
,
0000
1000
0001
1000
0001
0000
0000
0000
,
1000
0000
0100
0000
0010
0000
0100
0000
1000
0000
0000
0002
0000
0000
0103
0000
,
0010
1000
0001
1000
0020
1030
0001
1000
,
0001
0020
0000
0000
0130
0000
1000
0000
0001
0000
1000
0000
0010
0000
1000
0000
,
0001
0010
0000
0100
2000
0000
3001
0000
0200
0000
0000
0000
0301
0000
1000
0020
,
0000
0000
0000
0000
,
0000
0030
0000
0000
,
2020
0030
3001
0010
0001
0010
0100
1000
,
0001
1000
0001
0200
0000
0310
1000
0000
,
2002
3000
0013
0100
2000
0000
3000
0001
,
0100
0010
0100
0002
0000
0003
0000
0000
,
2002
0003
3100
0010
0001
0010
0100
0010
,
0100
1000
0100
2000
0000
3001
0100
0000
,
0001
1000
0001
1000
0100
0010
0100
1000
,
0100
0010
0100
0020
0030
0001
0010
0100
,
2000
0000
0000
3002
0200
0000
0000
0000
,
0000
0000
0000
0303
0000
0100
0010
1000
,
0002
0000
0000
2003
0200
0000
0000
0000
,
0000
0000
0000
0000
3300
0100
0010
0100
,
1000
0001
1000
0001
0000
0010
0100
0010
,
0000
0001
1000
0001
0020
0130
0020
0130
,
1000
0100
0010
0001
0000
0001
0010
0100
,
2000
0000
0000
3001
0200
0000
0300
0000
,
0010
1000
0010
1000
0000
0001
0010
0001
,
0000
1000
0001
1000
0002
0103
0002
0103
,
0001
0100
0010
1000
0000
1000
0010
0100
,
0002
0000
0000
1003
0200
0000
0300
0000
,
0020
0000
0031
2000
0000
3010
0400
0000
0301
0000
0100
0000
0010
0000
0100
0000
,
0002
0000
1003
0100
0010
0001
0010
0100
,
0000
1000
0001
1000
0001
0100
0010
1000
,
0010
0100
0001
1000
0001
0010
0100
0010
,
0200
1300
0001
1000
0010
1000
0010
1000
,
0001
0100
0001
0100
0020
0000
0130
0001
,
0000
1000
0100
0010
0001
1000
0001
1000
,
0010
1000
0010
1000
0000
0001
0100
0001
,
0200
0300
0000
0000
0020
1030
0001
0100
,
0020
0000
0000
1030
0002
0000
0000
0013
0200
0000
0000
1300
0002
0000
0000
1003
,
0020
1030
0001
1000
0200
0310
0100
1000
,
0002
0000
0000
2003
0000
0000
3000
0000
0002
0000
1003
0100
0000
0100
1000
0000
,
0002
0000
0003
0000
1000
0100
0010
0100
,
2000
0000
3001
0100
0010
0100
0001
1000
,
0000
0001
0100
0010
1000
0010
0100
0001
,
1000
0000
0001
0000
0010
0000
0100
0000
1000
0001
0100
0001
0200
0310
1000
0010
,
0100
0001
1000
0001
0010
0100
0010
0100
,
2000
0000
3001
0100
0000
0010
0100
0010
,
1000
0001
1000
0001
0010
0100
1000
0002
,
0003
1000
0100
1000
0100
0000
0000
0000
,
0020
0000
0000
0031
2000
0000
3001
0000
0100
0000
0001
0000
1000
0000
0100
0000
,
1000
0001
0100
0001
1000
0010
0100
0001
,
2000
0000
3100
0000
0010
0000
0001
0000
1000
0100
0000
0100
1000
0000
1000
0001
,
0000
0001
0100
0000
0100
0001
0000
0001
1000
0000
0000
0000
0020
0000
0130
0002
,
0000
0000
0000
0000
,
0003
0000
0000
0000
,
0022
0003
0130
1000
0001
1000
0010
0100
,
0010
1000
0001
2000
0000
3001
0100
0000
,
0010
1000
0010
0100
0001
1000
0001
1000
,
0001
0010
0100
2000
0000
3000
0000
0000
,
0001
0010
0100
0010
0001
1000
0001
1000
,
0100
0010
0100
2000
0000
3001
0010
0000
,
0002
0000
1003
0010
0100
0010
1000
0001
,
1000
0100
0010
0100
0000
0010
0001
0010
,
0200
0000
0000
2300
0002
0000
0000
0000
,
0000
0000
3003
0000
0000
0001
0100
0010
,
2000
0000
0000
3020
0200
0000
0000
0000
,
0000
0000
0000
0000
0330
0100
0001
0100
,
0001
0000
0001
0000
1000
0000
1000
0000
0100
0010
0100
1000
0001
1000
0002
0000
,
1003
0010
1000
0000
0001
0010
0001
0010
0200
0000
2300
0000
3002
0000
0203
0000
,
0302
0000
1003
0100
0000
0010
0001
0010
0002
0000
0003
0000
0000
0000
0000
0000
,
1000
0010
1000
0020
0000
0230
0300
0001
1000
0001
1000
0100
0010
0001
0000
0000
,
2000
0000
3001
0010
0001
0000
0000
0000
0020
0000
0130
1000
0100
0000
0010
0000
0002
0000
0000
0000
0003
2000
0000
0400
0000
0000
0000
0000
0000
0000
0000
0000
,
3300
0000
0000
0000
2000
0000
3001
0100
0001
0100
0010
1000
0010
0100
0010
2000
,
0000
3001
0100
0000
0020
0000
0130
0001
0200
0000
0300
0001
1000
0001
0100
0020
,
0000
0030
0000
0000
2000
0000
3001
0010
0100
0010
0001
1000
0001
1000
0010
2000
,
0000
3001
0100
0000
0001
0100
0010
0100
0001
0000
1000
0100
0010
0100
1000
0001
,
0000
1000
0010
1000
0002
0000
0000
0013
0200
0000
0000
0000
0000
0000
0300
0000
,
0000
1000
0100
1000
0002
0000
0000
1003
0200
0000
0000
0000
0340
0000
0000
0000
,
0031
4000
0000
3010
0400
0000
0302
0000
,
1003
0100
0010
0100
1000
0001
1000
0001
,
1000
0020
0000
1030
0001
0000
0010
0001
,
0010
0001
1000
0010
1000
0010
0100
0001
,
0100
0020
0000
0030
0000
0000
1000
0001
,
0010
0001
1000
0010
1000
0001
0010
0100
,
1000
0002
0000
1003
0100
0000
0020
0000
,
0130
1000
0100
1000
0001
0100
0001
1000
,
0100
1000
0000
0001
0100
0010
2000
0000
,
0000
3002
0200
0000
0000
0000
0000
0000
,
0303
0000
0000
0100
0010
1000
0002
0000
,
0000
2003
0200
0000
0000
0000
0000
0000
,
0000
0000
3300
0100
0010
0100
1000
0001
,
1000
0001
0000
1000
0100
0010
0000
0001
,
0010
0100
2000
3001
2000
3001
1000
0010
,
1000
0010
0000
0100
0001
0100
0002
0000
,
0000
1003
0020
0000
0000
0030
1000
0001
,
1000
0001
0000
0010
0100
1000
0000
0001
,
0100
0001
0200
0310
0200
0310
1000
0001
,
1000
0001
0000
1000
0100
0010
0002
0000
,
0000
1003
0200
0000
0300
0000
0010
0001
,
0010
0001
0000
1000
0010
0100
0000
0001
,
1000
0001
0020
0031
0020
0031
1000
0001
,
1000
0001
0000
1000
0010
0100
0001
0000
,
0000
0000
0000
0000
0000
0000
1000
0100
,
0010
0001
0000
1000
0100
0010
0000
0100
,
0010
0001
2002
3003
2002
3003
1000
0010
,
1000
0010
0000
1000
0001
0020
0200
0000
,
0000
0000
0000
0000
0330
0000
0000
0000
0000
0000
0000
0000
0100
1000
0100
1000
,
0000
0000
0001
0000
0100
0000
0001
0000
0200
0000
0000
0000
0300
0000
0002
0000
0000
0000
0000
0000
0003
0000
0000
0000
1000
0100
1000
0100
0000
0010
0100
0010
,
0200
4300
0000
0000
0000
3000
0000
0000
0000
0000
0000
0000
0000
0000
0000
0000
;

//---------------dance-single - Medium----------------
#NOTES:
     dance-single:
     Ace Of Hearts (2014):
     Medium:
     6:
     0.249,0.178,0.000,0.156,0.024:
0000
0000
0000
0000
,
0002
0000
0000
0003
0000
0000
0001
0000
0000
0000
1000
0000
0100
0000
0100
0000
,
0200
0000
0000
0300
0000
2000
0000
0000
3004
0000
0000
0000
0000
0000
0003
0000
,
0000
0000
0000
0000
1000
0000
0000
1000
,
0000
0000
0010
0000
0000
0010
0000
0000
,
1000
0000
1000
0000
0001
0000
0000
0001
,
0000
0100
0100
0000
,
0000
0000
0000
0000
0010
0000
0000
0010
,
0000
1000
0000
1000
,
0001
0000
0001
0000
0001
0000
0000
0001
,
0000
0100
0100
0000
,
0000
0000
0000
0000
0000
0000
0000
0000
0020
0000
0000
0230
0000
0000
0304
0000
,
1003
0100
1000
0100
,
1000
0000
0000
1000
0000
0000
0001
0000
,
0100
0001
0100
0010
,
0100
0100
0100
0001
,
1000
0001
1000
0001
,
0010
0000
0000
0010
0000
0000
0001
0000
,
1000
0000
0001
0000
1000
0000
0000
1000
,
0000
0001
0001
0000
,
1000
1000
0100
0010
,
0001
0001
1000
1000
,
0010
0010
0100
0100
,
0001
0001
0001
0000
,
1000
0010
1000
0001
,
1000
0000
0000
1000
0000
0000
0001
0000
,
0010
0100
0010
0100
,
1000
1000
1000
0001
,
1000
0100
1000
0001
,
1000
0000
0000
1000
0000
0000
0001
0000
,
0010
0000
0001
0000
1000
0000
0000
1000
,
0000
0100
0100
0000
,
0010
0001
0001
0000
,
1000
0010
0010
0100
,
0001
0001
1000
1000
,
1000
0100
0100
0010
,
0020
0000
0000
0000
,
0000
0030
0000
0000
,
0001
1000
1000
0010
,
0010
0000
0000
0020
0000
0000
1030
0000
,
0001
1000
1000
0000
,
0100
0000
0000
0100
0000
0000
0000
0000
,
0010
0001
0001
1000
,
1000
0000
0000
2000
0000
0000
3100
0000
,
0010
0001
0001
1000
,
1000
0000
0000
1000
0000
0000
0001
0000
,
0002
0000
0200
0000
,
0000
0000
0000
0303
0000
0000
0100
0000
,
0002
0000
2000
0000
,
0000
0000
3003
1000
,
1000
0000
0000
0100
0000
0000
0000
0010
,
0000
0001
1000
1000
,
0010
0000
0000
0010
0000
0000
0100
0000
,
0100
0000
0000
0000
,
0001
0000
0000
0001
0000
0000
0000
1000
,
0000
0100
0010
0010
,
0100
0000
0000
0100
0000
0000
1000
0000
,
1000
0000
0000
0000
,
0002
0000
0000
0023
0000
0000
0430
0000
1300
0000
0000
0000
0100
0000
0000
0000
,
2000
0000
3001
0000
0010
0000
0000
0010
,
0000
0001
1000
0001
,
1000
0001
0100
0100
,
0100
0010
1000
1000
,
0001
0000
0001
0000
0010
0000
0000
0010
,
0000
0100
1000
1000
,
0001
0000
0000
0001
0000
0000
0100
0000
,
0100
0000
0010
1000
,
1000
0002
0013
0010
,
0100
0100
1000
1000
,
0002
0003
1000
0100
,
1000
0000
0001
0100
,
0001
0000
1000
0000
0001
0000
0000
0001
,
0000
1000
0100
1000
,
0100
0000
0010
0000
0100
1000
1000
0001
,
0100
0100
0010
0010
,
2000
0000
0000
3001
0000
0000
0010
0000
,
0001
0000
0001
0000
1000
0000
0000
1000
,
0000
0100
0100
0000
,
1000
0001
0001
0100
,
0100
0100
0010
0010
,
1000
1000
0001
0001
,
1000
1000
1000
0001
,
0002
0000
0000
0000
,
0003
0000
0000
0000
,
2000
3001
0100
0100
,
0010
0000
0000
0020
0000
0000
1030
0000
,
0001
0010
0010
0100
,
0100
0000
0000
0100
0000
0000
0000
0000
,
1000
1000
0001
0001
,
0100
0000
0000
0200
0000
0000
0301
0000
,
1000
1000
0100
0100
,
0010
0000
0000
0010
0000
0000
0001
0000
,
0002
0000
2000
0000
,
0000
3003
0000
1000
,
0020
0000
0200
0000
,
0000
0000
0330
0100
,
0001
0001
0001
0000
1000
1000
1000
0000
,
0100
0010
0100
0000
2000
3002
2003
3000
,
0001
0000
0000
0001
0000
0000
0100
0000
0100
0000
0000
0000
0000
0000
0000
0000
,
0010
0000
0000
0010
0000
0000
0000
0000
1000
0000
0001
0000
1000
0000
0000
0000
,
0100
0000
0000
0000
0100
0000
0000
0000
0010
0000
0000
0000
0010
0000
0000
0000
0002
0000
0000
0000
0000
0000
0000
2000
0000
0000
0000
0000
0000
0000
0000
0000
,
3003
0000
0000
0000
1000
0000
0100
0000
1000
0000
0000
0000
0001
0000
0000
0001
,
0000
0000
0000
0000
1000
0000
0010
0000
1000
0000
0000
0000
0001
0000
0000
0001
,
0000
0000
0000
0000
1000
0000
0100
0000
1000
0000
0000
0000
0001
0000
0000
0001
,
0000
0000
0000
0000
0010
0000
0001
0000
0010
0000
0000
0000
0100
0000
0000
0100
,
0000
0000
2000
0000
3002
0000
0000
0003
,
0000
0010
0200
0000
2300
0000
3004
0000
,
0000
0003
0000
0000
0000
0000
1000
0000
,
0010
1000
0001
2000
,
0000
3001
0000
0000
0001
0000
0010
0000
,
0100
0010
0001
0001
,
0000
0001
0000
0000
0000
0000
1000
0000
,
0010
1000
0001
0100
,
0000
0200
0000
0000
0301
0000
1000
0000
,
0001
1000
0100
1000
,
0000
1000
0000
0000
0001
0000
0020
0000
,
0000
0200
0000
0000
,
0330
0000
0100
2000
,
0000
0002
0000
0000
,
0000
3003
0001
0001
,
0000
0001
0000
0000
1000
0000
0000
0000
,
1000
0010
0010
0100
,
0000
0100
0000
0000
0001
0000
0001
0000
,
0000
0000
0000
1000
,
0000
1000
0000
0000
0100
0000
0000
0000
,
0010
0001
0001
1000
,
0000
1000
0000
0000
0010
0000
0010
0000
,
0000
0000
0000
0100
,
0000
0100
0000
0000
0001
0000
0000
0000
,
1000
0010
0010
0100
,
0000
0100
0000
0000
0001
0000
0001
0000
,
0000
0000
0000
1000
,
0000
1000
0000
0000
0100
0000
0000
0000
,
0010
0001
0001
1000
,
0000
1000
0000
0000
0010
0000
0020
0000
,
0000
0000
0000
0000
0030
0000
0000
0000
0000
0000
0000
0000
0100
0000
0000
0100
,
0000
0000
0000
0000
0001
0000
0000
0000
0001
0000
0000
0000
0000
0000
0000
0000
0000
0000
0000
0000
0000
0000
0000
0000
1000
0000
0000
1000
0000
0000
0100
0000
,
0100
0000
0000
0000
;

//---------------dance-single - Easyish----------------
#NOTES:
     dance-single:
     Ace Of Hearts (2014):
     Easy:
     4:
     0.177,0.102,0.000,0.145,0.004: // measure 1
0000
0000
0000
0000
,  // measure 2
1000
1000
1000
1000
,  // measure 3
0001
0001
0001
0000
,  // measure 4
0000
0000
0100
0000
,  // measure 5
0100
0000
0100
0000
,  // measure 6
0001
0001
0001
0000
,  // measure 7
1000
0000
1000
0000
,  // measure 8
0000
0000
0001
0000
,  // measure 9
0001
0000
0001
0000
,  // measure 10
0010
0010
0010
0000
,  // measure 11
0100
0000
0100
0000
,  // measure 12
0000
0000
0000
0000
2000
0000
0000
3000
,  // measure 13
0001
0001
0001
0000
,  // measure 14
0100
0000
0100
0000
,  // measure 15
0001
0001
0001
0000
,  // measure 16
0100
0100
0100
0000
,  // measure 17
0010
0000
0010
0000
,  // measure 18
1000
0000
1000
0000
,  // measure 19
0001
0000
0001
0000
,  // measure 20
0100
0100
0100
0000
,  // measure 21
0010
0010
0010
0000
,  // measure 22
1000
1000
1000
0000
,  // measure 23
0001
0001
0001
0000
,  // measure 24
0100
0100
0200
0300
,  // measure 25
0010
0010
0010
0000
,  // measure 26
1000
0000
1000
0000
,  // measure 27
0001
0000
0001
0000
,  // measure 28
0100
0100
0100
0000
,  // measure 29
0001
0000
0001
0000
,  // measure 30
1000
0000
1000
0000
,  // measure 31
0100
0100
0100
0000
,  // measure 32
0010
0010
0010
0000
,  // measure 33
0001
0001
0001
0000
,  // measure 34
1000
1000
1000
0000
,  // measure 35
0010
0010
0010
0000
,  // measure 36
0100
0100
0100
0000
,  // measure 37
0002
0000
0000
0000
,  // measure 38
0000
0003
0000
0000
,  // measure 39
2000
0000
3000
0000
,  // measure 40
0001
0000
0001
0000
,  // measure 41
0020
0000
0030
0000
,  // measure 42
0100
0000
0100
0000
,  // measure 43
2000
0000
3000
0000
,  // measure 44
0001
0000
0001
0000
,  // measure 45
0200
0000
0300
0000
,  // measure 46
0010
0000
0010
0000
,  // measure 47
1000
0000
2000
0000
,  // measure 48
0000
0000
0000
3000
0000
0000
0000
0000
,  // measure 49
0001
0000
0002
0000
,  // measure 50
0000
0000
0003
1000
,  // measure 51
1000
0000
1000
0000
,  // measure 52
1000
0000
0001
0001
,  // measure 53
0001
0000
0100
0000
,  // measure 54
0100
0000
0000
0000
,  // measure 55
0010
0000
0010
0000
,  // measure 56
0010
0000
1000
1000
,  // measure 57
1000
0000
0001
0000
,  // measure 58
0001
0000
0000
0000
,  // measure 59
0020
0000
0000
0030
0100
0000
0100
0000
,  // measure 60
0100
0000
1000
0000
,  // measure 61
1000
0000
0001
0001
,  // measure 62
0001
0000
0100
0100
,  // measure 63
0100
0000
0010
0000
,  // measure 64
0010
0000
0020
0000
,  // measure 65
0030
0000
1000
1000
,  // measure 66
1000
0000
0001
0001
,  // measure 67
0001
0000
0010
0010
,  // measure 68
0010
0000
0001
0001
,  // measure 69
0001
0000
1000
1000
,  // measure 70
1000
0000
0010
0010
,  // measure 71
0010
0000
0100
0100
,  // measure 72
0100
0000
0001
0000
,  // measure 73
0001
0000
1000
1000
,  // measure 74
1000
0000
0020
0030
,  // measure 75
0100
0100
0100
0000
,  // measure 76
0002
0000
0003
0000
,  // measure 77
1000
1000
1000
0000
,  // measure 78
0100
0100
0100
0000
,  // measure 79
0010
0010
0010
0000
,  // measure 80
0001
0001
0001
0000
,  // measure 81
1000
1000
1000
0000
,  // measure 82
0010
0010
0010
0000
,  // measure 83
0200
0000
0000
0000
,  // measure 84
0300
0000
0000
0000
,  // measure 85
0001
0001
0001
0000
,  // measure 86
2000
0000
3000
0000
,  // measure 87
0100
0000
0100
0000
,  // measure 88
0020
0000
0030
0000
,  // measure 89
0001
0001
0001
0000
,  // measure 90
2000
0000
3000
0000
,  // measure 91
0010
0000
0010
0000
,  // measure 92
0200
0000
0300
0000
,  // measure 93
0001
0000
0002
0000
,  // measure 94
0000
0003
0000
0000
,  // measure 95
1000
0000
2000
0000
,  // measure 96
0000
0000
3000
0001
,  // measure 97
0001
0001
0100
0100
,  // measure 98
0010
0010
2000
3000
,  // measure 99
0001
0001
0001
0000
,  // measure 100
0100
0100
0200
0300
,  // measure 101
0020
0030
2000
3000
0002
0000
2000
0000
,  // measure 102
3003
1000
1000
1000
,  // measure 103
0000
0100
0100
0100
,  // measure 104
0000
0010
0010
0010
,  // measure 105
0000
0001
0001
0001
,  // measure 106
0000
0000
1000
0000
2000
0000
0000
3000
,  // measure 107
0000
0001
0002
0000
,  // measure 108
0003
0000
0000
0010
,  // measure 109
0000
0010
0000
0200
,  // measure 110
0000
0300
0000
1000
,  // measure 111
1000
1000
0000
0002
,  // measure 112
0000
0003
0000
0100
,  // measure 113
0100
0100
0000
0020
,  // measure 114
0000
0030
0000
1000
,  // measure 115
0000
1000
0000
2000
,  // measure 116
0000
3000
0000
0010
,  // measure 117
0000
0020
0000
0000
,  // measure 118
0030
0000
0000
0100
,  // measure 119
0000
0200
0000
0000
,  // measure 120
0000
0300
0001
0001
,  // measure 121
0000
0001
0000
0001
,  // measure 122
0000
1000
1000
1000
,  // measure 123
0000
0100
0000
0100
,  // measure 124
0000
0000
0000
0010
,  // measure 125
0000
0010
0000
0010
,  // measure 126
0000
0001
0001
0001
,  // measure 127
0000
1000
0000
1000
,  // measure 128
0000
0000
0000
0010
,  // measure 129
0000
0010
0000
0010
,  // measure 130
0000
0100
0100
0100
,  // measure 131
0000
0001
0000
0001
,  // measure 132
0000
0000
0000
1000
,  // measure 133
0000
1000
0000
1000
,  // measure 134
0000
0100
0100
0100
,  // measure 135
0000
0010
0000
0020
,  // measure 136
0000
0000
0000
0000
0030
0000
0000
0000
0000
0000
0000
0000
0002
0000
0000
0003
,  // measure 137
0000
0000
0002
0000
0000
0000
0000
0000
0003
0000
0000
0000
0000
0000
0000
0000
0000
0000
0000
0000
0000
0000
0000
0000
2000
0000
0000
3000
0000
2000
0000
0000
,  // measure 138
3000
0000
0000
0000
;

//---------------dance-single - Novice----------------
#NOTES:
     dance-single:
     Ace Of Hearts (2014):
     Beginner:
     2:
     0.107,0.076,0.000,0.097,0.000: // measure 1
0000
0000
0000
0000
,  // measure 2
0001
0000
0001
0000
,  // measure 3
0002
0000
0003
0000
,  // measure 4
0000
0000
1000
0000
,  // measure 5
0000
0000
1000
0000
,  // measure 6
0000
0000
2000
0000
,  // measure 7
0000
0000
3000
0000
,  // measure 8
0000
0000
0010
0000
,  // measure 9
0000
0000
0010
0000
,  // measure 10
0000
0000
0020
0000
,  // measure 11
0000
0000
0030
0000
,  // measure 12
0000
0000
0000
0000
0200
0000
0000
0300
,  // measure 13
0001
0000
0001
0000
,  // measure 14
0001
0000
0000
0000
,  // measure 15
0100
0000
0100
0000
,  // measure 16
0100
0000
0000
0000
,  // measure 17
0010
0000
0010
0000
,  // measure 18
0010
0000
0000
0000
,  // measure 19
1000
0000
1000
0000
,  // measure 20
1000
0000
0000
0000
,  // measure 21
0001
0000
0001
0000
,  // measure 22
0001
0000
0000
0000
,  // measure 23
0100
0000
0100
0000
,  // measure 24
0100
0000
0000
0000
,  // measure 25
0010
0000
0010
0000
,  // measure 26
0010
0000
0000
0000
,  // measure 27
1000
0000
1000
0000
,  // measure 28
1000
0000
0000
0000
,  // measure 29
0001
0000
0001
0000
,  // measure 30
0001
0000
0000
0000
,  // measure 31
0010
0000
0010
0000
,  // measure 32
0010
0000
0000
0000
,  // measure 33
0001
0000
0001
0000
,  // measure 34
0001
0000
0000
0000
,  // measure 35
1000
0000
1000
0000
,  // measure 36
1000
0000
0000
0000
,  // measure 37
0020
0000
0000
0000
,  // measure 38
0000
0030
0000
0000
,  // measure 39
1000
0000
1000
0000
,  // measure 40
1000
0000
0000
0000
,  // measure 41
0010
0000
0010
0000
,  // measure 42
0010
0000
0000
0000
,  // measure 43
0100
0000
0100
0000
,  // measure 44
0100
0000
0000
0000
,  // measure 45
0001
0000
0001
0000
,  // measure 46
0001
0000
0000
0000
,  // measure 47
2000
0000
0000
0000
,  // measure 48
0000
0000
0000
3000
0000
0000
0000
0000
,  // measure 49
0002
0000
0000
0000
,  // measure 50
0000
0000
0003
0000
,  // measure 51
0100
0000
0000
0000
,  // measure 52
0100
0000
0000
0000
,  // measure 53
0200
0000
0000
0000
,  // measure 54
0300
0000
0000
0000
,  // measure 55
0010
0000
0000
0000
,  // measure 56
0010
0000
0000
0000
,  // measure 57
0020
0000
0000
0000
,  // measure 58
0030
0000
0000
0000
,  // measure 59
2000
0000
0000
3000
0001
0000
0000
0000
,  // measure 60
0001
0000
0001
0000
,  // measure 61
0000
0000
0010
0000
,  // measure 62
0010
0000
0010
0000
,  // measure 63
0000
0000
0100
0000
,  // measure 64
0100
0000
0100
0000
,  // measure 65
0000
0000
1000
0000
,  // measure 66
1000
0000
1000
0000
,  // measure 67
0000
0000
0001
0000
,  // measure 68
0001
0000
0001
0000
,  // measure 69
0000
0000
0100
0000
,  // measure 70
0100
0000
0100
0000
,  // measure 71
0000
0000
0001
0000
,  // measure 72
0001
0000
0001
0000
,  // measure 73
0000
0000
1000
0000
,  // measure 74
1000
0000
2000
3000
,  // measure 75
0100
0000
0100
0000
,  // measure 76
0100
0000
0000
0000
,  // measure 77
0010
0000
0010
0000
,  // measure 78
0010
0000
0000
0000
,  // measure 79
0001
0000
0001
0000
,  // measure 80
0001
0000
0000
0000
,  // measure 81
1000
0000
1000
0000
,  // measure 82
1000
0000
0000
0000
,  // measure 83
0020
0000
0000
0000
,  // measure 84
0030
0000
0000
0000
,  // measure 85
0100
0000
0100
0000
,  // measure 86
0100
0000
0000
0000
,  // measure 87
0001
0000
0001
0000
,  // measure 88
0001
0000
0000
0000
,  // measure 89
1000
0000
1000
0000
,  // measure 90
1000
0000
0000
0000
,  // measure 91
0100
0000
0100
0000
,  // measure 92
0100
0000
0000
0000
,  // measure 93
0020
0000
0000
0000
,  // measure 94
0000
0030
0000
0000
,  // measure 95
0200
0000
0000
0000
,  // measure 96
0000
0000
0300
0000
,  // measure 97
1000
1000
1000
0000
,  // measure 98
0001
0001
0002
0003
,  // measure 99
1000
0000
1000
0000
,  // measure 100
0010
0000
0010
0000
,  // measure 101
1000
1000
0020
0000
,  // measure 102
0030
0100
0100
0100
,  // measure 103
0000
0001
0001
0001
,  // measure 104
0000
1000
1000
1000
,  // measure 105
0000
0010
0010
0010
,  // measure 106
0000
0000
0200
0000
0000
0000
0000
0300
,  // measure 107
0000
0002
0000
0000
,  // measure 108
0003
0000
0000
1000
,  // measure 109
0000
1000
0000
1000
,  // measure 110
0000
0000
0000
0010
,  // measure 111
0000
0010
0000
0010
,  // measure 112
0000
0000
0000
0100
,  // measure 113
0000
0100
0000
0100
,  // measure 114
0000
0000
0000
0001
,  // measure 115
0000
0001
0000
0001
,  // measure 116
0000
0000
0000
0020
,  // measure 117
0000
0000
0000
0000
,  // measure 118
0030
0000
0000
0200
,  // measure 119
0000
0000
0000
0000
,  // measure 120
0000
0300
0000
1000
,  // measure 121
0000
0000
0000
1000
,  // measure 122
0000
0000
0000
2000
,  // measure 123
0000
0000
0000
3000
,  // measure 124
0000
0000
0000
0001
,  // measure 125
0000
0000
0000
0001
,  // measure 126
0000
0000
0000
0002
,  // measure 127
0000
0000
0000
0003
,  // measure 128
0000
0000
0000
0100
,  // measure 129
0000
0000
0000
0100
,  // measure 130
0000
0000
0000
0200
,  // measure 131
0000
0000
0300
0000
,  // measure 132
0000
0000
0000
0010
,  // measure 133
0000
0000
0000
0010
,  // measure 134
0000
0000
0000
0020
,  // measure 135
0000
0000
0000
0030
,  // measure 136
0000
0000
0000
2000
,  // measure 137
3000
0000
1000
0000
0000
0000
0200
0300
,  // measure 138
0100
0000
0000
0000
;
