#TITLE:My Little Glory;
#SUBTITLE:;
#ARTIST:ave-new feat. Saori Sakura;
#TITLETRANSLIT:;
#SUBTITLETRANSLIT:;
#ARTISTTRANSLIT:;
#GENRE:Bubblegum J-Pop;
#CREDIT:Ace Of Hearts;
#BANNER:My Little Glory - Bn.png;
#BACKGROUND:My Little Glory - Bg.png;
#LYRICSPATH:;
#CDTITLE:Ace Of Hearts.png;
#MUSIC:My Little Glory.ogg;
#OFFSET:0.735;
#SAMPLESTART:77.100;
#SAMPLELENGTH:12.000;
#SELECTABLE:YES;
#DISPLAYBPM:64.000:128.000;
#BPMS:0.000=128.000,6.000=256.000,6.500=128.000,7.250=256.000,7.500=128.000,11.250=256.000,11.500=128.000,14.500=256.000,15.500=128.000,21.250=256.000,28.000=128.000,35.000=256.000,36.000=128.000,50.250=256.000,51.500=128.000,64.000=256.000,68.000=128.000,98.000=256.000,100.000=128.000,132.000=64.000,140.000=128.000,200.000=256.000,204.000=128.000,236.000=256.000,239.750=128.000,241.000=256.000,242.250=128.000;
#STOPS:6.000=0.117
,7.250=0.059
,11.250=0.059
,14.500=0.059
,14.750=0.176
,21.250=0.059
,21.500=0.117
,22.000=0.059
,22.250=0.059
,22.500=0.117
,23.000=0.059
,23.250=0.117
,23.750=0.117
,24.250=0.059
,24.500=0.059
,24.750=0.059
,25.000=0.059
,25.250=0.059
,25.500=0.117
,26.000=0.059
,26.250=0.059
,26.500=0.117
,27.000=0.059
,27.250=0.059
,27.500=0.117
,35.000=0.059
,35.250=0.117
,35.750=0.059
,50.250=0.059
,50.500=0.117
,51.000=0.059
,51.250=0.059
,64.000=0.059
,64.250=0.059
,64.500=0.059
,64.750=0.114
,65.250=0.114
,65.750=0.030
,65.875=0.030
,66.000=0.117
,66.500=0.030
,66.625=0.030
,66.750=0.117
,67.250=0.059
,67.500=0.117
,98.000=0.117
,98.500=0.059
,98.750=0.176
,99.500=0.059
,99.750=0.059
,200.000=0.059
,200.250=0.117
,200.750=0.059
,201.000=0.059
,201.250=0.118
,201.750=0.058
,202.000=0.118
,202.500=0.059
,202.750=0.059
,203.000=0.059
,203.250=0.059
,203.500=0.059
,203.750=0.059
,236.000=0.117
,236.500=0.059
,236.750=0.117
,237.250=0.117
,237.750=0.059
,238.000=0.117
,238.500=0.117
,239.000=0.059
,239.250=0.059
,239.500=0.059
,241.000=0.059
,241.250=0.117
,241.750=0.117
;
#BGCHANGES:1.250=The Royal Seven Stars OP.avi=1.000=1=0=0=StretchNoLoop==CrossFade==,
99999=-nosongbg-=1.000=0=0=0 // don't automatically add -songbackground-
;
#KEYSOUNDS:;

//---------------dance-single - Hard----------------
#NOTES:
     dance-single:
     Ace Of Hearts (2014):
     Hard:
     9:
     0.593,0.327,0.390,1.000,0.365: // measure 1
0000
0000
0000
0000
,  // measure 2
0002
0000
0023
0000
0230
0000
2300
0000
3001
0000
0002
0000
0000
1003
0010
0000
,  // measure 3
2000
0000
3020
0000
0230
0000
0302
0000
4003
0000
0000
0000
3000
0001
0010
0000
,  // measure 4
0210
0000
0000
1300
0000
0001
0100
0000
0010
0000
0100
0001
0000
0000
0001
0000
,  // measure 5
0000
0000
0000
0000
0000
0000
0000
0000
0020
0000
0000
0230
0000
0000
2300
0000
,  // measure 6
0000
0000
0000
0000
0000
3001
0100
0000
0010
0100
0020
0000
1030
0001
0000
0001
,  // measure 7
0000
1000
0100
1000
0100
0010
0001
0000
1000
0010
1000
0000
0001
1000
0001
0000
,  // measure 8
0010
0000
0100
0000
2000
0000
0000
0000
3002
0000
0000
0203
0000
0000
0310
0000
,  // measure 9
200M
0000
3M20
0000
023M
0000
03M2
0000
2M03
0000
32M0
0000
M310
0001
0000
0001
,  // measure 10
1000
0000
0010
0000
0100
0000
0001
0000
2000
0000
0000
3200
0000
0000
0320
0000
,  // measure 11
0000
0130
1000
0002
0200
0000
0303
0MM0
,  // measure 12
0100
0000
0010
0000
2000
0000
0000
0000
3002
0000
0000
0200
0000
0000
0020
0000
,  // measure 13
0000
0000
0000
0000
0000
0000
0000
0000
0333
0000
M000
0000
0M00
00M0
0001
0000
,  // measure 14
2000
0000
0000
3020
0000
0000
0200
0000
0030
0000
0301
0000
1000
0000
1200
0000
,  // measure 15
0000
0000
0310
0000
0011
0000
0000
0000
2001
0000
0000
3010
0000
0000
0220
0000
,  // measure 16
0000
0000
0000
0330
,  // measure 17
0100
0001
0100
0001
0000
0001
0000
0001
4000
0000
00M0
00M0
0000
000M
000M
3000
,  // measure 18
2020
3030
0020
0000
0130
0002
0003
1000
,  // measure 19
0200
0310
0000
0022
0030
2000
0000
0000
,  // measure 20
3003
M00M
2000
3010
0200
0301
0000
1000
,  // measure 21
1100
0200
0000
0020
0000
0000
0000
0330
,  // measure 22
0022
0033
0002
0003
1001
1000
0000
0010
,  // measure 23
0110
0100
0000
0202
0300
2000
0000
3003
,  // measure 24
2200
0000
3300
0000
0024
0000
0030
0000
2003
0000
0000
0200
0000
0000
0020
0000
,  // measure 25
0000
0000
0000
3330
,  // measure 26
2000
0000
0000
3002
0000
0000
0200
0000
0000
0000
0000
0000
0000
0000
0000
0000
,  // measure 27
0000
0000
0303
0100
0010
0001
0010
1000
,  // measure 28
0002
0000
0000
1003
0000
0000
2200
0000
0000
0000
0000
0000
0000
0000
0000
0000
,  // measure 29
0000
0000
0000
0000
3300
0000
1000
0001
,  // measure 30
0201
0000
0000
0310
0000
0000
2020
0000
0000
0000
0000
0000
3030
0000
1000
0000
,  // measure 31
0002
0000
0000
0403
0000
0000
0300
0010
,  // measure 32
0200
0000
0310
2010
3000
1001
0000
1200
,  // measure 33
0300
0220
0000
0000
0000
0000
0330
0000
,  // measure 34
M010
0000
0001
0000
0010
0000
020M
0000
0000
0000
2300
0000
0000
0000
3001
0000
2M00
0000
0000
3020
0000
0000
043M
0000
0000
0000
0000
0000
0300
0000
0000
0000
,  // measure 35
0M02
0000
0000
0000
4003
0000
0000
0000
32M0
0000
0000
0000
0320
0000
0000
0000
023M
0000
0000
2300
0000
0000
3001
0000
02M0
0000
0000
0320
0000
0000
1030
0000
,  // measure 36
0002
0000
0000
0000
1003
0000
0010
0000
0100
0001
0000
0004
0000
0000
2003
0000
,  // measure 37
0000
0000
3100
0000
0010
0000
0001
0000
0010
0100
0000
4000
0000
0000
3000
0000
,  // measure 38
1002
0000
0000
0000
0103
0000
0010
0000
1000
0010
0000
0200
0000
0000
0302
0000
,  // measure 39
0000
0000
1003
0000
0100
0000
0010
0000
0001
0020
0000
0200
0000
0000
0000
0000
,  // measure 40
0300
0000
0004
0030
0000
0100
1000
0103
,  // measure 41
2000
0000
0000
0000
3020
0000
0000
0000
0230
0000
0000
0302
0000
0000
1003
0000
,  // measure 42
1100
0000
0000
MM00
0000
0000
1001
0000
0000
M00M
0000
0000
0202
0000
0000
0000
0000
0000
0000
0000
0000
0000
0000
0000
0303
0000
0000
0000
0100
0000
0000
0000
,  // measure 43
0020
0000
1030
0004
0000
0000
1003
0000
0200
0000
0310
0004
0000
0000
1003
0000
,  // measure 44
1010
0000
0000
M0M0
0000
0000
0110
0000
0000
0MM0
0000
0000
0202
0000
0000
0000
0000
0000
0000
0000
0000
0000
0000
0000
0303
0000
0000
0000
0M0M
0000
0000
0000
,  // measure 45
4002
0000
0003
0000
3100
0000
0000
0000
0120
0000
0000
0032
0000
0000
1003
0000
,  // measure 46
1100
0000
0000
MM00
0000
0000
1001
0000
0000
M00M
0000
0000
0402
0000
0000
0000
0003
0000
0000
0000
0310
0000
0000
0000
1000
0000
0000
0000
0001
0000
0000
0000
,  // measure 47
0M21
0000
0000
0200
0300
0000
0M31
0000
4002
0000
0000
0000
3003
0000
1000
0000
,  // measure 48
12M0
0000
0000
0020
0030
0000
13M0
0000
2002
0000
0000
0000
0000
0000
0000
0000
,  // measure 49
0000
0000
0000
0000
0000
0000
3003
0000
0000
0000
1000
0000
0010
0100
0000
0100
,  // measure 50
0002
0000
1003
0100
0010
0000
0100
0000
1000
0100
0010
0000
0100
0010
0001
0000
,  // measure 51
1000
001M
0000
0010
0100
M010
0000
0010
100M
0000
1000
0001
1000
0100
1000
0001
,  // measure 52
2000
0000
3200
0000
0310
0200
0300
1000
,  // measure 53
1001
0001
0000
0201
0000
0020
0000
0000
,  // measure 54
0330
0MM0
0200
0300
0101
0001
0000
1000
,  // measure 55
1200
0320
0000
0002
0000
0000
0000
0000
,  // measure 56
0033
00MM
0002
0003
2001
3010
0000
0100
,  // measure 57
0101
0001
0000
1200
0000
0020
0330
0010
,  // measure 58
0012
0000
0000
0000
4003
0000
0000
3000
1020
0000
0000
0230
0000
0000
0002
0000
,  // measure 59
0000
0000
0000
0000
0000
0000
0000
0000
0000
0000
0000
0000
0000
0000
0000
0000
0000
0000
0000
0000
0000
0000
0000
0000
0000
0000
0000
0000
0000
0000
0000
0003
0004
0000
0000
0000
0000
0000
0000
0000
0000
0000
0000
0000
0000
0000
0000
0000
0000
0000
0000
0000
0000
0000
0000
0000
0300
0000
0000
0000
0000
0000
0000
0000
,  // measure 60
1003
0000
0100
0010
0000
0020
0000
0130
1000
0000
2000
0000
3001
0010
0100
1000
,  // measure 61
0000
0000
0000
M00M
0000
0000
0000
0000
0001
0000
1000
0000
0000
0000
1100
0000
0000
0000
MM00
0000
0000
0000
0000
0000
0000
0000
0000
0000
0000
0000
0000
0000
;

//---------------dance-single - Expert----------------
#NOTES:
     dance-single:
     Ace Of Hearts (2014):
     Challenge:
     11:
     0.956,0.352,0.706,1.000,0.859:
0000
0000
0000
0000
,
0002
0000
0023
0000
0230
0000
2300
3000
1001
0MM0
0002
0000
0000
0013
0100
0000
,
0200
0000
0000
0000
2300
0000
0000
0000
3002
0000
0000
0000
0203
0000
0000
0000
0310
1000
0010
1000
0010
1000
0010
1000
0010
0000
0100
0000
0001
0000
0000
0000
,
2001
0000
0000
0000
3100
0000
0010
0000
0001
0000
1000
0000
0020
0000
0000
0000
0130
0000
0000
0000
0001
0000
1000
0000
0000
00MM
0000
0000
1100
0000
0000
0000
,
0200
0000
0310
0001
0010
0100
1000
0000
1002
0000
0103
0010
0000
0000
2010
0000
,
0000
0000
3001
0000
0010
0100
2000
00M0
3001
0100
0020
M000
0130
0002
0M03
1001
,
00M0
1000
0100
0010
0100
1000
0002
00M0
1003
0100
0010
M000
0001
0010
0200
0300
,
1100
0000
1000
0000
0002
0000
0003
0000
0021
0000
0000
0230
0000
0000
1300
0000
,
10M2
0000
M203
0000
032M
0000
2M30
3000
120M
0000
M320
0000
013M
1000
0M00
1000
,
0001
0000
0100
0000
0010
0000
0001
0000
0020
0000
0000
2030
0000
3000
1002
0000
,
0000
0000
0103
0000
0110
0000
0010
0000
1020
0000
0130
0000
0010
1000
MMM1
0000
,
1001
0000
0001
0000
0021
0000
0130
0000
0210
0000
1300
0001
0000
0000
0201
0000
,
0000
0000
0310
0000
1000
0000
0001
0000
1000
0010
0200
00M0
0301
1000
0100
0000
,
0120
0000
0000
0031
1000
0100
0010
0001
0010
0100
1000
0000
0001
0000
0202
0000
,
0003
0000
0310
1000
0001
1000
0010
0000
0210
0000
0301
1000
0100
0000
0220
0000
,
0030
0000
1300
0100
0020
0000
0130
0010
0001
0010
0100
1000
0000
1000
0001
0000
,
1000
0000
0100
0000
0010
0000
0001
0000
0M00
0000
2002
0000
3003
0000
1000
0100
2000
0000
30M0
0000
0001
0100
0001
0000
0M00
0000
1000
0000
0020
0000
0030
0000
,
0210
0000
0301
1000
0100
0000
0010
0000
0001
1000
0010
0000
0100
0000
0001
0000
,
1000
0000
0100
0010
0001
0000
2001
0000
0000
0000
3200
0000
0020
0000
0330
M00M
,
0022
0033
1001
1000
1010
0010
0100
0001
,
1001
0000
2000
0000
0000
0000
3010
0100
0001
0000
1000
0000
0100
0010
0001
0010
,
0200
0000
0000
0300
2100
0000
3001
0100
0010
0000
1000
0000
0001
0000
0010
0000
,
0100
1000
0001
0000
0100
0000
0010
0100
0001
0000
1000
0000
0100
0010
0001
0000
,
2002
0000
3003
0000
2040
0000
0000
3030
0210
0000
0000
0302
0000
0000
1003
0100
,
0010
0000
0100
0000
1000
0000
0001
0000
1000
0000
0010
0000
0100
0000
0010
0000
1000
0000
M00M
0000
0001
0000
0100
0000
0000
0MM0
0000
0000
0010
0000
0100
0000
,
0002
0000
1003
0100
0000
0000
0120
0000
0000
0000
0001
0000
0100
0000
1000
0000
,
0100
0000
0001
0000
0130
0000
1000
0000
0001
0100
0010
0000
0100
0000
0010
0000
,
2010
0000
0000
3001
0010
0000
0210
0000
0000
0000
0001
0000
0010
0000
1000
0000
,
0010
0000
0001
0000
0010
0000
1000
0000
0310
0001
1000
0000
0010
0000
0100
0001
,
2000
0000
3100
0010
0000
0000
0022
0000
0000
0000
0000
0000
0033
0000
0001
0000
,
0202
0000
0000
0000
0300
0000
4000
0000
0000
0000
0000
0000
3003
0000
1000
0100
,
0010
0000
0001
0010
0100
0000
2200
0000
0000
3300
2002
0000
0000
3003
0202
0000
,
0000
0000
2000
0000
0000
0000
3300
0000
0103
0010
1000
0010
0100
0001
0100
0010
,
M100
0000
0001
0000
01M0
0000
200M
0000
0000
0000
32M0
0000
0000
0000
0301
0000
20M1
0000
0000
020M
0000
0000
00M4
0000
0000
0000
0000
0000
3303
0000
0000
0000
,
M220
0000
0300
0000
0M32
0000
1003
0000
202M
0000
3000
0000
M130
0000
0001
0000
20M1
0000
3100
001M
0000
0010
0M01
0000
20M1
0000
3010
010M
0000
0100
00M1
0000
,
2002
0000
0003
0000
3100
0000
0001
0000
0100
1000
0000
2004
0000
3003
0202
0000
,
0300
0000
1003
0000
0100
0000
0010
0000
0100
1000
0000
2004
0000
0000
3003
0000
,
0022
0000
0003
0000
0130
0000
0010
0000
1000
0010
0000
0022
0000
0033
2002
0000
,
0003
0000
0000
0000
3010
0000
0000
0000
0001
0000
0000
0000
0010
0000
0000
0000
1000
0000
0001
0000
0000
0000
0202
0000
0000
0000
0003
0000
0310
1000
0010
1000
,
0020
0000
0000
0000
0130
0000
0001
0000
2000
0000
0000
0000
3001
0000
0010
0000
0100
1000
0100
1000
0100
1000
0100
1000
0001
0100
0001
0100
0001
0100
0001
0100
,
0002
0000
1003
0100
0020
0000
0130
0000
2100
0000
3001
0100
0010
0000
1000
0000
,
1002
0MM0
0103
0010
MM00
0000
2220
0000
0030
0000
3301
0000
1001
0000
1000
0000
,
1200
0000
0310
0001
0000
0001
1000
0000
1020
0000
0130
0001
0000
0001
1000
0000
,
1200
00MM
0310
MM01
0000
0000
0222
0000
0300
0000
0133
0000
11MM
0000
1000
0000
,
2004
0000
0000
3003
0021
0000
0130
1000
0001
0000
0100
0010
0000
0010
1000
0000
,
2002
3000
0103
0010
0000
0000
2022
0000
3000
0000
0133
0000
0002
0000
1003
0000
,
1200
0000
0310
0001
0000
0001
1000
0000
2400
0000
3000
0000
0310
0000
0001
0000
,
2001
0000
3100
0010
0000
0000
0001
0000
0201
0000
0010
0000
1000
0000
0010
0000
,
0301
1000
0001
0100
0010
1000
0000
1000
0002
0000
0013
0100
1000
0100
0010
0001
,
1000
0000
2100
3M01
0010
0000
0012
10M3
0010
1000
0001
0020
0000
0130
1000
0000
,
0001
0100
000M
0100
0010
1000
00M0
1000
0100
M000
0100
0010
0100
1000
0001
0100
,
0020
0000
1030
0000
1002
0000
0013
0000
0100
1000
0001
0000
0100
0000
0010
0000
,
0100
0000
0001
1000
0100
0000
0220
0000
0300
0000
0032
0000
2000
0000
3003
M00M
,
0202
0000
0003
0000
0320
0000
0000
0030
2010
0000
3001
0000
1000
0000
0100
0000
,
0120
0000
0031
0000
1000
0000
0010
0100
0001
0100
0010
0000
1000
0001
0010
0001
,
2000
0000
0000
3000
2002
0000
0000
3000
0103
0010
1000
0000
0001
0000
0010
0000
,
0110
0000
0100
1000
0001
0000
0202
0000
0003
0000
0020
0000
0300
0000
1M3M
0000
,
1200
0000
0310
0001
0010
0100
1000
0001
2000
0000
3001
0100
0000
0000
0210
0000
,
0301
0000
1000
0000
0100
0000
1000
0000
0001
0000
0000
0000
0001
0000
1000
0000
0100
0000
1000
0000
0001
0000
0100
0000
0010
0100
0010
0100
0010
0100
0010
0100
,
0010
M000
0100
0001
00M0
2001
0M00
3100
0010
000M
0012
0M00
1003
0010
0100
00M1
,
0000
0001
1000
0M00
1000
0001
0000
0101
0000
0M0M
0000
0000
0000
0000
0000
0000
;

//---------------dance-single - Medium----------------
#NOTES:
     dance-single:
     Ace Of Hearts (2014):
     Medium:
     7:
     0.452,0.301,0.042,0.996,0.187: // measure 1
0000
0000
0000
0000
,  // measure 2
0002
0023
0230
2300
3001
0002
0003
1000
,  // measure 3
2000
3020
0230
0302
4003
0000
3000
0001
,  // measure 4
0020
0000
0000
0130
0000
0000
2000
0000
3000
0000
0001
0000
0000
0002
0000
0000
,  // measure 5
0003
0000
0000
0000
0000
0000
0000
0000
2000
0000
0000
3020
0000
0000
0230
0000
,  // measure 6
0000
0000
0000
0000
0000
0000
0300
0000
0001
0000
0100
0000
0010
0000
0000
0010
,  // measure 7
0000
1000
0001
1000
0004
0000
0000
0003
,  // measure 8
1000
0000
0100
0000
1000
0000
0000
0000
0002
0000
0000
0203
0000
0000
0301
0000
,  // measure 9
2000
3200
0320
0032
2003
0000
3000
0000
,  // measure 10
0001
0000
0100
0000
0001
0000
0000
0000
2000
0000
0000
3100
0000
0000
0020
0000
,  // measure 11
0000
0130
1000
0100
2000
0000
3000
0000
,  // measure 12
0001
0000
1000
0000
0002
0000
0000
0000
0023
0000
0000
0230
0000
0000
2000
0000
,  // measure 13
0000
0000
0000
0000
3300
0000
0000
1000
,  // measure 14
0002
0000
0000
0013
0000
0000
0200
0000
0000
0000
1300
0000
0001
0000
2000
0000
,  // measure 15
0000
0000
3001
0000
0100
0000
0000
0000
0020
0000
0000
0130
0000
0000
0202
0000
,  // measure 16
0000
0000
0000
0303
,  // measure 17
0001
0000
0000
1000
0000
1000
0000
0400
0000
0000
0000
0000
0000
0000
0000
0000
,  // measure 18
0300
0000
0020
0000
0230
1300
0000
0001
,  // measure 19
0200
0301
0000
2000
0000
0020
0000
0000
,  // measure 20
3030
0000
0010
0100
0010
0100
0000
0001
,  // measure 21
1000
0001
0000
0200
0000
0000
0000
0000
,  // measure 22
0300
0000
0020
0000
2030
3001
0000
0010
,  // measure 23
0100
0010
0000
0200
0000
2000
0000
3300
,  // measure 24
2000
0000
0000
0000
3004
0000
0000
0000
0023
0000
0000
0032
0000
0000
2000
0000
,  // measure 25
0000
0000
0000
0000
0000
0000
0000
0000
0000
0000
0000
3003
0000
0000
0000
0000
,  // measure 26
2000
0000
0000
3020
0000
0000
0200
0000
0000
0000
0000
0000
0000
0000
0000
0000
,  // measure 27
0000
0000
0330
0100
0010
0100
0001
0000
,  // measure 28
2000
0000
0000
3002
0000
0000
0200
0000
0000
0000
0000
0000
0000
0000
0000
0000
,  // measure 29
0000
0000
0000
0000
0303
0000
0001
1000
,  // measure 30
0002
0000
0000
0013
0000
0000
0200
0000
0000
0000
0000
0000
0300
0000
1000
0000
,  // measure 31
0002
0000
0000
0403
0000
0000
0300
0010
,  // measure 32
2000
0000
3001
0200
0000
0310
0000
0200
,  // measure 33
0000
0002
0000
0000
0000
0000
0303
0000
,  // measure 34
0002
0000
0000
0000
1003
0000
0200
0000
0000
0000
0320
0000
0000
0000
0130
0000
2000
0000
0000
3002
0000
0000
4003
0000
0000
0000
0000
0000
3000
0000
0000
0000
,  // measure 35
0002
0000
0000
0000
0203
0000
0000
0000
0320
0000
0000
0000
0230
0000
0000
0000
0302
0000
0000
2003
0000
0000
3100
0000
0020
0000
0000
0230
0000
0000
1300
0000
,  // measure 36
0002
0000
0000
0000
1003
0000
0010
0000
0100
0000
0000
0100
0000
0000
0002
0000
,  // measure 37
0000
0000
1003
0000
0100
0000
0010
0000
0001
0000
0000
0001
0000
0000
0000
0000
,  // measure 38
2000
0000
0000
0000
3010
0000
0100
0000
0010
0000
0000
0010
0000
0000
0200
0000
,  // measure 39
0000
0000
0301
0000
0100
0000
0001
0000
1000
0000
0000
2000
0000
0000
0000
0000
,  // measure 40
0000
0000
3004
0000
0000
1003
0100
1000
,  // measure 41
0002
0000
0000
0000
0023
0000
0000
0000
0230
0000
0000
2300
0000
0000
3001
0000
,  // measure 42
0100
0000
0000
0100
0000
0000
0220
0000
0000
0000
0000
0000
0330
0000
0010
0000
,  // measure 43
1000
0000
0000
4000
0000
0000
3001
0000
0100
0000
0000
0400
0000
0000
0310
0000
,  // measure 44
1000
0000
0000
1000
0000
0000
2002
0000
0000
0000
0000
0000
3003
0000
0000
0000
,  // measure 45
0004
0000
0000
0000
0023
0000
0000
0000
0230
0000
0000
2300
0000
0000
3001
0000
,  // measure 46
0100
0000
0000
0100
0000
0000
0220
0000
0030
0000
0310
0000
1000
0000
0010
0000
,  // measure 47
0200
0000
0000
0302
0000
0000
1003
0000
0400
0000
0000
0000
0300
0000
0010
0000
,  // measure 48
0200
0000
0000
2300
0000
0000
3002
0000
0020
0000
0000
0000
0000
0000
0000
0000
,  // measure 49
0000
0000
0000
0000
0000
0000
0033
0000
0000
0000
0010
0000
0100
1000
0000
1000
,  // measure 50
0002
0000
0000
0200
0000
0000
0000
0303
,  // measure 51
0100
0010
0400
0000
,  // measure 52
0300
0000
0002
0000
2003
3100
0000
0010
,  // measure 53
0200
1300
0000
0002
0000
0020
0000
0000
,  // measure 54
0033
0000
0020
0000
0032
1003
0000
0010
,  // measure 55
2000
3002
0000
0200
0000
0000
0000
0000
,  // measure 56
0303
0000
0200
0000
0320
1030
0000
0001
,  // measure 57
0020
0130
0000
2000
0000
0002
3003
1000
,  // measure 58
0200
0000
0000
0000
0340
0000
0000
0000
0230
0000
0000
2300
0000
0000
0002
0000
,  // measure 59
0000
0000
0000
0000
0000
0000
0000
0000
0000
0000
0000
0000
0000
0000
0000
0000
0000
0000
0000
0000
0000
0000
0000
0000
0000
0000
0000
0000
0000
0000
0000
0003
0004
0000
0000
0000
0000
0000
0000
0000
0000
0000
0000
0000
0000
0000
0000
0000
3000
0000
0000
0000
0000
0000
0000
0000
0000
0000
0000
0000
0000
0000
0000
0000
,  // measure 60
1003
0000
0000
0010
0000
0010
0000
0000
0100
0000
0100
0000
0001
0000
0000
0001
,  // measure 61
0000
0000
0000
0000
1000
0000
0000
1001
0000
0000
0000
0000
0000
0000
0000
0000
;

//---------------dance-single - Easy----------------
#NOTES:
     dance-single:
     Ace Of Hearts (2014):
     Easy:
     5:
     0.254,0.075,0.042,0.507,0.033: // measure 1
0000
0000
0000
0000
,  // measure 2
0001
0001
0001
0000
,  // measure 3
1000
1000
4000
3000
,  // measure 4
0002
0000
0003
0000
0000
0040
0000
0030
,  // measure 5
0000
0000
0000
0000
0100
0000
0000
0200
,  // measure 6
0000
0300
4000
0000
,  // measure 7
3000
0004
0000
0000
0000
0000
0003
0000
,  // measure 8
1000
1000
1000
0000
,  // measure 9
0200
0000
0300
0000
,  // measure 10
0010
0000
0010
0000
0010
0000
0000
0002
,  // measure 11
0000
1003
2000
3000
,  // measure 12
0001
0000
0001
0000
0002
0000
0000
0200
,  // measure 13
0000
0000
0303
0000
,  // measure 14
0100
0000
0000
0200
0000
0000
0000
0320
,  // measure 15
0000
0000
1030
0000
0001
0000
0000
2002
,  // measure 16
0000
0000
0000
3003
,  // measure 17
4000
3000
0040
0000
,  // measure 18
0030
1000
1000
0000
,  // measure 19
0001
0000
0000
0002
0000
0020
0000
0000
,  // measure 20
0033
0001
0001
0000
,  // measure 21
2000
0000
0000
0200
0000
0000
0000
0000
,  // measure 22
3300
1000
1000
0000
,  // measure 23
0002
0000
0000
0023
0000
0200
0000
0330
,  // measure 24
0200
0000
4300
0000
3002
0000
0000
0200
,  // measure 25
0000
0000
0000
0000
0000
0000
0000
0000
0000
0000
0000
0303
0000
0000
0000
0000
,  // measure 26
0100
0000
0000
0220
0000
0000
0000
0000
,  // measure 27
0000
0330
0010
1000
,  // measure 28
0001
0000
0000
2002
0000
0000
0000
0000
,  // measure 29
0000
0000
3003
1000
,  // measure 30
2000
0000
0000
3020
0000
0000
0030
0000
,  // measure 31
0200
0000
0000
0304
0000
0000
0003
0000
,  // measure 32
2000
0000
0000
3001
0000
0010
0000
0002
,  // measure 33
0000
2000
0000
0000
0000
0000
3003
0000
,  // measure 34
1000
0000
0000
2000
0000
3000
0000
0000
0001
0000
0000
0004
0000
0000
0003
0000
,  // measure 35
0100
0100
0010
0010
,  // measure 36
1000
0000
0000
0000
1000
0000
0000
0000
2000
0000
0000
3000
0000
0000
0001
0000
,  // measure 37
0000
0000
0000
0000
0001
0000
0000
0000
0002
0000
0000
0003
0000
0000
0000
0000
,  // measure 38
0010
0000
0000
0000
0010
0000
0000
0000
0020
0000
0000
0030
0000
0000
0100
0000
,  // measure 39
0000
0100
0100
0200
,  // measure 40
0000
0000
0000
0300
0000
0000
1000
0000
,  // measure 41
2000
0000
0000
0000
3002
0000
0000
0000
2003
0000
0000
3000
0000
0000
0000
0000
,  // measure 42
0010
0000
0000
0010
0000
0000
0020
0000
0000
0000
0000
0000
0030
0000
0000
0000
,  // measure 43
2000
0000
0000
3000
0000
0000
0000
0000
0002
0000
0000
0003
0000
0000
0000
0000
,  // measure 44
0100
0000
0000
0100
0000
0000
0200
0000
0000
0000
0000
0000
0300
0000
0000
0000
,  // measure 45
0040
0000
0000
0000
2030
0000
0000
0000
3020
0000
0000
0030
0000
0000
0000
0000
,  // measure 46
0100
0000
0000
0100
0000
0000
0200
0000
0000
0000
0000
0000
0301
0000
0000
0000
,  // measure 47
1000
1000
4000
3000
,  // measure 48
0010
0010
2020
0000
,  // measure 49
0000
0000
0000
3030
0000
0000
1000
0000
,  // measure 50
2000
0000
0000
0002
0000
0000
0000
3003
,  // measure 51
0001
0001
0004
0000
,  // measure 52
0003
1000
1000
0000
,  // measure 53
0001
0001
0000
2000
0000
0020
0000
0000
,  // measure 54
3030
0020
0230
0300
,  // measure 55
0002
0000
0000
2000
0000
0000
0000
0000
,  // measure 56
3003
1000
1000
0000
,  // measure 57
0010
0010
0000
0200
0000
0002
0000
0303
,  // measure 58
0002
0000
4003
0000
3020
0000
0000
0200
,  // measure 59
0000
0030
0304
0000
,  // measure 60
1003
0000
0000
1000
0000
0000
0000
0000
0010
0000
0000
0000
0010
0000
0000
0010
,  // measure 61
0000
0000
0000
0000
0100
0000
0000
0110
0000
0000
0000
0000
0000
0000
0000
0000
;

//---------------dance-single - Novice----------------
#NOTES:
     dance-single:
     Ace Of Hearts (2014):
     Beginner:
     3:
     0.160,0.050,0.058,0.332,0.000: // measure 1
0000
0000
0000
0000
,  // measure 2
2000
0000
3000
0000
,  // measure 3
0002
0000
0003
0000
,  // measure 4
2002
0000
0000
0000
,  // measure 5
3003
0000
0000
0000
1000
0000
0000
2000
,  // measure 6
0000
0000
0000
0000
,  // measure 7
0000
0000
0000
3000
,  // measure 8
0001
0000
0001
0000
,  // measure 9
0002
0000
0003
0000
,  // measure 10
0100
0000
0000
0000
0100
0000
0000
0200
,  // measure 11
0000
0000
0300
0000
,  // measure 12
0001
0000
0000
0000
0001
0000
0000
0002
,  // measure 13
0000
0000
0003
0000
,  // measure 14
1000
0000
0000
1000
0000
0000
0000
2000
,  // measure 15
0000
0000
3000
0000
0001
0000
0000
2002
,  // measure 16
0000
0000
0000
3003
,  // measure 17
0004
0000
0000
0000
,  // measure 18
0003
0000
1000
0000
,  // measure 19
1000
0000
0000
2000
0000
0000
0000
0000
,  // measure 20
3000
0000
0010
0000
,  // measure 21
0010
0000
0000
0020
0000
0000
0000
0000
,  // measure 22
0030
0000
0100
0000
,  // measure 23
0100
0000
0000
0200
0000
0300
0000
0000
,  // measure 24
0001
0000
0000
0000
0001
0000
0000
0002
,  // measure 25
0000
0000
0000
0003
,  // measure 26
1000
0000
0000
2000
0000
0000
0000
0000
,  // measure 27
0000
3000
0100
0000
,  // measure 28
0100
0000
0000
0200
0000
0000
0000
0000
,  // measure 29
0000
0000
0300
0000
,  // measure 30
0010
0000
0000
0020
0000
0000
0030
0000
,  // measure 31
0001
0000
0000
0004
0000
0000
0003
0000
,  // measure 32
1000
0000
0000
1000
0000
0000
0000
2000
,  // measure 33
0000
0000
0000
3000
,  // measure 34
0002
0000
0000
0003
0000
0000
0000
0000
2000
0000
0000
3000
0000
0000
0000
0000
,  // measure 35
0020
0030
0100
0100
,  // measure 36
0100
0000
0000
0000
0100
0000
0000
0001
,  // measure 37
0000
0000
0001
0000
,  // measure 38
1000
0000
0000
0000
1000
0000
0000
0100
,  // measure 39
0000
0000
0200
0000
,  // measure 40
0000
0000
0300
0000
,  // measure 41
1000
0000
1000
0000
,  // measure 42
2002
0000
0000
3003
0000
0000
0000
0000
,  // measure 43
0001
0000
0001
0000
,  // measure 44
0202
0000
0000
0303
0000
0000
0000
0000
,  // measure 45
0100
0000
0100
0000
,  // measure 46
0220
0000
0000
0330
0000
0000
0000
0000
,  // measure 47
0010
0000
0040
0030
,  // measure 48
1000
0000
2020
0000
,  // measure 49
0000
0000
3030
0000
,  // measure 50
2000
0000
3000
2000
0000
0000
0000
0000
,  // measure 51
3004
0000
0000
0000
,  // measure 52
0003
0000
0010
0000
,  // measure 53
0010
0000
0000
0020
0000
0000
0000
0000
,  // measure 54
0030
0000
0001
0000
,  // measure 55
0001
0000
0000
0002
0000
0000
0000
0000
,  // measure 56
0003
0000
1000
0000
,  // measure 57
1000
0000
0000
2000
0000
3000
0000
0000
,  // measure 58
0001
0000
0000
0000
0100
0000
0000
0200
,  // measure 59
0000
0000
0000
0300
,  // measure 60
0004
0000
0003
0002
,  // measure 61
0003
0000
0000
0000
2002
0000
0000
3003
0000
0000
0000
0000
0000
0000
0000
0000
;
