#TITLE:Miracle-Hinacle;
#SUBTITLE:;
#ARTIST:Iosys;
#TITLETRANSLIT:;
#SUBTITLETRANSLIT:;
#ARTISTTRANSLIT:;
#GENRE:J-Pop;
#CREDIT:Ace Of Hearts;
#BANNER:Miracle-Hinacle - bn.png;
#BACKGROUND:Miracle-Hinacle - bg.png;
#LYRICSPATH:;
#CDTITLE:Ace Of Hearts.png;
#MUSIC:Miracle-Hinacle.ogg;
#OFFSET:0.880;
#SAMPLESTART:37.400;
#SAMPLELENGTH:12.000;
#SELECTABLE:YES;
#BPMS:0.000=160.000;
#STOPS:;
#BGCHANGES:1.000=Miracle-Hinacle Video.avi=1.000=1=0=1===CrossFade==,
99999=-nosongbg-=1.000=0=0=0 // don't automatically add -songbackground-
;
#FGCHANGES:;
#KEYSOUNDS:;

//---------------dance-single - Expert----------------
#NOTES:
     dance-single:
     Ace Of Hearts (2014):
     Challenge:
     9:
     0.754,0.353,0.154,1.000,0.241: // measure 1
0000
0000
0000
0000
,  // measure 2
0001
0000
0010
0000
0001
0000
1000
0000
0001
1000
0001
0000
1000
0100
0010
0100
,  // measure 3
2000
0000
0000
0000
3001
0000
0100
0000
0001
0000
0000
1000
0000
0000
1100
0000
,  // measure 4
0000
0100
0010
0100
1000
0000
0001
0000
,  // measure 5
0201
0000
0320
0230
0320
0230
0300
0002
,  // measure 6
0000
0000
2003
0000
3020
0000
0230
0000
0320
0000
0030
0000
2000
0000
3001
0010
,  // measure 7
0002
0000
0000
0000
1003
0000
0010
0000
1000
0000
0000
0001
0000
0000
0011
0000
,  // measure 8
0000
0010
0100
0010
0001
0000
1000
0000
,  // measure 9
1010
0000
0010
0000
0020
0000
0230
0000
0302
0000
2003
0000
3001
0010
0100
0010
,  // measure 10
0001
0000
1000
0000
0010
0000
1000
0000
0001
0000
0010
0000
0100
1000
0100
0000
,  // measure 11
0010
0000
0000
0002
0000
0000
1003
0000
0010
0000
2000
0000
0000
0000
3002
0000
,  // measure 12
0000
0000
1003
0000
0100
0000
0010
0000
0002
0000
0000
0023
0000
0000
0130
0000
,  // measure 13
1000
0001
1000
0010
1000
0002
0000
0203
,  // measure 14
0000
0000
0310
0000
0200
0000
0302
0000
0203
0000
0300
0000
0001
1000
0001
0000
,  // measure 15
0010
0200
0000
0310
0001
0020
0000
0230
,  // measure 16
0000
0000
1300
0000
0002
0000
0000
0000
0203
0000
0000
0320
0000
0000
1030
0000
,  // measure 17
0001
0000
0020
0000
0000
0000
0031
0000
1000
0000
0002
0000
0000
0003
2001
0000
,  // measure 18
0000
0000
0000
3010
0000
0000
1000
0000
0000
0020
0000
0000
0000
0000
0000
0030
0000
0000
1000
0010
0100
0001
0000
0000
,  // measure 19
2001
0000
0000
0000
3100
0010
0001
0020
,  // measure 20
0000
0000
0000
0030
0000
0000
0002
0000
,  // measure 21
2003
0000
0000
0000
3001
0100
0010
0200
,  // measure 22
0000
0000
0301
0000
1000
0000
0100
0000
1000
0000
0001
0000
0100
0000
0001
1000
,  // measure 23
0002
0000
0000
0000
0000
0000
0000
0023
,  // measure 24
0000
0000
0000
0000
0000
0000
0000
0000
0030
0000
0000
0000
0200
0000
0000
0300
,  // measure 25
2100
0000
0000
0000
0001
0000
0000
0000
0001
0000
0000
0000
3001
0010
0001
0000
,  // measure 26
1000
0100
0010
0001
1000
0100
0010
0001
1000
0000
0010
0000
1000
0000
0001
0000
,  // measure 27
0021
0000
0000
0000
0000
0000
0130
0000
2000
0000
0000
3002
0000
0000
0103
0000
,  // measure 28
0010
0000
0200
0302
0203
0301
1000
0100
,  // measure 29
0020
0000
0000
0000
0000
0000
0130
0000
2000
0000
0000
3200
0000
0000
0310
0000
,  // measure 30
0001
0000
0000
0000
0020
0000
0230
0000
0320
0000
0130
0000
1000
0000
0001
0100
,  // measure 31
0002
0000
0000
0000
0003
0000
1000
0010
,  // measure 32
0100
0001
0100
0010
2000
3000
0001
0010
,  // measure 33
0002
0000
0000
0000
0003
1000
0100
0020
,  // measure 34
0000
0000
0000
0000
0000
0000
0031
1000
0001
0000
1000
0000
0010
0100
0010
0000
,  // measure 35
2010
0000
0000
0000
0000
0000
3001
0000
0020
0000
0000
0230
0000
0000
1300
0000
,  // measure 36
0001
0000
2000
3200
2300
3100
0010
0001
,  // measure 37
2000
0000
0000
0000
0000
0000
3001
0000
0200
0000
0000
0320
0000
0000
1030
0000
,  // measure 38
0001
0000
0000
0000
2000
0000
3020
0000
2030
0000
3010
0000
0100
0000
0001
1000
,  // measure 39
0002
0000
0000
0000
0003
0000
1000
0100
,  // measure 40
0010
0001
0010
0100
2000
3000
0001
0010
,  // measure 41
0200
0000
0000
0000
0300
1000
0001
0020
,  // measure 42
0000
0000
0000
0000
0000
0000
0031
1000
0001
0000
0100
0000
0010
0100
0010
0000
,  // measure 43
1010
0000
0000
0000
1000
0000
0001
0000
1000
0000
0000
0100
0000
0000
0110
0000
,  // measure 44
0000
0010
0001
0010
0100
0000
1000
0000
,  // measure 45
1001
0000
0002
0023
0230
2300
3000
0002
,  // measure 46
0000
0000
2003
0000
3020
0000
0230
0000
0302
0000
0003
0000
2000
0000
3001
0010
,  // measure 47
0002
0000
0000
0000
1003
0000
0010
0000
1000
0000
0000
0001
0000
0000
0011
0000
,  // measure 48
0000
0010
0100
0010
0001
0000
1000
0000
,  // measure 49
1100
0000
0100
0000
0020
0000
0032
0000
0023
0000
0130
0000
1000
0100
0010
0100
,  // measure 50
1000
0000
0001
0000
1000
0000
0010
0000
0100
0000
0001
0000
1000
0010
0100
0010
,  // measure 51
1000
0001
0010
0001
1000
0020
0000
0230
,  // measure 52
0000
0000
0301
0000
2000
0000
0000
0000
3200
0000
0000
0320
0000
0000
0031
0000
,  // measure 53
1000
0100
1000
0001
0100
0002
0000
2003
,  // measure 54
0000
0000
3020
0000
0230
0000
0320
0000
2030
0000
0000
0000
3001
0010
0100
0010
,  // measure 55
0001
2000
0000
3001
0010
0002
0000
0023
,  // measure 56
0000
0000
0130
0000
0010
0000
0001
0000
0020
0000
0000
0230
0000
0000
1300
0000
,  // measure 57
0001
2000
0000
3001
0100
0002
0000
0203
,  // measure 58
0000
0000
0000
0310
0000
0000
1000
0000
0000
0002
0000
0000
0000
0000
0000
1003
0000
0000
0001
0010
0100
1000
0000
0000
,  // measure 59
1002
0000
0000
0000
1003
0010
0100
0002
,  // measure 60
0000
0000
0003
2000
,  // measure 61
3200
0000
0000
0000
0310
0001
0010
0200
,  // measure 62
0000
0000
1300
0000
0100
0000
0010
0000
0001
0000
0010
0000
0100
0000
1000
0100
,  // measure 63
2000
0000
0000
0000
0000
0000
0000
3002
,  // measure 64
0000
0000
0000
0000
0003
0000
2000
3000
,  // measure 65
1020
0000
0000
0000
1000
0000
0000
0000
1000
0000
0000
0000
1030
0001
1000
0000
,  // measure 66
0001
0100
0010
1000
0001
0100
0010
1000
0001
0000
1000
0000
0100
0000
1000
0000
,  // measure 67
1002
0000
0000
0000
0000
0000
0013
0000
0200
0000
0000
2300
0000
0000
3001
0000
,  // measure 68
1000
0000
0002
0023
0230
2300
3001
0100
,  // measure 69
0002
0000
0000
0000
0000
0000
1003
0000
0200
0000
0000
2300
0000
0000
3001
0000
,  // measure 70
1000
0000
0000
0000
0002
0000
0023
0000
0230
0000
2300
0000
3001
0000
0010
0001
,  // measure 71
0020
0000
0000
0000
0030
0000
0001
1000
,  // measure 72
0010
0100
0010
1000
0002
0000
1003
0010
,  // measure 73
0200
0000
0000
0000
0300
0001
1000
0020
,  // measure 74
0000
0000
0000
0000
0000
0000
1030
0001
1000
0000
0001
0000
0010
0100
0010
0000
,  // measure 75
0012
0000
0000
0000
0000
0000
1003
0000
0020
0000
0000
0230
0000
0000
0301
0000
,  // measure 76
1000
0000
0002
0203
0320
2030
3001
0010
,  // measure 77
0200
0000
0000
0000
0000
0000
0310
0000
0002
0000
0000
2003
0000
0000
3010
0000
,  // measure 78
0100
0000
0000
0000
0002
0000
0203
0000
0320
0000
2030
0000
3001
0000
0100
0010
,  // measure 79
0200
0000
0000
0000
0300
0000
0001
1000
,  // measure 80
0010
1000
0001
1000
0020
0000
1030
0001
,  // measure 81
0200
0000
0000
0000
0300
0001
1000
0020
,  // measure 82
0000
0000
0000
0000
0000
0000
1030
0001
1000
0000
0100
0000
0010
0001
0010
0000
,  // measure 83
0210
0000
0000
0000
1300
0000
0001
0000
1000
0000
0000
0010
0000
0000
0110
0000
,  // measure 84
0000
0200
0302
2003
3200
2300
3002
0203
,  // measure 85
0010
0000
0302
2003
3020
2030
3000
0002
,  // measure 86
0000
0000
2003
0000
3200
0000
0320
0000
0032
0000
1003
0000
0100
0000
0010
0100
,  // measure 87
0020
0000
0000
0000
0031
0000
1000
0000
0001
0000
0000
0100
0000
0000
0110
0000
,  // measure 88
0000
0200
0320
0230
0302
2003
3002
0023
,  // measure 89
0130
0000
1000
0000
1000
0000
0001
0000
0100
0000
0010
0000
1000
0010
0100
0010
,  // measure 90
1000
0000
0001
0000
0010
0000
0100
0000
0010
0000
0001
0000
1000
0001
1000
0001
,  // measure 91
0020
0000
0000
0000
,  // measure 92
0000
0000
0000
0000
0000
0000
0000
0000
0000
0000
0000
0000
0031
1000
0000
1001
;

//---------------dance-single - Hard----------------
#NOTES:
     dance-single:
     Ace Of Hearts (2014):
     Hard:
     7:
     0.604,0.000,0.000,1.000,0.070:
0000
0000
0000
0000
,
0000
0000
0000
0000
,
2000
0000
0000
0000
3001
0000
0010
0000
0001
0000
0000
1000
0000
0000
0100
0000
,
0000
1000
0001
1000
0001
0000
0010
0000
,
0100
0000
0020
0032
0023
0032
0003
2000
,
0000
3002
0203
0302
0203
0300
0020
0000
,
0230
0000
0000
0000
0301
0000
1000
0000
0001
0000
0000
0010
0000
0000
0100
0000
,
0000
0010
0001
0010
0100
0000
1000
0000
,
0001
0000
2000
3020
2030
3020
0030
0200
,
0300
0001
0100
0001
1000
0001
1000
0000
,
0001
0000
0000
0020
0000
0000
0031
0000
1000
0000
0002
0000
0000
0000
0203
0000
,
0000
0000
0310
0000
0100
0000
0010
0000
2000
0000
0000
3002
0000
0000
1003
0000
,
0100
1000
0100
0010
0001
0020
0000
0230
,
0000
1300
0001
1000
0002
0003
0000
0000
,
1000
0001
1000
0001
1000
0020
0000
0230
,
0000
0000
0301
0000
2000
0000
0000
0000
3002
0000
0000
0023
0000
0000
0031
0000
,
1000
0002
0000
1003
0010
2000
0000
3002
,
0000
0013
0100
0020
0000
0030
0004
0000
,
2003
0000
0000
0000
3010
0100
0010
0200
,
0000
0000
0000
0300
0000
0000
0002
0000
,
2003
0000
0000
0000
3100
0010
0100
0020
,
0000
0000
0030
0002
,
2003
0000
0000
0000
0000
0000
0000
3200
,
0000
0000
0300
0020
,
0230
0000
0300
2000
,
3002
0000
0003
0000
1000
0010
1000
0010
,
0200
0000
0000
0000
0000
0000
0301
0000
2000
0000
0000
3002
0000
0000
0013
0000
,
0100
0000
2000
3200
0320
0032
1003
0001
,
2000
0000
0000
0000
0000
0000
3001
0000
0200
0000
0000
0302
0000
0000
1003
0000
,
0001
0000
2000
3200
0320
0032
1003
0010
,
2000
0000
0000
0000
3000
0000
0001
0010
,
0100
0010
0100
1000
0200
0300
1000
0001
,
2000
0000
0000
0000
3000
0010
0100
0020
,
0000
0000
0000
0030
,
2000
0000
0000
0000
0000
0000
3001
0000
0200
0000
0000
0302
0000
0000
1003
0000
,
0100
0000
2000
3200
0320
0032
1003
0001
,
2000
0000
0000
0000
0000
0000
3001
0000
0200
0000
0000
0302
0000
0000
1003
0000
,
0100
0000
2000
3200
0320
0032
1003
0001
,
2000
0000
0000
0000
3000
0000
0001
0010
,
0100
1000
0100
1000
0002
0003
0100
0010
,
0200
0000
0000
0000
0300
0001
0100
0002
,
0000
0000
0000
0003
,
0200
0000
0000
0000
0310
0000
0100
0000
0010
0000
0000
1000
0000
0000
0001
0000
,
0000
0010
0001
0010
0001
0000
1000
0000
,
0001
0000
2000
3020
2030
3020
0030
0200
,
0000
0302
2003
3002
2003
3000
0200
0000
,
0320
0000
0000
0000
0130
0000
1000
0000
0100
0000
0000
0010
0000
0000
0001
0000
,
0000
1000
0010
1000
0010
0000
0100
0000
,
0001
0000
2000
3200
2300
3200
0300
0020
,
0000
0031
0010
0001
1000
0001
1000
0000
,
0010
1000
0010
1000
0001
0200
0000
0320
,
0000
0000
1030
0000
0002
0000
0000
0000
2003
0000
0000
3200
0000
0000
1300
0000
,
0001
1000
0001
1000
0100
2000
0000
3002
,
0000
0013
0100
0010
0200
0000
0300
0000
,
1000
0002
0000
0013
0100
0020
0000
0032
,
0000
0000
1003
0000
0010
0000
1000
0000
0020
0000
0000
0230
0000
0000
0301
0000
,
0100
0002
0000
1003
0100
2000
0000
3002
,
0000
0103
0010
0200
0000
0000
0304
0000
,
2003
0000
0000
0000
3100
0010
0100
0020
,
0000
0000
0030
0002
,
2003
0000
0000
0000
3010
0100
0010
0200
,
0000
0000
0300
0002
,
2003
0000
0000
0000
0000
0000
0000
3200
,
0000
0000
0300
0020
,
0032
0000
0000
2003
,
3020
0000
0030
0000
1000
0010
0100
0010
,
0200
0000
0000
0000
0000
0000
0301
0000
2000
0000
0000
3002
0000
0000
0013
0000
,
0100
0000
0020
0230
0320
0230
1300
0001
,
2000
0000
0000
0000
0000
0000
3001
0000
0200
0000
0000
0320
0000
0000
0130
0000
,
0001
0000
2000
3002
2003
3002
0013
0100
,
0020
0000
0000
0000
0030
0000
0001
1000
,
0010
1000
0010
1000
0002
0000
0103
0010
,
0200
0000
0000
0000
0300
0001
1000
0002
,
0000
0000
0003
0000
,
2000
0000
0000
0000
0000
0000
3100
0000
0020
0000
0000
0230
0000
0000
1300
0000
,
0001
0000
2000
3002
2003
3002
0103
0010
,
0200
0000
0000
0000
0000
0000
0301
0000
2000
0000
0000
3200
0000
0000
1300
0000
,
0001
0000
0200
0320
0230
0320
1030
0001
,
2000
0000
0000
0000
3000
0000
0001
0010
,
0100
1000
0100
0010
0002
0000
1003
0010
,
2000
0000
0000
0000
3000
0001
1000
0002
,
0000
0000
0000
0003
,
0200
0000
0000
0000
0310
0000
1000
0000
0010
0000
0000
0100
0000
0000
0001
0000
,
0000
1000
0001
1000
0100
0000
0010
0000
,
0100
0000
0020
0032
0023
0032
0003
2000
,
3000
0002
0203
0302
0203
0300
0020
0000
,
2030
0000
0000
0000
3001
0000
0010
0000
0001
0000
0000
1000
0000
0000
0100
0000
,
0000
0010
0100
0010
0001
0000
1000
0000
,
0100
0000
0020
0230
0320
0230
0300
2000
,
0000
3001
0100
0001
1000
0010
1000
0000
,
0020
0000
0000
0000
,
0000
0000
0000
0000
0000
0000
0000
0000
0000
0000
0000
0000
0130
0000
0000
0001
;

//---------------dance-single - Medium----------------
#NOTES:
     dance-single:
     Ace Of Hearts (2014):
     Medium:
     5:
     0.341,0.000,0.000,0.509,0.021:
0000
0000
0000
0000
,
0000
0000
0000
0000
,
0002
0000
0000
0000
0000
0000
0000
0000
1003
0000
0000
0100
0000
0000
1000
0000
,
0000
0000
0001
0100
,
0001
0000
4000
0000
0000
0000
3000
0100
,
0000
0400
0000
0000
0000
0000
0300
0000
,
0020
0000
0000
0000
0000
0000
0000
0000
0031
0000
0000
0010
0000
0000
0001
0000
,
0000
0000
1000
0001
,
1000
0004
0000
0000
,
0003
0000
0000
0000
,
1000
0020
0000
0000
2030
0000
0000
3002
,
0000
0023
0031
1000
,
0002
0000
1003
0000
0020
0000
0000
0230
,
0000
0000
0301
0100
0002
0000
0003
0000
,
0100
0000
0001
0000
0200
0000
0000
0320
,
0000
1030
0001
1000
,
0002
0000
0000
0000
2003
0000
0000
3200
,
0000
0000
0310
0002
0000
0000
0003
0000
,
2000
0000
0000
0000
3001
0000
1000
0200
,
0000
0000
0300
0020
,
0230
0000
0000
0000
2300
0000
3001
0200
,
0000
0000
0300
0020
,
0230
0000
0000
0000
0000
0000
0000
0302
,
0000
0000
0003
1000
,
0200
0000
0300
1000
,
0002
0000
0003
0000
1000
0100
1000
0000
,
0002
0000
0000
1003
0010
0000
0100
0000
,
0010
0000
1000
0001
1000
0000
0001
0000
,
0020
0000
0000
0031
2000
0000
3002
0000
,
1003
0000
0010
0100
0010
0000
1000
0001
,
2000
0000
0000
0000
3000
0000
0001
0010
,
0001
0000
1000
0000
0100
0000
0010
0100
,
0020
0000
0000
0000
0030
0001
1000
0002
,
0000
0000
0000
0003
,
2000
0000
0000
3001
0010
0000
0001
0000
,
1000
0000
0010
0100
0010
0000
1000
0000
,
0002
0000
0000
1003
0100
0000
0010
0000
,
0100
0000
1000
0001
1000
0000
0001
0000
,
0200
0000
0300
0001
,
1000
0000
0001
0010
0001
0000
1000
0100
,
2000
0000
0000
0000
3000
0001
1000
0002
,
0000
0000
0000
0003
,
2000
0000
0000
0000
0000
0000
0000
0000
3001
0000
0000
0100
0000
0000
0001
0000
,
0000
0000
1000
0001
,
1000
0000
0040
0000
0000
0000
0030
0400
,
0000
0000
0000
0300
,
0002
0000
0000
0000
0000
0000
0000
0000
1003
0000
0000
0010
0000
0000
1000
0000
,
0000
0000
0001
1000
,
0001
0040
0000
0000
,
0030
0000
0000
0000
,
0001
0000
0010
0000
0001
0000
0000
2000
,
0000
3001
0100
0001
,
1000
0000
0001
0000
2000
0000
0000
3002
,
0000
0000
0103
0010
0100
0000
0000
0000
,
0002
0000
0000
0000
2003
0000
0000
3200
,
0000
0310
0001
0010
,
0002
0000
0000
0000
2003
0000
0000
3020
,
0000
1030
0001
2000
0000
3000
0000
0000
,
0002
0000
0000
0000
1003
0000
0001
0020
,
0000
0000
0030
0001
,
2000
0000
0000
0000
3001
0000
1000
0200
,
0000
0000
0300
0010
,
0002
0000
0000
0000
0000
0000
0000
2003
,
0000
0000
3000
0001
,
0200
0000
0000
0301
,
2000
0000
3000
0000
0001
0010
0001
0000
,
2000
0000
0000
3001
0100
0000
0001
0000
,
1000
0000
0001
0010
0001
0000
1000
0000
,
0002
0000
0000
1003
0100
0000
0010
0000
,
0001
0000
1000
0010
1000
0000
0001
0100
,
0002
0000
0000
0000
0003
0000
1000
0010
,
1000
0000
0001
0000
1000
0000
0001
0100
,
0002
0000
0000
0000
0003
1000
0100
2000
,
0000
0000
3000
0000
,
0002
0000
0000
1003
0010
0000
1000
0000
,
0001
0000
0010
0100
0010
0000
0001
0000
,
2000
0000
0000
3001
0100
0000
0001
0000
,
1000
0000
0100
0010
0100
0000
1000
0000
,
0002
0000
0000
0000
0003
0000
1000
0100
,
1000
0000
0001
0000
0100
0000
0010
0100
,
0020
0000
0000
0000
0030
1000
0001
2000
,
0000
0000
0000
3000
,
0002
0000
0000
0000
0000
0000
0000
0000
1003
0000
0000
0100
0000
0000
1000
0000
,
0000
0000
0001
1000
,
0001
0040
0000
0000
,
0030
0400
0000
0000
0000
0000
0300
0000
,
2000
0000
0000
0000
0000
0000
0000
0000
3001
0000
0000
0100
0000
0000
0001
0000
,
0000
0000
1000
0001
,
1000
0400
0000
0000
,
0300
1000
0001
1000
,
0020
0000
0000
0000
,
0000
0000
0000
2030
,
3000
0000
0000
0000
;

//---------------dance-single - Easy----------------
#NOTES:
     dance-single:
     Ace Of Hearts (2014):
     Easy:
     3:
     0.225,0.000,0.000,0.349,0.000:
0000
0000
0000
0000
,
0000
0000
0000
0000
,
1000
0000
1000
0000
,
1000
0000
0001
0000
,
0001
0000
0002
0000
,
0003
0000
0000
0000
,
0010
0000
0010
0000
,
0010
0000
0100
0000
,
0100
0000
0200
0000
,
0300
0000
0000
0000
,
1000
0000
1000
0000
,
0001
0001
0001
0000
,
0010
0000
0010
0000
,
0100
0100
0100
0000
,
1000
0000
1000
0000
,
0001
0001
0001
0000
,
0100
0000
0100
0000
,
0001
0000
0001
0000
,
2000
0000
3001
0001
,
0002
0000
0003
0000
,
0020
0000
0130
0100
,
0200
0000
0300
0000
,
2000
0000
0000
0000
,
3002
0000
0003
0100
,
0200
0000
0300
0001
,
0001
0000
1000
1000
,
2000
0000
3002
0000
,
0103
0100
0100
0000
,
0002
0000
2003
0000
,
3100
0100
0100
0000
,
0020
0000
0030
0000
,
0001
0001
0001
0000
,
2000
0000
3000
0001
,
0002
0000
0000
0003
,
2000
0000
3200
0000
,
0310
0010
0010
0000
,
0002
0000
2003
0000
,
3010
0010
0010
0000
,
2000
0000
3000
0000
,
0001
0001
0001
0000
,
0020
0000
0030
0100
,
0200
0000
0000
0300
,
0010
0000
0010
0000
,
0010
0000
0001
0000
,
0001
0000
0002
0000
,
0003
0000
0000
0000
,
1000
0000
1000
0000
,
1000
0000
0010
0000
,
0010
0000
0020
0000
,
0030
0000
0000
0000
,
0100
0100
0100
0000
,
0001
0000
0001
0000
,
1000
0000
1000
0000
,
0100
0100
0100
0000
,
0010
0000
0010
0000
,
0001
0000
0001
0000
,
1000
0000
1000
0000
,
0010
0010
0010
0000
,
0200
0000
0301
0000
,
0002
0000
0003
1000
,
2000
0000
3100
0000
,
0200
0000
0300
0010
,
0020
0000
0000
0000
,
0032
0000
0003
1000
,
2000
0000
0000
3010
,
0020
0000
1030
1000
,
2000
0000
3002
0000
,
0013
0010
0010
0000
,
0002
0000
2003
0000
,
3100
0100
0100
0000
,
0020
0000
0030
0000
,
0001
0001
0001
0000
,
2000
0000
3000
0001
,
0002
0000
0003
0000
,
0200
0000
0320
0000
,
1030
1000
1000
0000
,
0020
0000
0230
0000
,
0301
0001
0001
0000
,
2000
0000
3000
0000
,
0100
0100
0100
0000
,
2000
0000
3000
0001
,
0002
0000
0003
0000
,
0100
0000
0100
0000
,
0100
0000
0010
0000
,
0010
0000
0020
0000
,
0030
0000
0000
0000
,
1000
0000
1000
0000
,
1000
0000
0001
0000
,
0001
0000
0002
0000
,
0003
0000
1000
0000
,
0020
0000
0000
0000
,
0000
0000
0000
0030
;

//---------------dance-single - Novice----------------
#NOTES:
     dance-single:
     Ace Of Hearts (2014):
     Beginner:
     1:
     0.131,0.000,0.000,0.272,0.000:
0000
0000
0000
0000
,
0000
0000
0000
0000
,
0001
0000
0000
0000
,
0001
0000
0000
0000
,
0002
0000
0000
0000
,
0003
0000
0000
0000
,
1000
0000
0000
0000
,
1000
0000
0000
0000
,
2000
0000
0000
0000
,
3000
0000
0000
0000
,
0010
0000
0000
0000
,
0010
0000
0000
0000
,
0010
0000
0000
0000
,
0020
0000
0030
0000
,
1000
0000
0000
0000
,
1000
0000
0000
0000
,
1000
0000
0000
0000
,
2000
0000
3000
0000
,
0002
0000
0003
0000
,
0002
0000
0003
0000
,
0200
0000
0300
0000
,
0200
0000
0300
0000
,
0020
0000
0030
0000
,
0020
0000
0030
0000
,
2000
0000
3000
0000
,
2000
0000
3000
0000
,
0001
0000
0001
0000
,
0001
0000
0000
0000
,
1000
0000
1000
0000
,
1000
0000
0000
0000
,
0020
0000
0030
0000
,
0100
0000
0000
0000
,
0002
0000
0003
0000
,
0002
0000
0003
0000
,
0100
0000
0100
0000
,
0100
0000
0000
0000
,
0010
0000
0010
0000
,
0010
0000
0000
0000
,
2000
0000
3000
0000
,
0001
0000
0000
0000
,
0020
0000
0030
0000
,
0020
0000
0030
0000
,
0100
0000
0000
0000
,
0100
0000
0000
0000
,
0200
0000
0000
0000
,
0300
0000
0000
0000
,
0010
0000
0000
0000
,
0010
0000
0000
0000
,
0020
0000
0000
0000
,
0030
0000
0000
0000
,
0001
0000
0000
0000
,
0001
0000
0000
0000
,
0001
0000
0000
0000
,
0002
0000
0003
0000
,
0100
0000
0000
0000
,
0100
0000
0000
0000
,
0100
0000
0000
0000
,
0200
0000
0300
0000
,
0020
0000
0030
0000
,
0020
0000
0030
0000
,
2000
0000
3000
0000
,
2000
0000
3000
0000
,
0002
0000
0003
0000
,
0002
0000
0003
0000
,
0020
0000
0030
0000
,
0020
0000
0030
0000
,
0001
0000
0001
0000
,
0001
0000
0000
0000
,
1000
0000
1000
0000
,
1000
0000
0000
0000
,
0020
0000
0030
0000
,
0100
0000
0000
0000
,
0002
0000
0003
0000
,
0002
0000
0003
0000
,
0100
0000
0100
0000
,
0100
0000
0000
0000
,
0010
0000
0010
0000
,
0010
0000
0000
0000
,
2000
0000
3000
0000
,
0001
0000
0000
0000
,
0020
0000
0030
0000
,
0020
0000
0030
0000
,
0001
0000
0000
0000
,
0001
0000
0000
0000
,
0002
0000
0000
0000
,
0003
0000
0000
0000
,
1000
0000
0000
0000
,
1000
0000
0000
0000
,
2000
0000
0000
0000
,
3000
0000
0001
0000
,
0020
0000
0000
0000
,
0000
0000
0000
0030
;
