#TITLE:Mermaid Girl;
#SUBTITLE:;
#ARTIST:Cream Puff;
#TITLETRANSLIT:;
#SUBTITLETRANSLIT:;
#ARTISTTRANSLIT:;
#GENRE:Bubblegum J-Pop;
#CREDIT:Ace Of Hearts;
#BANNER:Mermaid Girl - Bn.png;
#BACKGROUND:Mermaid Girl - Bg.jpg;
#LYRICSPATH:;
#CDTITLE:Ace Of Hearts.png;
#MUSIC:Mermaid Girl.ogg;
#OFFSET:1.600;
#SAMPLESTART:60.100;
#SAMPLELENGTH:12.000;
#SELECTABLE:YES;
#BPMS:0.000=140.000,181.000=70.000,183.000=140.000,187.000=70.000,189.000=140.000,337.000=70.000,345.000=140.000;
#STOPS:;
#BGCHANGES:;
#KEYSOUNDS:;

//---------------dance-single - Expert----------------
#NOTES:
     dance-single:
     Ace Of Hearts (2014):
     Challenge:
     10:
     0.702,0.307,0.519,0.983,0.177:
0000
0000
0000
0000
,
0000
0000
0000
0000
,
0000
0000
0000
0000
,
0002
0000
0013
0000
0200
0000
1300
0002
0000
0000
1003
0000
0010
0000
0100
0000
,
0002
0000
1003
0100
0010
0001
0010
0100
,
2000
0000
0000
0000
3001
0000
0010
0100
0000
0100
0010
0000
0001
0000
1000
0000
,
0200
0300
1000
0100
0010
0100
2000
0000
,
3001
0000
0100
0000
0020
0000
1030
0002
0000
0000
0013
0000
0100
0000
1000
0000
,
0002
0000
1003
0010
0100
0001
0100
0010
,
2000
0000
0000
0000
3001
0000
0100
0010
0000
0010
0100
0000
0001
0000
1000
0000
,
0200
0000
0000
0000
0310
0000
0001
1000
0000
1000
0001
0000
0100
0000
0010
0000
,
2000
3001
0011
0010
0100
1000
1001
0001
,
0200
0000
0000
0300
0110
0000
0010
0000
1000
0000
0001
0000
0011
0000
0010
0000
,
0200
0000
0000
0300
1100
0000
1000
0001
0000
0001
0010
0000
0110
0000
0100
0000
,
2000
0000
0000
3000
1001
0000
0001
0000
0100
0000
0010
0000
2010
0000
0000
0000
,
3001
0010
0110
0100
1000
0001
0101
0100
,
0020
0000
0000
0030
1010
0000
1000
0000
0001
0000
0010
0000
0110
0000
0100
0000
,
2000
0000
0000
3000
1001
0000
0001
0100
0000
0100
0010
0000
1010
0000
1000
0000
,
0002
0000
0000
0003
0011
0000
0010
0100
0000
0100
1000
0000
1001
0000
0001
0000
,
0020
0000
0000
0000
0430
0000
0000
0300
0400
0000
0000
0000
0300
0000
0000
0000
,
1000
0001
0020
0000
0230
0000
2300
0000
,
3001
1000
0010
0100
0010
1000
0000
0000
,
0001
0010
0200
0000
2300
0000
3002
0000
,
1003
0010
2000
0000
3002
0203
0300
0000
,
0010
1000
0002
0000
2003
0000
3002
0000
,
0200
0000
1000
0000
0010
0000
1000
0303
,
0100
0010
2000
0000
3002
0000
0023
0000
,
0031
0010
0100
0010
0002
2003
0000
3000
,
0000
0000
0000
0001
0100
0010
0100
0001
,
2000
0000
3000
0001
0010
0200
0000
0300
,
0000
0010
0002
0000
2003
0000
3002
0000
,
0200
2000
0000
0000
,
3303
0000
0000
0100
0010
1000
0010
0100
,
0001
1000
0200
0000
0320
0000
0230
0000
,
0300
1000
0002
0000
2003
0000
3020
0000
,
0230
0000
0000
0300
0202
0300
0000
0000
2000
3000
0000
0000
0203
0000
0000
0000
,
0310
0000
1000
0000
1002
0000
0013
0200
0000
0000
1300
0000
1001
0000
0001
0000
,
0202
0003
0310
1000
0001
0010
0001
1000
,
0200
0000
0000
0300
0110
0000
0010
0001
0000
0001
1000
0000
1010
0000
0010
0000
,
0210
0000
0301
0100
1000
0100
0002
0000
,
1003
0000
0100
0000
0120
0000
0031
2000
0000
0000
3100
0000
0110
0000
0010
0000
,
0022
0030
1003
0010
0100
0010
0001
0010
,
2000
0000
0000
3000
1001
0000
0001
0100
0000
0100
0010
0000
1010
0000
1000
0000
,
0002
0000
0000
0003
1001
0000
1000
0100
0000
0100
0010
0000
0011
0000
0001
0000
,
2000
3010
0110
0100
0001
1000
1100
0100
,
0020
0000
0000
0000
0000
0000
0000
0000
0031
0000
0001
0000
1000
0000
0010
0000
0100
0000
0010
0000
2000
0000
0000
3000
1001
0000
0000
0000
0001
0000
0100
0000
,
0000
0100
0010
0000
1010
0000
1000
0000
0002
0000
0000
0000
2003
3200
0320
0230
,
2300
0000
3002
0003
0002
0003
0000
0000
1001
0000
0000
0000
1000
0000
0000
0000
0010
0000
0000
0000
0100
0000
0000
0000
0101
0000
0000
0000
0001
0000
0000
0000
,
2000
0000
0000
3000
1001
0000
0001
0000
0010
0000
0100
0000
1100
0000
1000
0000
,
0002
0000
0000
0003
1001
0000
1000
0010
0000
0010
0100
0000
0101
0000
0001
0000
,
2000
0000
0000
3000
1100
0000
0100
0010
0000
0010
0001
0000
1001
0000
1000
0000
,
0020
0000
0000
0000
4030
0000
0000
3000
4000
0000
0000
0000
3000
0000
0000
0000
,
0001
0010
0210
0000
2300
0000
3002
0000
,
1003
0100
0010
1000
0010
0001
0000
0000
,
1000
0010
0200
0000
0302
0000
2003
0000
,
3001
0100
0020
0000
2030
3002
0003
0000
,
1000
0100
0120
0000
0032
0000
2003
0000
,
0200
0000
0001
0000
0010
0000
0001
3300
,
0200
0310
0002
0000
2003
0000
3020
0000
,
0130
0010
0001
0010
2000
3002
0003
0000
,
0000
0000
0000
0010
0100
1000
0001
1000
,
0020
0000
0030
1000
0010
0200
0000
0300
,
0000
0010
2000
0000
3002
0000
2003
0000
,
0200
0002
0000
0000
,
3303
0000
0000
0100
0010
0001
1000
0100
,
0001
0100
2000
0000
3002
0000
2003
0000
,
3000
0010
0200
0000
0302
0000
2003
0000
,
3200
0000
0000
0300
0220
0300
0000
0000
0002
0003
0000
0000
0230
0000
0000
0000
,
1300
0000
0001
0000
0021
0000
0130
2000
0000
0000
3001
0000
0101
0000
0100
0000
,
0220
0300
1030
0010
0100
0001
1000
0100
,
0020
0000
0000
0030
0011
0000
0001
1000
0000
1000
0010
0000
0110
0000
0100
0000
,
0102
0000
1003
0100
0001
0100
2000
0000
,
3001
0000
0100
0000
0120
0000
1030
0002
0000
0000
0013
0000
0110
0000
0100
0000
,
2200
0300
3001
0100
0010
0001
0010
1000
,
0002
0000
0000
0003
0011
0000
0010
0100
0000
0100
1000
0000
1002
0000
0103
0000
,
0120
0000
0000
0030
1010
0000
1000
0001
0000
0001
0010
0000
0110
0000
0100
0000
,
2100
3001
0101
0100
0010
1000
1001
0001
,
0020
0000
0000
0030
0110
0000
0100
0000
1000
0000
0001
0000
1001
0000
1000
0000
,
0200
0000
0000
0300
0110
0000
0010
0001
0000
0001
1000
0000
1010
0000
0010
0000
,
0200
0000
0000
0300
0101
0000
0001
0000
1000
0000
0100
0000
0120
0000
0000
0000
,
0031
1000
1010
0010
0100
0001
1001
1000
,
0200
0000
0000
0300
0110
0000
0010
0000
0001
0000
1000
0000
1010
0000
0010
0000
,
0200
0000
0000
0300
0101
0000
0001
1000
0000
1000
0100
0000
0110
0000
0010
0000
,
0002
0000
0000
0003
1001
0000
1000
0100
0000
0100
0010
0000
0011
0000
0001
0000
,
2000
0000
0000
0000
3000
0001
0200
0000
0310
1000
0020
0000
0030
1000
0010
0200
,
0000
0300
0000
0001
2000
0000
3002
0000
0200
0000
0020
0000
2000
0000
0000
0000
,
0000
3333
0000
0000
0000
0000
0100
0000
0010
0000
1000
0000
0001
0000
0010
0000
,
0100
1000
0002
0000
0023
0000
0230
0000
,
0300
1000
1002
0000
0103
0000
0120
0000
,
2030
0000
0000
3000
2002
3000
0000
0000
0020
0030
0000
0000
2003
0000
0000
0000
,
3000
0000
0000
0000
0010
0000
0100
0000
0001
0000
0000
0000
1000
0100
0010
0001
,
0010
0100
1000
0000
1002
0000
0103
0020
0000
0000
1030
0000
1001
0000
0001
0000
,
0022
0003
0130
1000
0100
0001
0100
1000
,
0002
0000
0000
0003
1001
0000
1000
0010
0000
0010
0100
0000
0101
0000
0001
0000
,
2001
0000
3001
0010
1000
0010
0002
0000
,
1003
0000
0010
0000
0210
0000
0301
2000
0000
0000
3100
0000
0110
0000
0010
0000
,
0022
0030
1003
0010
0100
0010
0001
0010
,
2000
0000
0000
3000
1001
0000
0001
0010
0000
0010
0100
0000
1100
0000
1000
0000
,
1002
0000
0000
0003
1001
0000
1000
0010
0000
0010
0100
0000
0101
0000
0001
0000
,
2000
3010
0420
0000
0000
0000
0000
0000
,
0000
0000
0000
0000
,
0000
0330
0000
0000
;

//---------------dance-single - Hard----------------
#NOTES:
     dance-single:
     Ace Of Hearts (2014):
     Hard:
     8:
     0.596,0.279,0.006,0.850,0.166:
0000
0000
0000
0000
,
0000
0000
0000
0000
,
0000
0000
0000
0000
,
1000
0000
0001
0000
2000
0000
3001
0020
0000
0000
0130
0000
1000
0000
0001
0000
,
0200
0000
0301
0100
0010
1000
0010
0100
,
0002
0000
0000
0000
0103
0000
0001
1000
0000
0001
1000
0000
0001
0000
0010
0000
,
0200
0000
0310
0001
1000
0001
0200
0000
,
0301
0000
1000
0000
0002
0000
0013
0200
0000
0000
0310
0000
0001
0000
0010
0000
,
0200
0000
1300
0100
0010
0001
0010
0100
,
2000
0000
0000
0000
3001
0000
0010
0100
0000
0010
0100
0000
0010
0000
0001
0000
,
2000
0000
0000
0000
3001
0000
1000
0100
0000
1000
0100
0000
0010
0000
0100
0000
,
2000
3001
0010
0010
0010
0100
1000
0100
,
2000
0000
3001
0001
0100
0001
1000
0001
,
2000
0000
0000
0000
3001
0000
0100
0001
0000
0100
0001
0000
1000
0000
0001
0000
,
2000
0000
3001
0010
0001
0010
0200
0000
,
0310
0001
1000
1000
1000
0010
1000
0010
,
0200
0000
0301
0001
1000
0001
0010
0001
,
0020
0000
0000
0000
0130
0000
0010
0001
0000
0010
0001
0000
1000
0000
0001
0000
,
2000
0000
0000
0000
3010
0000
0100
0001
0000
0100
0001
0000
1000
0000
0001
0000
,
2000
0000
0000
0000
3004
0000
0000
0003
0004
0000
0000
0000
0003
0000
0000
0000
,
1000
0100
2000
0000
3002
0000
2003
0000
,
3001
0010
0001
0010
0100
1000
0000
0000
,
0001
1000
0002
0000
0203
0000
0320
0000
,
1030
0001
2000
0000
3200
0000
0300
0000
,
0010
0001
0020
0000
0230
0000
2300
0000
,
3002
1003
0020
0130
,
0001
0100
0002
0000
2003
0000
3200
0000
,
0310
0100
0010
0100
2000
0000
3000
0000
,
0000
0000
0000
0001
0100
0001
0100
0010
,
2000
0000
3000
0001
1000
0002
0000
0003
,
0000
1000
0200
0000
0320
0000
0032
0000
,
2003
0200
0000
0000
,
3300
0000
0000
1000
0100
0010
0001
0010
,
0100
1000
0002
0000
2003
0000
3002
0000
,
0003
1000
0020
0000
2030
0000
3020
0000
,
0230
0302
0000
0003
,
1000
0000
0001
0000
2000
0000
3100
0020
0000
0000
0130
0000
1000
0000
0001
0000
,
2000
0000
3001
0010
0100
1000
0100
0010
,
0002
0000
0000
0000
1003
0000
0100
0010
0000
0100
0010
0000
0001
0000
1000
0000
,
0002
0000
1003
0010
0100
0010
2000
0000
,
3001
0000
0010
0000
0200
0000
0310
0002
0000
0000
1003
0000
0010
0000
0100
0000
,
0020
0000
1030
0001
1000
0001
0010
0100
,
0020
0000
0000
0000
0031
0000
1000
0100
0000
1000
0100
0000
0010
0000
0100
0000
,
0020
0000
0000
0000
0031
0000
1000
0010
0000
1000
0010
0000
0100
0000
0010
0000
,
0200
0301
1000
1000
1000
0001
0010
0001
,
2000
0000
0000
0000
3001
0001
0010
0100
0010
0001
2000
0000
3001
0000
0100
0010
,
0000
0100
0010
0000
1000
0000
0010
0000
2000
0000
0000
0000
3001
0010
0100
0010
,
0002
0003
1000
1000
1000
0100
0010
0100
,
2000
0000
3001
0001
0100
0010
0100
0001
,
2000
0000
0000
0000
3001
0000
1000
0100
0000
1000
0100
0000
0010
0000
0100
0000
,
0020
0000
0000
0000
0031
0000
1000
0010
0000
1000
0010
0000
1000
0000
0001
0000
,
2000
0000
0000
0000
3004
0000
0000
0003
0004
0000
0000
0000
0003
0000
0000
0000
,
1000
0100
2000
0000
3002
0000
0203
0000
,
0310
1000
0010
1000
0001
0010
0000
0000
,
0100
1000
0200
0000
0320
0000
0032
0000
,
1003
0010
2000
0000
3002
0000
0003
0000
,
0010
0001
0020
0000
0230
0000
2300
0000
,
3002
0203
0320
1030
,
0001
0100
0002
0000
2003
0000
3200
0000
,
0310
0001
0010
0100
1000
0001
0000
0000
,
0000
0000
0000
1000
0100
0010
0100
1000
,
0002
0000
0003
1000
0010
2000
0000
3000
,
0000
0001
0020
0000
0230
0000
2300
0000
,
3002
0200
0000
0000
,
0303
0000
0000
0100
0010
0100
0001
1000
,
0001
0010
0200
0000
0320
0000
0230
0000
,
0300
1000
0200
0000
0320
0000
0032
0000
,
2003
3020
0000
0030
,
1000
0000
0001
0000
2000
0000
3010
0200
0000
0000
0310
0000
1000
0000
0001
0000
,
2000
0000
3001
1000
0010
1000
0001
0010
,
0200
0000
0000
0000
0310
0000
0001
1000
0000
0001
1000
0000
0010
0000
0100
0000
,
0002
0000
1003
0001
0010
0001
2000
0000
,
3010
0000
0100
0000
0020
0000
1030
0002
0000
0000
0013
0000
0100
0000
0010
0000
,
0200
0000
1300
0001
0100
0010
0100
0001
,
2000
0000
0000
0000
3001
0000
0010
0100
0000
0010
0100
0000
1000
0000
0001
0000
,
0200
0000
0000
0000
0310
0000
1000
0001
0000
1000
0001
0000
1000
0000
0100
0000
,
0020
0031
1000
1000
1000
0001
0010
0100
,
2000
0000
3010
0010
0100
0010
1000
0001
,
0200
0000
0000
0000
0301
0000
1000
0100
0000
1000
0100
0000
0010
0000
0100
0000
,
2000
0000
3001
0010
0001
1000
0200
0000
,
0310
0001
0010
0010
0010
0100
1000
0001
,
0200
0000
0301
0001
1000
0010
1000
0001
,
0200
0000
0000
0000
0301
0000
1000
0010
0000
1000
0010
0000
1000
0000
0001
0000
,
0200
0000
0000
0000
0301
0000
1000
0100
0000
1000
0100
0000
0010
0000
0001
0000
,
0020
0000
0000
0000
0030
0001
0020
0000
0031
1000
0002
0000
0003
0010
0100
2000
,
0000
3000
0000
0001
0200
0000
0320
0000
2030
0000
3020
0000
0200
0000
0000
0000
,
0000
0330
0000
0000
0000
0000
0100
0000
0001
0000
0100
0000
0010
0000
1000
0000
,
0010
1000
0002
0000
2003
0000
3200
0000
,
0300
0010
0002
0000
2003
0000
3020
0000
,
2030
3002
0000
0003
,
0000
1000
0010
0200
,
0301
0000
1000
0000
0200
0000
0310
0002
0000
0000
1003
0000
0010
0000
1000
0000
,
0020
0000
1030
0001
0010
0100
0010
0001
,
2000
0000
0000
0000
3001
0000
0100
0010
0000
0100
0010
0000
1000
0000
0001
0000
,
2000
0000
3001
0010
0100
0010
0002
0000
,
1003
0000
0010
0000
0200
0000
0310
2000
0000
0000
3001
0000
0010
0000
0001
0000
,
0020
0000
0130
1000
0001
1000
0100
0010
,
0002
0000
0000
0000
1003
0000
0100
0010
0000
0100
0010
0000
0001
0000
1000
0000
,
0002
0000
0000
0000
1003
0000
0001
0010
0000
0001
0010
0000
0100
0000
1000
0000
,
0002
0000
0000
0003
0402
0000
0000
0000
0000
0000
0000
0000
0000
0000
0000
0000
,
0000
0000
0000
0000
,
0000
0303
0000
0000
;

//---------------dance-single - Medium----------------
#NOTES:
     dance-single:
     Ace Of Hearts (2014):
     Medium:
     6:
     0.480,0.168,0.006,0.922,0.017: // measure 1
0000
0000
0000
0000
,  // measure 2
0000
0000
0000
0000
,  // measure 3
0000
0000
0000
0000
,  // measure 4
0001
0000
1000
0000
2000
0000
3001
1000
,  // measure 5
0002
0000
0013
0000
0010
0000
0100
0010
,  // measure 6
0200
0000
1300
0000
1000
0000
0100
0010
,  // measure 7
0200
0000
1300
0100
2000
0000
3002
0000
,  // measure 8
0103
0000
0200
0000
0320
0000
1030
0010
,  // measure 9
2000
0000
3001
0000
0001
0000
0010
0001
,  // measure 10
0020
0000
0130
0000
0100
0000
1000
0001
,  // measure 11
2000
0000
3010
0000
0010
0000
0100
0001
,  // measure 12
0200
0000
0310
0000
0010
0000
1000
0010
,  // measure 13
2000
0000
3001
0000
0001
0000
0010
0001
,  // measure 14
0020
0000
0130
0000
0100
0000
1000
0001
,  // measure 15
2000
0000
3001
0100
0002
0000
2003
0000
,  // measure 16
3100
0000
0010
0000
0010
0000
0001
0010
,  // measure 17
0002
0000
1003
0000
1000
0000
0010
0100
,  // measure 18
0020
0000
1030
0000
1000
0000
0001
0010
,  // measure 19
0002
0000
1003
0000
1000
0000
0010
0100
,  // measure 20
0020
0430
0000
0300
,  // measure 21
0001
1000
0002
0000
0023
0000
0230
0000
,  // measure 22
2300
0000
3002
0000
0000
0103
0000
0000
,  // measure 23
0010
1000
0020
0000
0230
0000
0302
0000
,  // measure 24
2003
3002
0103
0000
,  // measure 25
0001
1000
0002
0000
2003
0000
3200
0000
,  // measure 26
2300
3001
0200
0301
,  // measure 27
1000
0100
2000
0000
3002
0000
0023
0000
,  // measure 28
0031
1000
0002
0000
0203
0000
0300
0000
,  // measure 29
0000
0000
0000
0001
2000
0000
3002
0000
,  // measure 30
0023
0000
0030
0001
1000
0002
0000
0003
,  // measure 31
0000
1000
0020
0000
2030
0000
3002
0000
,  // measure 32
0023
0200
0000
0000
,  // measure 33
0330
0000
0000
0100
2000
0000
3001
0010
,  // measure 34
0002
2003
3002
2003
,  // measure 35
3000
0001
0020
0000
0032
0000
2003
0000
,  // measure 36
3002
0023
0000
0030
,  // measure 37
0002
0000
1003
0000
1000
0000
0010
1000
,  // measure 38
0020
0000
0130
0000
0100
0000
0001
1000
,  // measure 39
0002
0000
0013
0000
0010
0000
0100
1000
,  // measure 40
0200
0000
0310
0001
0020
0000
0230
0000
,  // measure 41
2300
0000
3001
0000
0001
0000
0100
0001
,  // measure 42
0200
0000
0310
0000
0010
0000
1000
0001
,  // measure 43
2000
0000
3100
0000
0100
0000
0010
0001
,  // measure 44
0020
0000
0130
0000
0100
0000
1000
0001
,  // measure 45
2000
0000
3001
0000
0001
0000
0100
0010
,  // measure 46
0200
0000
0000
0000
0301
0000
0001
0000
1000
0100
2000
0000
3001
0000
0000
0000
,  // measure 47
0001
0000
0000
0000
1000
0000
0010
0000
2000
0000
0000
0000
3001
0010
0002
0000
,  // measure 48
2003
3000
0010
0000
0010
0000
1000
0010
,  // measure 49
2000
0000
3001
0000
0001
0000
0100
0010
,  // measure 50
0200
0000
0301
0000
0001
0000
1000
0100
,  // measure 51
2000
0000
3001
0000
0001
0000
0010
0100
,  // measure 52
0020
0034
0000
0003
,  // measure 53
1000
0100
2000
0000
3002
0000
0203
0000
,  // measure 54
0301
1000
0002
0000
0000
0013
0000
0000
,  // measure 55
0100
1000
0200
0000
0320
0000
0032
0000
,  // measure 56
1003
0010
2000
0000
3002
0000
0003
0000
,  // measure 57
1000
0100
2000
0000
3002
0000
0023
0000
,  // measure 58
0032
2003
3020
0130
,  // measure 59
0001
1000
0002
0000
0023
0000
0032
0000
,  // measure 60
1003
0010
2000
0000
0000
3001
0000
0000
,  // measure 61
0000
0000
0000
1000
0200
0000
0310
0001
,  // measure 62
0020
0000
0030
0100
1000
0200
0000
0300
,  // measure 63
0000
0010
0002
0000
2003
0000
3020
0000
,  // measure 64
2030
0002
0000
0000
,  // measure 65
3003
0000
0000
0001
2000
0000
3200
0000
,  // measure 66
0310
0001
0020
0000
0032
0000
2003
0000
,  // measure 67
3000
0001
0020
0000
0230
0000
2300
0000
,  // measure 68
3002
2003
0000
3000
,  // measure 69
0002
0000
0013
0000
0010
0000
0001
1000
,  // measure 70
0002
0000
1003
0000
1000
0000
0010
1000
,  // measure 71
0020
0000
0130
0000
0100
0000
0001
1000
,  // measure 72
0002
0000
0013
0100
0020
0000
0032
0000
,  // measure 73
2003
0000
3010
0000
0010
0000
1000
0010
,  // measure 74
2000
0000
3001
0000
0001
0000
0010
0100
,  // measure 75
0020
0000
0031
0000
0001
0000
1000
0100
,  // measure 76
2000
0000
3001
0000
0001
0000
0100
0010
,  // measure 77
0200
0000
0301
0000
0001
0000
1000
0100
,  // measure 78
2000
0000
3001
0000
0001
0000
0010
0100
,  // measure 79
0020
0000
0031
0000
0001
0000
1000
0010
,  // measure 80
2000
0000
3001
0100
0001
0000
2000
0000
,  // measure 81
3100
0000
0010
0000
0010
0000
0001
0010
,  // measure 82
0002
0000
1003
0000
1000
0000
0100
0010
,  // measure 83
0200
0000
0310
0000
0010
0000
0001
0010
,  // measure 84
0002
0000
1003
0000
1000
0000
0010
1000
,  // measure 85
0020
0000
0000
0000
0030
0000
2000
0000
3001
0010
0002
0000
0003
1000
0100
2000
,  // measure 86
0000
3000
0000
0001
0020
0000
0230
0000
2300
0000
3002
0000
2000
0000
0000
0000
,  // measure 87
0000
3003
0000
0000
0000
0000
1000
0000
0200
0000
0000
0000
0320
0000
0000
0000
,  // measure 88
0031
0010
0002
0000
2003
0000
3200
0000
,  // measure 89
0300
0010
0002
0000
2003
0000
3020
0000
,  // measure 90
2030
3002
0000
0003
,  // measure 91
0000
1000
1000
2000
,  // measure 92
3002
0000
0013
0000
0010
0000
0100
1000
,  // measure 93
0200
0000
0310
0000
0010
0000
0001
0010
,  // measure 94
0002
0000
1003
0000
1000
0000
0010
1000
,  // measure 95
0020
0000
0130
0001
0200
0000
0320
0000
,  // measure 96
2030
0000
3001
0000
0001
0000
1000
0100
,  // measure 97
2000
0000
3100
0000
0100
0000
0010
0001
,  // measure 98
0020
0000
0130
0000
0100
0000
1000
0001
,  // measure 99
2000
0000
3010
0000
0010
0000
1000
0010
,  // measure 100
2000
0000
0000
3000
2004
0000
0000
0000
0000
0000
0000
0000
0000
0000
0000
0000
,  // measure 101
0000
0000
0000
0000
,  // measure 102
0000
3003
0000
0000
;

//---------------dance-single - Easy----------------
#NOTES:
     dance-single:
     Ace Of Hearts (2014):
     Easy:
     3:
     0.208,0.084,0.006,0.144,0.000: // measure 1
0000
0000
0000
0000
,  // measure 2
0000
0000
0000
0000
,  // measure 3
0000
0000
0000
0000
,  // measure 4
0000
1000
1000
1000
,  // measure 5
0000
0010
0010
0010
,  // measure 6
0000
0100
0100
0100
,  // measure 7
0000
0001
0001
0001
,  // measure 8
0000
1000
1000
1000
,  // measure 9
0000
0100
0100
0100
,  // measure 10
0000
0010
0010
0010
,  // measure 11
0000
0001
0001
0001
,  // measure 12
0000
1000
1000
1000
,  // measure 13
0000
0020
0000
0030
,  // measure 14
0000
0100
0100
0100
,  // measure 15
0000
0002
0000
0003
,  // measure 16
0000
1000
1000
1000
,  // measure 17
0000
0200
0000
0300
,  // measure 18
0000
0010
0010
0010
,  // measure 19
0000
0001
0001
0001
,  // measure 20
0000
4000
0000
3000
,  // measure 21
0000
0010
0010
0010
,  // measure 22
0000
2000
0000
3000
,  // measure 23
0000
0001
0001
0001
,  // measure 24
0000
0020
0000
0030
,  // measure 25
0000
0100
0100
0100
,  // measure 26
0000
1000
1000
1000
,  // measure 27
0000
0001
0001
0001
,  // measure 28
0000
0200
0000
0300
,  // measure 29
0000
0000
0010
0010
,  // measure 30
0010
0000
2000
0000
,  // measure 31
3000
0001
0001
0001
,  // measure 32
0000
0200
0000
0000
,  // measure 33
0300
0000
0001
0001
,  // measure 34
0000
1000
1000
1000
,  // measure 35
0000
0100
0100
0100
,  // measure 36
0000
0020
0000
0030
,  // measure 37
0000
0001
0001
0001
,  // measure 38
0000
0100
0100
0100
,  // measure 39
0000
0010
0010
0010
,  // measure 40
0000
1000
1000
1000
,  // measure 41
0000
0001
0001
0001
,  // measure 42
0000
0010
0010
0010
,  // measure 43
0000
0100
0100
0100
,  // measure 44
0000
1000
1000
1000
,  // measure 45
0000
0001
0001
0001
,  // measure 46
0000
0200
0300
0010
,  // measure 47
0010
0010
0000
2000
,  // measure 48
3000
0001
0001
0001
,  // measure 49
0000
0020
0000
0030
,  // measure 50
0000
0100
0100
0100
,  // measure 51
0000
1000
1000
1000
,  // measure 52
0000
0004
0000
0003
,  // measure 53
0000
1000
1000
1000
,  // measure 54
0000
0020
0000
0030
,  // measure 55
0000
0100
0100
0100
,  // measure 56
0000
0002
0000
0003
,  // measure 57
0000
0100
0100
0100
,  // measure 58
0000
0010
0010
0010
,  // measure 59
0000
1000
1000
1000
,  // measure 60
0000
0002
0000
0003
,  // measure 61
0000
0000
0010
0010
,  // measure 62
0010
0000
0200
0000
,  // measure 63
0300
1000
1000
1000
,  // measure 64
0000
0002
0000
0000
,  // measure 65
0003
0000
0100
0100
,  // measure 66
0000
0010
0010
0010
,  // measure 67
0000
1000
1000
1000
,  // measure 68
0000
0002
0000
0003
,  // measure 69
0000
0010
0010
0010
,  // measure 70
0000
0001
0001
0001
,  // measure 71
0000
1000
1000
1000
,  // measure 72
0000
0010
0010
0010
,  // measure 73
0000
0100
0100
0100
,  // measure 74
0000
0001
0001
0001
,  // measure 75
0000
1000
1000
1000
,  // measure 76
0000
0010
0010
0010
,  // measure 77
0000
0100
0100
0100
,  // measure 78
0000
0002
0000
0003
,  // measure 79
0000
1000
1000
1000
,  // measure 80
0000
0200
0000
0300
,  // measure 81
0000
0010
0010
0010
,  // measure 82
0000
0002
0000
0003
,  // measure 83
0000
1000
1000
1000
,  // measure 84
0000
0020
0000
0030
,  // measure 85
0000
0000
0200
0000
,  // measure 86
0300
0001
0001
0002
,  // measure 87
0000
0003
0000
0000
0000
0000
0000
0000
1000
0000
0000
0000
1000
0000
0000
0000
,  // measure 88
0000
0100
0100
0100
,  // measure 89
0000
0010
0010
0010
,  // measure 90
0000
0002
0000
0003
,  // measure 91
0000
1000
1000
1000
,  // measure 92
0000
0010
0010
0010
,  // measure 93
0000
0100
0100
0100
,  // measure 94
0000
0001
0001
0001
,  // measure 95
0000
1000
1000
1000
,  // measure 96
0000
0001
0001
0001
,  // measure 97
0000
0010
0010
0010
,  // measure 98
0000
0100
0100
0100
,  // measure 99
0000
1000
1000
1000
,  // measure 100
0000
2004
0000
0000
,  // measure 101
0000
0000
0000
0000
,  // measure 102
0000
3003
0000
0000
;

//---------------dance-single - Novice----------------
#NOTES:
     dance-single:
     Ace Of Hearts (2014):
     Beginner:
     2:
     0.152,0.056,0.006,0.254,0.000: // measure 1
0000
0000
0000
0000
,  // measure 2
0000
0000
0000
0000
,  // measure 3
0000
0000
0000
0000
,  // measure 4
0000
0001
0000
0001
,  // measure 5
0000
0001
0000
0000
,  // measure 6
0000
1000
0000
1000
,  // measure 7
0000
1000
0000
0000
,  // measure 8
0000
0010
0000
0010
,  // measure 9
0000
0010
0000
0000
,  // measure 10
0000
0100
0000
0100
,  // measure 11
0000
0100
0000
0000
,  // measure 12
0000
0001
0000
0001
,  // measure 13
0000
0002
0000
0003
,  // measure 14
0000
1000
0000
1000
,  // measure 15
0000
2000
0000
3000
,  // measure 16
0000
0100
0000
0100
,  // measure 17
0000
0200
0000
0300
,  // measure 18
0000
0010
0000
0010
,  // measure 19
0000
0020
0000
0030
,  // measure 20
0000
0004
0000
0003
,  // measure 21
0000
1000
0000
1000
,  // measure 22
0000
2000
0000
3000
,  // measure 23
0000
0100
0000
0100
,  // measure 24
0000
0200
0000
0300
,  // measure 25
0000
0010
0000
0010
,  // measure 26
0000
0020
0000
0030
,  // measure 27
0000
0001
0000
0001
,  // measure 28
0000
0002
0000
0003
,  // measure 29
0000
1000
0000
1000
,  // measure 30
0000
2000
0000
3000
,  // measure 31
0000
0100
0000
0100
,  // measure 32
0000
0200
0000
0300
,  // measure 33
0000
0010
0000
0010
,  // measure 34
0000
0020
0000
0030
,  // measure 35
0000
0001
0000
0001
,  // measure 36
0000
0002
0000
0003
,  // measure 37
0000
1000
0000
1000
,  // measure 38
0000
2000
0000
3000
,  // measure 39
0000
0010
0000
0010
,  // measure 40
0000
0020
0000
0030
,  // measure 41
0000
0100
0000
0100
,  // measure 42
0000
0200
0000
0300
,  // measure 43
0000
0001
0000
0001
,  // measure 44
0000
0002
0000
0003
,  // measure 45
0000
1000
0000
1000
,  // measure 46
0000
2000
3000
0001
,  // measure 47
0000
0001
0000
0002
,  // measure 48
0003
0010
0000
0010
,  // measure 49
0000
0020
0000
0030
,  // measure 50
0000
0100
0000
0100
,  // measure 51
0000
0200
0000
0300
,  // measure 52
0000
4000
0000
3000
,  // measure 53
0000
0001
0000
0001
,  // measure 54
0000
0002
0000
0003
,  // measure 55
0000
0100
0000
0100
,  // measure 56
0000
0200
0000
0300
,  // measure 57
0000
0010
0000
0010
,  // measure 58
0000
0020
0000
0030
,  // measure 59
0000
1000
0000
1000
,  // measure 60
0000
2000
0000
3000
,  // measure 61
0000
0001
0000
0001
,  // measure 62
0000
0002
0000
0003
,  // measure 63
0000
0100
0000
0100
,  // measure 64
0000
0200
0000
0300
,  // measure 65
0000
0010
0000
0010
,  // measure 66
0000
0020
0000
0030
,  // measure 67
0000
1000
0000
1000
,  // measure 68
0000
2000
0000
3000
,  // measure 69
0000
0001
0000
0001
,  // measure 70
0000
0002
0000
0003
,  // measure 71
0000
0010
0000
0010
,  // measure 72
0000
0020
0000
0030
,  // measure 73
0000
0100
0000
0100
,  // measure 74
0000
0200
0000
0300
,  // measure 75
0000
0010
0000
0010
,  // measure 76
0000
0020
0000
0030
,  // measure 77
0000
0001
0000
0001
,  // measure 78
0000
0002
0000
0003
,  // measure 79
0000
1000
0000
1000
,  // measure 80
0000
2000
0000
3000
,  // measure 81
0000
0100
0000
0100
,  // measure 82
0000
0200
0000
0300
,  // measure 83
0000
0010
0000
0010
,  // measure 84
0000
0020
0000
0030
,  // measure 85
0000
0002
0003
1000
,  // measure 86
0000
1000
0000
2000
,  // measure 87
0000
3000
0000
0000
0001
0000
0000
0000
0000
0000
0000
0000
0001
0000
0000
0000
,  // measure 88
0000
0002
0000
0003
,  // measure 89
0000
0100
0000
0100
,  // measure 90
0000
0200
0000
0300
,  // measure 91
0000
0020
0000
0030
,  // measure 92
0000
1000
0000
1000
,  // measure 93
0000
2000
0000
3000
,  // measure 94
0000
0001
0000
0001
,  // measure 95
0000
0002
0000
0003
,  // measure 96
0000
0100
0000
0100
,  // measure 97
0000
0200
0000
0300
,  // measure 98
0000
0001
0000
0001
,  // measure 99
0000
0002
0000
0003
,  // measure 100
0000
4002
0000
0000
,  // measure 101
0000
0000
0000
0000
,  // measure 102
0000
3003
0000
0000
;
