#TITLE:Live Out Loud;
#SUBTITLE:;
#ARTIST:Steven Curtis Chapman;
#TITLETRANSLIT:;
#SUBTITLETRANSLIT:;
#ARTISTTRANSLIT:;
#GENRE:Christian Pop;
#CREDIT:Ace Of Hearts;
#BANNER:Live Out Loud - Bn.png;
#BACKGROUND:Live Out Loud - Bg.png;
#LYRICSPATH:;
#CDTITLE:Ace OF Hearts.png;
#MUSIC:Live Out Loud.ogg;
#OFFSET:1.060;
#SAMPLESTART:46.400;
#SAMPLELENGTH:12.000;
#SELECTABLE:YES;
#BPMS:0.000=105.000,252.000=52.500,265.000=105.000;
#STOPS:;
#BGCHANGES:1.750=Live Out Loud Music Video.avi=1.000=1=0=0=StretchNoLoop==CrossFade==,
99999=-nosongbg-=1.000=0=0=0 // don't automatically add -songbackground-
;
#KEYSOUNDS:;

//---------------dance-single - Expert----------------
#NOTES:
     dance-single:
     Ace Of Hearts (2014):
     Challenge:
     10:
     0.704,0.000,0.828,1.000,0.370: // measure 1
0000
0000
0000
0000
,  // measure 2
000M
0000
0000
000M
0000
0000
000M
0000
0000
00M0
0000
0M00
0000
0000
0M00
M000
0000
0000
M000
0000
0000
000M
0000
0M00
,  // measure 3
00M0
0000
0000
00M0
0000
0000
M000
0000
0000
000M
0000
M000
0000
0000
M000
000M
0000
00M0
0000
0000
0000
00M0
0000
0M00
,  // measure 4
M000
0000
0000
000M
0000
0000
0M00
0000
0000
000M
M000
0000
0000
0000
M000
000M
0000
0000
00M0
0000
0000
0M00
0000
M000
,  // measure 5
000M
0000
0000
0M00
0000
0000
00M0
0000
0000
M000
000M
0000
0000
000M
0000
M000
0000
0000
0M00
0000
0000
0000
0000
0000
,  // measure 6
1200
0000
0000
0310
0000
0000
0012
0000
0000
1003
0000
0010
0100
0000
0100
0010
0000
0000
2010
0000
0000
3001
0000
0010
,  // measure 7
0100
0000
0000
1000
0000
0000
1002
0000
0000
0103
0000
0100
0010
0000
0010
1000
0000
0000
1002
0000
0000
0013
0000
0100
,  // measure 8
1000
0000
0000
0001
0000
0000
0201
0000
0000
0310
0000
1000
0001
0000
0001
0010
0000
0000
0100
0000
0100
1000
0000
1000
,  // measure 9
0001
0000
0000
0100
0000
0000
0010
0000
0100
0001
0000
0001
1000
0000
1000
0100
0000
0100
0020
0000
0000
0230
0000
0300
,  // measure 10
1100
0000
0000
0000
0000
1000
0001
0000
0001
0100
0000
0000
0020
0000
0000
0230
0000
0000
0302
0000
0000
2003
0000
0000
,  // measure 11
3000
0000
0000
0000
0000
0001
0020
0000
0000
0130
0000
1000
0001
0000
0001
0100
0000
0100
0020
0000
0000
0130
0000
0001
,  // measure 12
0000
0000
0000
0000
0000
1000
0100
0000
0100
0010
0000
0010
0200
0000
0000
1300
0000
0001
0200
0000
0000
0310
0000
0000
,  // measure 13
2010
3001
0010
0100
2200
0300
3001
0100
,  // measure 14
0220
0000
0000
0330
0000
0010
1000
0000
0000
0001
0000
0000
0010
0000
0100
1000
0000
1000
0001
0000
0000
0202
0000
0000
,  // measure 15
0303
0000
0000
0000
0000
0100
0010
0000
0010
1000
0000
1000
0001
0000
0001
0010
0000
0010
0200
0000
0000
1300
0000
0001
,  // measure 16
0000
0000
0000
0000
0000
1000
0020
0000
0000
0130
0000
0000
0002
0000
0000
1003
0000
0000
0100
0000
0000
0010
0000
0000
,  // measure 17
0200
0000
1300
0000
0001
0000
0100
0000
0120
0000
0000
2030
0000
3000
1004
0000
,  // measure 18
0003
0020
0230
1300
1001
0002
0103
0010
,  // measure 19
1010
0000
1000
0000
0001
1000
0000
0000
1200
0000
0000
0310
0000
0000
0022
0000
,  // measure 20
0033
0000
0001
1000
0000
0000
0020
0000
0000
0130
0000
0000
0001
0000
0000
0000
0000
0000
2000
0000
0000
0000
3000
0000
,  // measure 21
1001
0001
0010
0220
0000
0330
1100
1000
,  // measure 22
2202
0000
0000
3300
0000
0000
2003
0000
0000
3200
0000
0000
0300
0000
0000
0000
0000
0110
0000
0000
0010
0001
0000
0000
,  // measure 23
2001
0000
0000
0200
0000
0000
3300
0000
0000
0000
0000
0000
0000
0000
0000
0000
0000
0000
0110
0000
0040
0000
0000
0000
,  // measure 24
0030
0000
0000
0011
0000
0000
0001
0000
0000
1000
0000
1020
0000
0000
0130
0000
0000
0000
0101
0000
0000
0001
0000
0000
,  // measure 25
1001
1000
0100
0120
0002
0033
2001
3010
,  // measure 26
0220
0000
0000
0330
0000
0000
0102
0000
0000
1003
0000
0000
2100
0000
3001
0000
0000
0000
0201
0000
0000
0310
0000
0000
,  // measure 27
2020
0000
0000
3030
0000
0000
0220
0000
0000
0330
0000
0000
0202
0000
0000
0303
0000
0000
0000
0000
0000
0002
0000
0003
,  // measure 28
1001
1100
0110
1100
1001
0202
0303
4220
,  // measure 29
0000
0000
0000
0000
0000
0000
0300
0000
0000
0000
0000
0000
0000
0000
0000
3000
0000
0000
0130
0000
0001
1000
0000
0000
,  // measure 30
0100
0000
0000
0010
0000
0000
0210
0000
0000
1300
0000
0001
0100
0000
0100
0010
0000
0000
1000
0000
1000
0001
0000
0001
,  // measure 31
0010
0000
0000
0100
0000
0000
2100
0000
0000
3001
0000
0010
0100
0000
0100
0010
0000
0000
0012
0000
0000
1003
0000
0010
,  // measure 32
0100
0000
0100
0010
0000
0010
1000
0000
1000
0001
0000
0001
0010
0000
0010
0200
0000
0000
2300
0000
3001
0100
0000
0000
,  // measure 33
0220
0000
0000
0030
0000
0000
0301
0000
1000
0100
0000
0100
0010
0000
0000
0001
0000
0000
2001
0000
0000
0200
0000
0000
,  // measure 34
3300
0000
0000
0000
0000
0000
0100
0000
0010
0002
0000
0000
2003
0000
0000
3010
0000
0000
0200
0000
0000
0301
0000
2000
,  // measure 35
0000
0000
0000
3000
0000
0000
0001
0000
0100
0010
0000
0010
2000
0000
0000
3001
0000
0000
0021
0000
0000
0130
0000
0000
,  // measure 36
2100
0000
0000
3001
0000
0000
0100
0000
0000
0010
0000
0000
2020
0000
0000
0030
0000
0000
3001
0000
0010
0100
0000
0000
,  // measure 37
2200
0000
0000
0300
0000
0000
3001
0000
0001
0010
0000
0010
0200
0000
0000
1300
0000
0000
1002
0000
0000
0200
0000
0000
,  // measure 38
0003
0000
0000
0300
0000
0010
2000
0000
0000
3001
0000
0010
0200
0000
0000
1300
0000
0100
0020
0000
0000
0031
0000
1000
,  // measure 39
0000
0000
0000
0000
0000
0010
2000
0000
0000
3001
0000
0000
0021
0000
0000
0130
0000
0000
0120
0000
0000
0031
0000
1000
,  // measure 40
0001
0000
2000
0000
0000
3100
0000
0000
0000
0010
0000
0000
0011
0000
0000
0001
0000
0000
2001
0000
0000
3020
0000
0400
,  // measure 41
0000
0000
0000
0030
0000
0301
1000
0000
0000
0100
0000
0000
0120
0000
0000
0031
0000
0000
0021
0000
0000
0130
0000
0000
,  // measure 42
2100
0000
0000
0000
3001
0000
0000
0000
0000
0000
0202
0000
0000
0000
0003
0000
0000
0000
0310
0000
0000
0000
0000
0000
2010
0000
0000
0000
0000
0000
0000
0000
0000
3002
0000
0000
0000
0000
0000
0003
0000
0000
0202
0000
0000
0000
0000
0000
,  // measure 43
0300
1003
1100
0100
0110
0000
0022
0033
,  // measure 44
2001
3010
0220
0000
0000
0330
0101
0001
,  // measure 45
2022
0000
0000
0033
0000
0000
3002
0000
0000
0200
0000
0000
0003
0000
0000
0300
0000
0010
0000
0000
1000
0001
0000
0000
,  // measure 46
0021
0000
0000
0200
0000
0000
0330
0000
0000
0000
0000
0000
0000
0000
0000
0000
0000
0000
1100
0000
4000
0000
0000
0000
,  // measure 47
3000
0000
0000
1001
0000
0000
0001
0000
0000
0100
0000
0020
0000
0030
1010
0000
0000
0000
1000
0000
0000
0001
0000
0000
,  // measure 48
0021
0130
1000
2002
0000
3003
2100
3001
,  // measure 49
0201
0000
0000
0000
0000
0000
0320
0000
0000
2030
0000
0000
3001
0000
0010
0000
0000
0000
0210
0000
0000
1300
0000
0000
,  // measure 50
2200
3300
0220
0330
0022
0033
0000
0001
,  // measure 51
1001
1100
0110
1001
1100
0022
0033
0224
,  // measure 52
0000
0000
0000
0000
0000
0000
0030
0000
0000
0000
0000
0000
0000
0000
0000
0000
0000
0000
0303
0000
0000
0100
0000
0100
,  // measure 53
1000
0000
0000
0001
0000
0000
0100
0000
0100
1000
0000
0000
2200
0000
0000
0000
0000
0000
3300
0000
0000
0100
0000
0100
,  // measure 54
0001
0000
0000
1000
0000
0000
0100
0000
0100
0001
0000
0000
0202
0000
0000
0000
0000
0000
0303
0000
0000
0001
0000
0000
,  // measure 55
0200
0000
0300
1100
0000
0000
0000
0000
0000
2002
0000
0000
3000
0000
0103
0010
0000
0000
2010
0000
0000
3001
0000
0010
,  // measure 56
0100
0000
0000
1000
0000
0000
0001
0000
0010
1000
0000
0000
2020
0000
0000
0000
0000
0000
3030
0000
0000
0010
0000
0001
,  // measure 57
1000
0000
0000
0001
0000
0000
1000
0000
0010
0001
0000
0000
0022
0000
0000
0000
0000
0000
0033
0000
0000
0001
0000
0010
,  // measure 58
1000
0000
0000
0000
0000
0000
0001
0000
0000
0000
0000
0000
0010
0000
0000
0000
0100
0000
1000
0000
0000
0000
0000
0000
2002
0000
0000
0000
0000
0000
0003
0000
0000
0000
0000
0000
0020
0000
0000
0000
0000
0000
3000
0000
0000
0030
0000
0000
,  // measure 59
0210
0301
0000
4202
0000
0000
0300
3000
,  // measure 60
1003
0000
0000
0100
0000
0000
0010
0000
0010
0100
0000
0000
2200
0000
0000
0000
0000
0000
3300
0000
0000
1000
0000
0100
,  // measure 61
0001
0000
0000
0100
0000
0000
1000
0000
0001
0100
0000
0000
0220
0000
0000
0000
0000
0000
0330
0000
0000
0010
0000
1000
,  // measure 62
0001
0000
0000
0010
0000
0000
0100
0000
1000
0001
0000
0000
0202
0000
0000
0003
0000
0000
0020
0000
0000
0300
0030
0000
,  // measure 63
2010
3001
0000
0222
0000
0000
0030
0000
,  // measure 64
0003
0000
0000
0000
0000
0000
0000
0000
0000
0000
0000
0000
0000
0000
0000
0000
0000
0000
0300
0000
0000
0000
0000
0000
0010
0000
0100
0001
0000
0000
1000
0000
0000
0100
0000
0010
0001
0000
0000
1000
0000
0000
0010
0000
0000
1000
0000
0001
,  // measure 65
0010
0000
0100
1000
0000
0000
0002
0000
0000
2003
0000
0000
0000
0000
0000
3020
0000
0000
0000
0000
0000
0230
0000
0000
0000
0000
0000
0302
0000
0000
0000
0000
0000
2003
0000
0000
0000
0000
0000
3001
0000
0000
0010
0000
0000
0100
0000
0000
,  // measure 66
0010
0000
0000
0001
0000
2000
0000
0000
0000
3010
0000
0000
0000
0000
0000
1000
0000
0001
0020
0000
0000
0130
0000
0000
2000
0000
0000
3010
0000
0200
0000
0000
0000
0301
0000
0000
0000
0000
0000
1000
0000
0000
0200
0000
0000
0310
0000
0000
,  // measure 67
0002
1003
0010
0110
0000
0000
0101
0000
0000
0000
1001
0000
0011
0000
0000
0000
,  // measure 68
1100
0000
0000
0100
0000
0000
2222
0000
0000
3330
0000
0000
0023
0000
0000
0200
0000
0000
0000
0000
0000
0330
0000
1100
,  // measure 69
0000
0000
1000
0001
0000
0000
0021
0000
0000
0230
0000
0000
1300
0000
0000
2000
0000
0000
3000
0000
0001
0200
0000
0300
,  // measure 70
0110
0000
0040
0000
0000
0000
0030
0000
0000
1000
0000
0000
1001
0000
0000
0001
0000
0021
0000
0000
0130
0000
0000
0000
,  // measure 71
1100
1000
1001
0001
0100
0220
0000
0330
,  // measure 72
2010
0000
0000
3001
0000
0000
0022
0000
0000
0003
0000
0000
0230
0000
0000
1300
0000
0000
1001
0000
0001
0000
0000
0000
,  // measure 73
0201
0310
2020
3030
0220
0330
0202
0303
,  // measure 74
0000
0001
1001
1100
0011
1001
0101
2020
,  // measure 75
3030
0000
0000
2204
0000
0000
0000
0000
0000
0000
0000
0000
0300
0000
0000
0000
0000
0000
3003
0000
0000
0000
0000
1010
,  // measure 76
0000
0000
0010
0100
0000
0000
0102
0000
0000
2003
0000
0000
3100
0000
0000
0200
0000
0310
0001
0000
0001
1000
0000
0000
,  // measure 77
1100
0000
0400
0000
0000
0000
0300
0000
0000
0110
0000
0000
0011
0000
0000
0001
0000
2001
0000
0000
3020
0000
0000
0030
,  // measure 78
0110
0100
0101
0001
1000
2200
0000
3300
,  // measure 79
0110
0000
0000
0010
0000
0000
0012
0000
0000
0000
0003
0000
2001
0000
0000
3010
0000
0000
0210
0000
0301
0000
0000
0000
,  // measure 80
2001
3100
0220
0330
0022
0033
2200
3300
,  // measure 81
0000
1001
0101
0110
0101
1001
1100
0022
,  // measure 82
0033
2202
0000
3303
2200
3300
0220
0330
,  // measure 83
0022
0000
0000
0033
0000
0000
0000
0000
0000
0000
0000
0000
2002
0000
0000
3003
0000
0000
0201
0300
0000
0220
0000
0000
,  // measure 84
0300
0000
1030
0000
0000
0000
1002
0000
0040
0000
0003
0000
0200
0000
0000
0300
0000
0000
0002
0000
0000
0003
0000
0000
,  // measure 85
0230
0300
2100
3001
0000
2202
0000
3303
,  // measure 86
2000
0000
3000
0010
0000
0200
0000
0000
0000
0300
0000
0000
0202
0000
0000
0303
0000
0000
2002
0000
0000
3003
0000
0000
,  // measure 87
1200
0000
0000
0310
0000
0001
2000
0000
0000
3000
0000
0000
2020
0000
0000
3030
0000
0000
0220
0000
0000
0330
0000
0000
,  // measure 88
0102
0000
0000
1003
0000
0000
1200
0000
0000
0310
0000
0000
0002
0000
0000
2003
0000
3000
1010
0000
0000
0010
0000
0200
,  // measure 89
0000
0000
0000
0301
0000
0000
1001
0000
0000
1000
0000
0000
0010
0000
0000
0200
0000
0000
0301
0000
0000
1000
0000
1020
,  // measure 90
0000
0000
0000
1030
0010
0100
0002
0000
0000
0003
0000
0000
2002
0000
0000
3003
0000
0000
2200
0000
0000
3300
0000
0000
,  // measure 91
0120
0000
0000
0031
0000
1000
0200
0000
0000
0300
0000
0000
0220
0000
0000
0330
0000
0000
0022
0000
0000
0033
0000
0000
,  // measure 92
2002
0000
0000
3003
0000
0000
1020
0000
0000
0130
0000
0000
0101
0000
0000
0001
0000
0000
1001
0000
0000
1000
0000
1010
,  // measure 93
0000
0000
0220
0030
0301
0000
1000
0000
0000
0000
2200
0000
0000
0000
0000
0000
,  // measure 94
3300
0000
00M0
00M0
,  // measure 95
00M0
0000
M000
M000
,  // measure 96
M000
M000
0000
0000
0M00
0000
0M00
0000
,  // measure 97
0M00
0000
000M
000M
0000
M00M
0000
0000
;

//---------------dance-single - Hard----------------
#NOTES:
     dance-single:
     Ace Of Hearts (2014):
     Hard:
     8:
     0.484,0.000,0.074,0.933,0.263:
0000
0000
0000
0000
,
M000
0000
0000
0000
0000
0000
M000
0000
0000
0000
0000
00M0
0000
0000
00M0
0000
0000
0000
0M00
0000
0000
0000
0000
0000
,
000M
0000
0000
0000
0000
0000
000M
0000
0000
0000
0000
M000
0000
0000
M000
0000
0000
0M00
0000
0000
0000
0000
0000
0000
,
00M0
0000
0000
00M0
0000
000M
0000
000M
0000
M000
0000
0000
,
00M0
0000
0000
0000
0000
0000
00M0
0000
0000
0000
M000
0000
0000
M000
0000
0000
0000
0000
0M00
0000
0000
0000
0000
0000
,
0001
0000
0000
0010
0000
0000
0200
0000
0000
1300
0000
0001
0010
0000
0010
0001
0000
0000
2000
0000
0000
3000
0000
0000
,
0001
0000
0000
0100
0000
0000
0020
0000
0000
1030
0000
0001
0100
0000
0100
0001
0000
0000
2000
0000
0000
3000
0000
0000
,
0001
0000
0000
0010
0000
0000
0200
0000
0000
0310
0000
0001
1000
0000
1000
0001
0000
0000
0200
0000
0000
0300
0000
0000
,
0010
0000
0000
1000
0000
0000
0001
0000
0000
0010
0000
0000
0100
0000
0000
0000
0000
1000
0002
0000
0000
0023
0000
0000
,
0130
0000
0000
0000
0000
1000
0001
0000
1000
0002
0000
0000
0023
0000
0000
0230
0000
0000
2300
0000
0000
3001
0000
0000
,
0000
0000
0000
0000
0000
1000
0200
0000
0000
0310
0000
0001
0010
0000
0001
0010
0000
0100
2000
0000
0000
3001
0000
0010
,
0000
0000
0000
0000
0000
0100
1000
0000
0100
1000
0000
0100
2000
0000
0000
3001
0000
0010
0200
0000
0000
1300
0000
0000
,
0002
0103
0100
0010
0020
0000
1030
0002
,
0103
0000
0000
0000
0000
0001
2000
0000
0000
3010
0000
0000
0100
0000
0001
0100
0000
0001
0200
0000
0000
0320
0000
0000
,
0030
0000
0000
0000
0000
1000
0001
0000
1000
0001
0000
1000
0001
0000
0010
0001
0000
0010
0002
0000
0000
1003
0000
0100
,
0000
0000
0000
0000
0000
0010
0200
0000
0000
1300
0000
0000
0002
0000
0000
1003
0000
0000
0010
0000
0000
1000
0000
0000
,
0002
0000
0013
0000
0100
0000
1000
0000
0002
0000
0000
0023
0000
0000
0430
0000
,
0300
1000
0002
0103
0020
0130
0002
1003
,
0100
0000
0010
0000
0001
0010
0000
0000
0200
0000
0000
2300
0000
0000
3002
0000
,
0000
0000
1003
0100
0000
0000
0010
0000
0000
0100
0000
0000
1000
0000
0000
0000
0000
0000
0002
0000
0000
0000
0000
0000
,
1003
0010
1000
0002
0000
0003
1000
0001
,
0021
0000
0000
0000
0000
0000
0200
0000
0000
0000
0000
0000
0330
0000
0000
0000
0000
0010
0000
0000
0010
0001
0000
0000
,
2000
0000
0000
3000
0000
0000
0000
0000
0000
0001
0040
0000
,
0030
0000
0000
0002
0000
0000
1003
0000
0000
0001
0000
0200
0000
0000
0310
0000
0000
0000
2000
0000
0000
3001
0000
0000
,
0020
0130
1000
2002
0000
3003
0002
0103
,
0020
0000
0000
0000
0000
0000
0230
0000
0000
0301
0000
0000
1000
0000
0100
0000
0000
0000
0010
0000
0000
0001
0000
0000
,
2000
0000
3020
0000
0230
0300
0000
0001
,
1000
0100
1000
0001
1000
0010
0000
0420
,
0000
0000
0000
0330
,
0100
0000
0000
0001
0000
0000
2000
0000
0000
3001
0000
0010
0100
0000
0100
0010
0000
0000
0002
0000
0000
0003
0000
0000
,
1000
0000
0000
0100
0000
0000
0020
0000
0000
0130
0000
1000
0001
0000
0001
1000
0000
0000
0020
0000
0000
0030
0000
0000
,
0100
0000
0000
0001
0000
0000
1000
0000
0000
0010
0000
0000
0100
0000
0000
0000
0000
0000
0001
0000
1000
0100
0000
0000
,
0020
0000
0000
0000
0000
0000
0130
0000
1000
0001
0000
1000
0002
0000
0000
0103
0000
0000
0020
0000
0000
0230
0000
0000
,
0300
0000
0000
0000
0000
0000
0001
0000
1000
0010
0000
0000
0200
0000
0000
0310
0000
0000
1000
0000
0000
0001
0000
0020
,
0000
0000
0000
0030
0000
0000
0100
0000
1000
0001
0000
1000
0002
0000
0000
0103
0000
0000
0020
0000
0000
1030
0000
0000
,
0002
0000
0000
0013
0000
0000
0100
0000
0000
1000
0000
0000
0002
0000
0000
0000
0000
0000
1003
0000
0010
0100
0000
0000
,
0002
0000
0000
0000
0000
0000
1003
0000
0100
0010
0000
0100
0020
0000
0000
0031
0000
0000
2000
0000
0000
3200
0000
0000
,
0000
0000
0000
0300
0000
0010
0001
0000
0000
1000
0000
0001
0010
0000
0000
0100
0000
0010
0002
0000
0000
1003
0000
0100
,
0000
0000
0000
0000
0000
0010
0001
0000
0000
1000
0000
0000
0020
0000
0000
1030
0000
0000
0002
0000
0000
0013
0000
0100
,
2000
0000
3002
0000
0000
0103
0000
0000
0000
0020
0000
0000
2030
0000
0000
3002
0000
0000
0023
0000
0000
0130
0000
4000
,
0000
0000
0000
0000
0000
3001
0010
0000
0000
0100
0000
0000
0020
0000
0000
0031
0000
0000
1000
0000
0000
0010
0000
0000
,
0200
0000
0000
0000
0302
0000
0000
0000
0000
0000
1003
0000
0000
0000
0000
0000
0000
0000
0100
0000
0000
0000
0000
0000
0020
0000
0000
0000
0000
0000
0000
0000
0000
0032
0000
0000
0000
0000
0000
0000
0000
0000
2003
0000
0000
0000
0000
0000
,
0000
3010
0100
0001
1000
0000
0020
0000
,
1030
0001
2000
0000
0000
3000
0010
0100
,
0102
0000
0000
0000
0000
0000
2000
0000
0000
0000
0000
0000
3003
0000
0000
0000
0000
0001
0000
0000
1000
0010
0000
0000
,
0200
0000
0000
0300
0000
0000
0000
0000
0000
0001
4000
0000
,
3000
0000
0000
0200
0000
0000
0310
0000
0000
0001
0000
2000
0000
0000
3010
0000
0000
0000
0200
0000
0000
0310
0000
0000
,
2000
3001
0010
0220
0000
0330
0200
1300
,
0002
0000
0000
0000
0000
0000
2003
0000
0000
3010
0000
0000
0100
0000
0001
0000
0000
0000
1000
0000
0000
0100
0000
0000
,
0020
0000
0230
0000
2300
0000
3000
0001
,
1000
0100
1000
0001
0010
0100
0000
4200
,
0000
0000
0000
0000
0000
0000
0000
0000
0000
0000
0000
0000
0000
0000
0000
0000
0000
0000
3300
0000
0000
1000
0000
0001
,
0010
0000
0000
0001
0000
0000
1000
0000
0010
0200
0000
0000
0302
0000
0000
0000
0000
0000
0003
0000
0000
1000
0000
0100
,
0010
0000
0000
0001
0000
0000
0010
0000
0100
2000
0000
0000
3200
0000
0000
0000
0000
0000
0300
0000
0000
0000
0000
0000
,
0020
0000
0000
0031
0000
0000
0000
0000
0000
2001
0000
0000
0000
0000
0000
3010
0000
0000
0100
0000
0000
0001
0000
2000
,
0000
3200
0320
0000
0032
0000
0023
0000
,
0030
0000
0002
0000
2003
0000
3020
0230
,
0300
0002
2003
3002
,
0203
0310
0000
2020
0000
0000
0000
0000
,
3030
2000
3002
0023
,
0030
0000
0200
0000
2300
0000
3002
0203
,
0300
0020
2030
3002
,
2003
3100
0000
0220
0000
0000
0000
0000
,
0300
0000
0000
0000
0031
0000
1000
0000
0001
0010
0001
0000
1000
0000
0010
0000
,
1000
0001
1000
0020
0000
0230
0000
0302
0000
2003
0000
3200
0000
0310
0001
0010
,
0200
0000
0000
0000
0000
2300
0000
0000
0000
3001
0000
0000
0000
0000
0000
1000
0000
0000
0002
0000
0000
0013
0000
0000
0200
0000
0000
0000
0000
2300
0000
0000
0000
3001
0000
0000
0000
0000
0000
1000
0000
0000
0001
0000
0000
0100
0000
0000
,
0001
1000
0100
0010
0000
0000
0001
0000
0000
0000
2002
0000
0000
0000
3003
0000
,
1000
0000
0000
0100
0000
0000
0221
0000
0000
0000
0300
0000
0002
0000
0000
0000
0000
0000
0033
0000
0000
0000
0000
0010
,
0000
0000
0001
1000
0000
0000
0200
0000
0000
0000
0000
0000
0300
0000
0000
0000
0000
0000
0000
0000
0000
0000
0000
0000
,
0010
0000
0004
0000
0000
0000
0003
0000
0000
1000
0000
0000
0010
0000
0000
1000
0000
0002
0000
0000
0013
0000
0000
0000
,
0100
1000
0001
0100
0010
2020
0000
3030
,
1000
0000
0000
0001
0000
0000
0020
0000
0000
0000
0000
0000
0230
0000
0000
1300
0000
0000
0001
0000
0100
0000
0000
0000
,
0010
0100
0002
0000
2003
0000
3200
0300
,
0000
0010
0001
0010
0100
1000
0100
0010
,
0000
0000
0000
0024
0000
0000
0000
0000
0000
0000
0000
0000
0000
0000
0000
0000
0000
0000
0033
0000
0000
0000
0000
0001
,
0000
0000
1000
0010
0000
0000
0200
0000
0000
0000
0000
0000
0300
0000
0000
0000
0000
0000
0000
0000
0000
0000
0000
0000
,
0001
0000
4000
0000
0000
0000
3000
0000
0000
0001
0000
0000
0010
0000
0000
0100
0000
2000
0000
0000
3002
0000
0000
0000
,
2003
3010
2000
3001
0010
0220
0000
0330
,
0200
0000
0000
1300
0000
0000
0002
0000
0000
0000
0000
0000
2003
0000
0000
3010
0000
0000
0100
0000
0001
0000
0000
0000
,
1000
0100
0020
0000
0230
0000
2300
0000
,
3000
0001
0100
0010
0100
0001
1000
0001
,
0000
0402
0000
0300
2000
3000
0200
0300
,
2000
3003
0000
0000
0002
0000
0203
0320
,
0000
2030
0000
3004
0000
0000
0000
0000
0000
0000
0000
0000
,
0003
0000
0020
0130
0000
2200
0000
0300
,
3002
0000
0000
0000
0000
0023
0000
0000
0000
0030
0000
0000
0200
0000
0000
0000
0000
0000
2300
0000
0000
0000
0000
0000
,
3002
0003
2000
3020
,
0230
0000
0000
0302
0000
0000
0003
0000
0000
1000
0000
0000
0200
0000
0000
0310
0000
0000
0100
0000
0000
1000
0000
0002
,
0000
0000
0000
0103
0000
0000
0000
0000
0000
0010
0000
0000
0200
0000
0000
0301
0000
0000
1000
0000
0000
0100
0000
0020
,
0000
0230
0000
0300
2000
0000
3002
0000
,
0023
0030
0200
2300
,
3002
0023
0030
0000
0002
0000
2003
0000
,
3020
0000
0230
0301
0000
2002
0000
0000
,
3003
0000
0M00
0M00
,
0M00
0000
000M
000M
,
0000
000M
0000
0000
0M00
0000
0M00
0000
,
0M00
0000
00M0
0000
0000
M00M
0000
0000
;

//---------------dance-single - Medium----------------
#NOTES:
     dance-single:
     Ace Of Hearts (2014):
     Medium:
     6:
     0.291,0.000,0.053,0.569,0.013:
0000
0000
0000
0000
,
0M00
0000
0M00
0000
,
000M
0000
000M
0000
,
0M00
0000
0M00
0000
,
000M
0000
000M
0000
,
1000
0100
1000
0000
0002
0000
0003
0000
,
1000
0001
1000
0000
0020
0000
0030
0000
,
0100
0001
0100
0000
0020
0000
0030
0000
,
1000
0010
1000
0000
0001
0000
0020
0000
,
0031
0000
1000
0100
1000
0000
0001
0000
,
0000
0000
1000
0000
0001
0100
0001
0000
,
1000
0000
0010
0100
0010
0000
1000
0000
,
0002
0000
0000
0000
0003
0000
0010
0100
,
0020
0000
0031
0000
1000
0100
1000
0000
,
0000
0000
0001
0010
0001
0000
2000
0000
,
3100
0000
0010
0001
0020
0000
0130
0000
,
1000
0001
1000
0000
0002
0000
0000
0103
,
0000
0000
0010
0100
0010
0000
1000
0000
,
0001
0010
0001
0000
2000
0000
0000
3100
,
0000
0000
0010
0001
0010
0000
0100
0000
,
2000
0000
0000
3002
0000
0000
1003
0000
,
2020
0000
0000
0000
3030
0000
0010
0100
,
0020
0030
0000
1000
,
0000
0000
0002
0000
0003
0000
1000
0100
,
2000
0000
0000
3001
0000
0000
0010
0100
,
0020
0000
0032
0000
1003
0000
0010
0100
,
0020
2030
3001
0000
,
0010
0100
0010
0000
0001
0000
0000
4002
,
0000
0000
0000
3003
,
1000
0010
1000
0000
0002
0000
0003
0000
,
0010
0100
0010
0000
0200
0000
0300
0000
,
1000
0001
1000
0000
0010
0000
2000
0000
,
3001
0000
0010
0100
0020
0000
0031
0000
,
0000
0000
1000
0100
2000
0000
3001
0000
,
0001
0000
1000
0010
2000
0000
3002
0000
,
0013
0100
0010
0000
0002
0000
2003
0000
,
3010
0000
0100
0000
0001
1000
0002
0000
,
0003
0000
1000
0100
1000
0000
0001
0000
,
0001
0000
1000
0001
1000
0000
0100
0000
,
0010
0000
0010
0000
0001
0010
0002
0000
,
1003
0000
0010
0100
0010
0000
2000
0000
,
3001
0000
0001
0000
0020
0000
0000
0230
,
0000
0000
1300
0001
1000
0000
0010
0000
,
1000
0001
2000
0000
3000
0000
0001
0000
,
0022
0000
0000
0000
0033
0000
0010
0100
,
0020
0030
0000
0001
,
0000
0000
2000
0000
3000
0000
0001
0100
,
0002
0000
0000
1003
0000
0000
0100
0010
,
0200
0000
2300
0000
3001
0000
1000
0010
,
2000
3002
0203
0300
,
0001
1000
0001
0000
0100
0000
0000
0240
,
0000
0000
0000
0330
,
0010
1000
0010
0000
0200
0000
0300
0000
,
0001
1000
0001
0000
0200
0000
0300
0000
,
0010
0000
0000
2000
0000
0000
3000
0000
,
0000
0002
2003
3002
,
0003
0000
2000
0000
3020
0000
0000
1030
,
0000
0002
0023
0032
,
1003
0000
0000
2020
0000
0000
0000
0000
,
3030
0020
0230
0320
,
0030
0000
2000
0000
3002
0000
0000
1003
,
0000
0200
0320
0230
,
1300
0000
0000
2002
0000
0000
0000
0000
,
3003
0000
2000
3000
0020
0030
0200
0300
,
0002
0000
0000
2003
0000
3200
0000
0320
0000
0230
0000
2300
0000
0000
3001
0000
,
0100
0001
0000
1000
0010
1000
0000
0001
,
2000
0000
0000
3001
0000
0000
0010
0000
0000
0000
0200
0000
0000
0000
0300
0000
,
1000
2002
0000
3003
,
0001
0010
0002
0000
0003
0000
0000
0000
,
1000
0000
0020
0030
,
0100
0001
0200
0000
0000
0310
0000
0000
,
1000
0001
2000
0000
3200
0000
0310
0000
,
0001
0010
0002
0000
2003
0000
3200
0300
,
0000
0000
0010
0001
0010
0000
0100
0000
,
0000
4200
0000
0000
0000
0000
3300
0000
,
1000
0001
2000
0000
3000
0000
0000
0000
,
0010
0000
2000
3000
,
0001
0010
0002
0000
0000
1003
0000
0000
,
0010
0100
0020
0000
2030
0000
3001
0000
,
0010
0100
0020
0000
0032
0000
2003
3000
,
0000
0000
0010
1000
0010
0000
0100
0000
,
0000
0102
0000
0000
1000
0000
1000
0000
,
2003
3000
0002
0023
,
0000
0031
0000
0000
0020
0000
0230
0000
,
0320
0000
0031
0000
0000
2001
0000
0000
,
3020
0030
0200
0320
,
0230
0300
0002
0203
,
0000
0301
0000
0000
2000
0000
3200
0000
,
2300
0000
3100
0000
0000
0220
0000
0000
,
0000
0330
0020
0032
,
0023
0030
0002
2003
,
0000
3001
0000
0000
2000
0000
3002
0000
,
2003
0000
0000
3001
0000
2002
0000
0000
,
3003
0000
0000
0M00
,
0M00
0000
0000
000M
,
0000
000M
0000
0000
0000
0000
M000
0000
,
M000
0000
M000
0000
0000
M00M
0000
0000
;

//---------------dance-single - Easy----------------
#NOTES:
     dance-single:
     Ace Of Hearts (2014):
     Easy:
     4:
     0.189,0.000,0.053,0.241,0.002:
0000
0000
0000
0000
,
000M
0000
0000
0000
,
00M0
0000
0000
0000
,
0M00
0000
0000
0000
,
M000
0000
0000
0000
,
0001
0001
0002
0003
,
1000
1000
2000
3000
,
0100
0100
0200
0300
,
0020
0000
0030
0002
,
0003
1000
1000
1000
,
0000
0010
0010
0010
,
0010
1000
1000
1000
,
2000
0000
3000
0002
,
0003
0010
0010
0010
,
0000
0100
0100
0100
,
0100
1000
1000
1000
,
2000
0000
0000
0000
3002
0000
0000
0003
,
0000
0100
0100
0100
,
0010
0000
0010
0000
0020
0000
0000
0030
,
0000
1000
1000
1000
,
2000
0000
0000
3000
0000
0000
0001
0000
,
2002
0000
3003
1000
,
1000
0000
0000
0010
,
0000
0100
0100
0100
,
0200
0000
0000
0300
0000
0000
0000
0000
,
0001
0001
0001
0000
,
1000
1000
1000
0000
,
0010
0000
0010
0000
0010
0000
0000
0420
,
0000
0000
0000
0330
,
0100
0100
0200
0300
,
0001
0001
0002
0003
,
2000
0000
3000
0200
,
0300
0010
0010
0010
,
0000
0001
0001
0001
,
0001
1000
1000
1000
,
2000
0000
3000
0020
,
0030
0100
0100
0100
,
0000
0001
0001
0001
,
0001
1000
1000
1000
,
2000
3000
0100
0100
,
0100
0010
0010
0010
,
0020
0030
0001
0001
,
0001
1000
1000
1000
,
2000
3000
0000
0010
,
0220
0000
0330
0100
,
0100
0000
0000
0001
,
0000
1000
1000
1000
,
2000
0000
0000
3000
0000
0000
0000
0000
,
0010
0010
0010
0000
,
0100
0100
0100
0000
,
0001
0000
0001
0000
0001
0000
0000
4002
,
0000
0000
0000
3003
,
1000
1000
2000
3000
,
0100
0100
0200
0300
,
0010
0000
0000
0020
0000
0000
0030
0000
,
0000
0001
0001
0001
,
0000
0000
1000
0000
2000
0000
0000
3000
,
0000
0010
0010
0010
,
0010
0000
0000
0220
0000
0000
0000
0000
,
0330
0100
0100
0100
,
0000
0000
0001
0000
0002
0000
0000
0003
,
0000
1000
1000
1000
,
1000
0000
0000
2200
0000
0000
0000
0000
,
3300
1000
1000
0001
,
0001
0000
0020
0000
0000
0000
0030
0001
,
0001
0001
0000
1000
1000
1000
0000
0010
,
0010
0000
0000
1000
0000
0000
1000
0000
0000
0000
2000
0000
0000
0000
3000
0000
,
0001
2002
0000
3003
,
1000
1000
0000
0000
,
0100
0000
0010
0010
,
0010
0000
0020
0000
0000
0030
0000
0000
,
0000
0001
0001
0001
,
0000
1000
1000
1000
,
0000
0001
0001
0001
,
0000
0042
0000
0000
0000
0000
0033
0000
,
0010
0010
0000
0000
,
0100
0000
1000
1000
,
1000
0000
2000
0000
0000
3000
0000
0000
,
0000
0001
0001
0001
,
0000
0100
0100
0100
,
0000
0010
0010
0010
,
0000
2020
0000
0000
0000
0000
0000
0000
,
3030
0000
1000
2000
,
0000
3000
0000
0000
0001
0000
0001
0000
,
0001
0000
0001
0000
0000
0202
0000
0000
,
0000
0303
0100
0100
,
0100
0000
0010
0020
,
0000
0030
0000
0000
1000
0000
1000
0000
,
1000
0000
1000
0000
0000
2200
0000
0000
,
0000
3300
0100
0100
,
0100
0000
0010
0020
,
0000
0030
0000
0000
0001
0000
0001
0000
,
0001
0000
0001
0000
0000
2002
0000
0000
,
3003
0000
0000
0M00
,
0000
0000
0000
00M0
,
0000
00M0
0000
0000
0000
0000
0M00
0000
,
0000
0000
00M0
0000
0000
00M0
0000
0000
;

//---------------dance-single - Novice----------------
#NOTES:
     dance-single:
     Ace Of Hearts (2014):
     Beginner:
     2:
     0.127,0.000,0.053,0.285,0.000:
0000
0000
0000
0000
,
0M00
0000
0000
0000
,
00M0
0000
0000
0000
,
0M00
0000
0000
0000
,
00M0
0000
0000
0000
,
2000
0000
3000
0000
,
0002
0000
0003
0000
,
0020
0000
0030
0000
,
0200
0000
0300
1000
,
0000
1000
0000
1000
,
0000
0000
0001
0000
,
0001
0000
0010
0000
,
0020
0000
0030
0100
,
0000
0100
0000
0100
,
0000
0000
1000
0000
,
1000
0000
0001
0000
,
0001
0000
0002
0000
,
0003
0000
1000
0000
,
1000
0000
2000
0000
,
3000
0000
0100
0000
,
0200
0000
0300
0000
,
0220
0000
0330
0010
,
0000
0000
0000
0001
,
0000
0001
0000
0002
,
0000
0000
0003
0000
,
1000
0000
1000
0000
,
2000
0000
3000
0000
,
0001
0000
0001
0000
,
2002
0000
3003
0000
,
2000
0000
3000
0000
,
0020
0000
0030
0000
,
0200
0000
0300
0001
,
0000
0001
0000
0001
,
0000
1000
0000
0000
,
1000
0000
0100
0000
,
0200
0000
0300
0010
,
0000
0010
0000
0010
,
0000
0000
0001
0000
,
0001
0000
1000
0000
,
1000
0000
0010
0000
,
0010
0000
0100
0000
,
0100
0000
0002
0000
,
0003
0000
1000
0000
,
2000
0000
3000
0000
,
2002
0000
3003
0001
,
0000
0000
0000
1000
,
0000
1000
0000
2000
,
0000
0000
3000
0000
,
0010
0000
0010
0000
,
0020
0000
0030
0000
,
0100
0000
0100
0000
,
0220
0000
0330
0000
,
0100
0000
0100
0000
,
0001
0000
0001
0000
,
2000
0000
3000
0000
,
0000
0002
0000
0003
,
0000
0020
0000
0030
,
0000
0200
0000
0300
,
1000
0000
2002
0000
,
3003
0002
0000
0003
,
0000
0200
0000
0300
,
0000
0020
0000
0030
,
1000
0000
2002
0000
,
3003
0002
0003
2000
,
3000
0200
0000
0300
,
0010
0000
0001
0000
,
2000
0000
0000
3000
,
0000
2002
0000
3003
,
0001
0000
0000
0000
,
1000
0000
1000
0000
,
2000
0000
0000
3000
,
0000
0010
0000
0010
,
0000
0020
0000
0030
,
0000
0100
0000
0100
,
0000
0220
0000
0330
,
0010
0000
0000
0000
,
1000
0000
1000
0000
,
2000
0000
0000
3000
,
0000
0001
0000
0001
,
0000
0002
0000
0003
,
0000
0010
0000
0010
,
0000
0220
0000
0000
,
0330
0000
0200
0000
,
0300
0000
2000
0000
,
3000
0100
0000
0220
,
0000
0330
0020
0000
,
0030
0000
0002
0000
,
0003
0000
2000
0000
,
3000
0010
0000
0220
,
0000
0330
0200
0000
,
0300
0000
0002
0000
,
0003
0000
2000
0000
,
3000
0001
0000
2002
,
3003
0000
0000
00M0
,
0000
0000
0000
00M0
,
0000
0000
0000
0M00
,
0000
0M00
0000
0000
;
