#TITLE:I Wanna Be Like a Star;
#SUBTITLE:;
#ARTIST:Kicco;
#TITLETRANSLIT:;
#SUBTITLETRANSLIT:;
#ARTISTTRANSLIT:;
#GENRE:J-Pop;
#CREDIT:Ace Of Hearts;
#BANNER:I Wanna Be Like a Star - Bn.png;
#BACKGROUND:I Wanna Be Like a Star - Bg.png;
#LYRICSPATH:;
#CDTITLE:Ace Of Hearts.png;
#MUSIC:I Wanna Be Like a Star.ogg;
#OFFSET:0.755;
#SAMPLESTART:59.500;
#SAMPLELENGTH:12.000;
#SELECTABLE:YES;
#BPMS:0.000=175.000,172.000=87.500,174.000=175.000;
#STOPS:;
#BGCHANGES:2.000=Sekai to Sekai OP.avi=1.000=1=0=1===CrossFade==,
307.500=Like a Star - Bg.png=1.000=0=0=0=StretchNoLoop====,
99999=-nosongbg-=1.000=0=0=0 // don't automatically add -songbackground-
;
#KEYSOUNDS:;

//---------------dance-single - Expert----------------
#NOTES:
     dance-single:
     Ace Of Hearts (2014):
     Challenge:
     10:
     0.810,0.284,0.795,1.000,0.102: // measure 1
0000
0000
0000
0000
,  // measure 2
0201
0320
2030
3001
,  // measure 3
0021
0000
0000
0000
0130
0000
2000
0000
0000
0000
3001
0000
1000
0100
0010
0000
,  // measure 4
0012
0000
0000
0000
2003
0000
0000
0000
3020
0000
0000
0000
0230
0000
0000
0300
,  // measure 5
0102
0000
0000
0000
1003
0000
0200
0000
0310
0000
0001
0000
0010
0100
1000
0000
,  // measure 6
1002
0000
0103
0110
0000
1010
0000
1004
,  // measure 7
0000
0000
0003
0000
2000
0000
0000
0000
3200
0000
0000
0000
0310
0001
0010
0000
,  // measure 8
0210
0000
0000
0000
0000
0000
0000
0000
0000
0000
0000
0000
0000
0000
0000
0000
1000
0000
0000
0000
0000
0000
0000
0000
0000
0000
0000
0000
0000
0000
0000
0000
0010
0000
0000
0000
0000
0000
0000
0000
1000
0000
0000
0000
0000
0000
0000
0300
0400
0000
0000
0000
0000
0000
0000
0000
0001
0000
0000
0000
0000
0000
0000
0000
,  // measure 9
0000
0000
1000
0000
0300
0000
2002
0000
0000
0000
0000
0000
3000
0000
0103
0010
,  // measure 10
1000
0000
1001
0000
0011
0010
0000
0110
,  // measure 11
0000
0000
0100
0000
0000
0000
2100
0000
0000
0000
0000
0000
0000
0000
3001
0010
,  // measure 12
0100
0000
1100
0000
1001
0001
0000
0101
,  // measure 13
0000
0000
0100
0000
0000
0000
0120
0000
0000
0000
0000
0000
0000
0000
1030
0001
,  // measure 14
0010
0000
0110
0000
1100
1000
0000
1001
,  // measure 15
0000
0101
0000
2010
0000
3001
0010
0100
,  // measure 16
2000
0000
0000
0000
0000
0000
0000
0000
0000
0000
0000
0000
3001
0010
0100
0010
,  // measure 17
0002
1003
0000
1100
0000
0200
0310
0001
,  // measure 18
2001
0000
3010
0100
0040
0000
1030
0002
,  // measure 19
0003
0020
0030
0400
0000
0300
0000
1000
,  // measure 20
0002
0000
0013
0200
0000
0310
0000
0022
,  // measure 21
0000
0000
0000
0000
0000
0000
0000
0000
0030
0000
0000
0000
0000
0000
0000
0000
2003
0000
0000
0000
0000
0000
0000
0000
0200
0000
0000
0000
0000
0000
0000
0000
0000
0000
0000
0000
0000
0000
0000
0300
0400
0000
0000
0000
0000
0000
0000
0000
0000
0000
0000
0000
0000
0000
0000
0000
3300
0000
0000
0000
0000
0000
0000
0000
,  // measure 22
0120
0000
0031
1000
0040
0000
0130
0002
,  // measure 23
0000
1003
0000
2400
0000
3300
0000
0100
,  // measure 24
0120
0000
0031
2000
0000
3001
0100
0020
,  // measure 25
0000
0000
0000
0000
0000
0000
0000
0000
0000
0000
0000
0000
0000
0000
0000
0000
0000
0000
0000
0000
0000
0000
0000
0030
0040
0000
0000
0000
0000
0000
0000
0000
0000
0000
0000
0000
0000
0000
0000
0000
0000
0000
0000
0000
0000
0000
0000
0000
1030
0000
0000
0000
0001
0000
0000
0000
0010
0000
0000
0000
0000
0000
0000
0000
,  // measure 26
0210
0000
1300
0001
0200
0000
0310
2010
,  // measure 27
0000
3001
0000
0402
0000
0303
0000
0100
,  // measure 28
0120
0000
0000
0000
1030
0000
0002
0000
0000
0000
0023
0000
0000
0030
0220
0000
,  // measure 29
0000
0000
0000
0000
0000
0000
0000
0000
0030
0000
0000
0000
0000
0000
0000
0000
2300
0000
0000
0000
0000
0000
0000
0000
0002
0000
0000
0000
0000
0000
0000
0000
0000
0000
0000
0000
0000
0000
0000
0003
0004
0000
0000
0000
0000
0000
0000
0000
0000
0000
0000
0000
0000
0000
0000
0000
3003
0000
0000
0000
0000
0000
0000
0000
,  // measure 30
0201
0000
0310
1000
0002
0000
0023
0230
,  // measure 31
0000
1300
0100
0020
0000
0030
0000
0100
,  // measure 32
2100
0000
3001
0020
0000
0031
1000
0200
,  // measure 33
0000
0000
0000
0000
0000
0000
0000
0000
0000
0000
0000
0000
0000
0000
0000
0300
0400
0000
0000
0000
0000
0000
0000
0000
0000
0000
0000
0000
0000
0000
0000
0000
0000
0000
0000
0000
0000
0000
0000
0000
0000
0000
0000
0000
0000
0000
0000
0000
0310
0000
0000
0000
0000
0000
0000
0000
0001
0000
0000
0000
0010
0000
0000
0000
,  // measure 34
0200
0000
0000
0000
0000
1300
0001
0010
,  // measure 35
0100
0000
1000
0002
0000
0000
1003
0000
,  // measure 36
1020
0000
0130
0202
0303
2002
3003
2400
,  // measure 37
0000
0000
0000
0000
3000
0000
0000
0000
0310
0000
0001
0000
1000
0010
0100
0000
,  // measure 38
0102
0000
0000
0000
0000
0000
0000
0000
0000
0000
0000
0000
0000
0000
0000
0000
0000
0000
0000
0000
0000
0000
0000
0003
0004
0000
0000
0000
0000
0000
0000
0000
0000
0000
0000
0000
0000
0000
0000
0000
1003
0000
0000
0000
0000
0000
0000
0000
0100
0000
0000
0000
0000
0000
0000
0000
0010
0000
0000
0000
0000
0000
0000
0000
,  // measure 39
0200
0000
1300
0002
0000
0000
0003
0000
,  // measure 40
0201
0000
0310
2000
0000
3000
0000
0001
,  // measure 41
0021
0000
0000
0000
0130
0000
4000
0000
0000
0000
3000
0000
0000
0000
0001
0100
,  // measure 42
0020
0000
1030
0002
0000
2003
0200
0020
,  // measure 43
0000
0000
0000
0000
0000
0000
0000
0000
0030
0000
3300
0000
1000
0100
0020
0000
,  // measure 44
0000
0000
0130
0000
1000
0000
0100
0000
0040
0000
0000
0030
0222
0330
0000
0003
2001
0000
0000
0000
0000
0000
0000
0000
0020
0000
3000
0000
0002
0000
0000
0000
,  // measure 45
0000
0030
2000
0000
0000
0003
0200
0000
0000
0000
0000
3000
0002
0000
0000
0300
,  // measure 46
2003
0000
0000
0000
0000
0000
0000
0000
0020
0000
0000
0000
0000
0000
0000
0000
0000
0000
0000
0000
0000
0000
0000
0000
0002
0000
0000
0000
0000
0000
0000
0000
0000
0000
0000
0000
0000
0000
0000
0000
0000
0000
0000
0000
0000
0000
0000
0003
0004
0000
0000
0000
0000
0000
0000
0000
0000
0000
0000
0000
0000
0000
0000
0000
,  // measure 47
0000
3033
0000
1000
0020
0000
0130
0002
,  // measure 48
0000
0000
0000
0000
0000
0000
0000
0000
2003
0000
0000
0000
0000
0000
0000
0000
0000
0000
0000
0000
3000
0000
0000
0000
2200
0000
0000
0000
0000
0000
0000
0000
0000
0000
0000
0000
0000
0000
0000
0300
0400
0000
0000
0000
0000
0000
0000
0000
3000
0000
0000
0000
0000
0000
0000
0000
0000
0000
0000
0000
0000
0000
0000
0000
,  // measure 49
0320
0000
0000
0030
0012
0000
1003
0200
,  // measure 50
0000
0300
0000
0010
0012
0000
2003
0000
,  // measure 51
3200
0000
0320
0000
2030
3010
0001
2000
,  // measure 52
3010
0000
0100
0000
0001
0100
0010
0000
2010
0000
0000
0000
0002
3000
0020
0000
,  // measure 53
0000
0003
2000
0000
0000
0030
0002
0000
0000
0000
0000
3000
0200
0000
0000
0003
,  // measure 54
2300
0000
0000
0000
0000
0000
0000
0000
0000
0000
0000
0000
0000
0000
0000
0000
0002
0000
0000
0000
0000
0000
0000
0000
0020
0000
0000
0000
0000
0000
0000
0000
0000
0000
0000
0000
0000
0000
0000
0000
0000
0000
0000
0000
0000
0000
0000
0000
0000
0000
0000
0000
0000
0000
0000
0030
0040
0000
0000
0000
0000
0000
0000
0000
,  // measure 55
0000
3033
0000
0001
2000
0000
3002
0000
,  // measure 56
0023
0002
2000
0000
,  // measure 57
3033
0000
0001
1000
1200
0000
0310
0002
,  // measure 58
0000
0003
2001
3020
,  // measure 59
0230
0000
0302
0000
1003
0010
0001
0020
,  // measure 60
1030
0000
0001
0000
0010
0100
1000
0000
2002
0000
3003
0000
0202
0000
0303
0000
,  // measure 61
0220
0330
2020
3030
2002
3000
0023
0200
,  // measure 62
0030
0000
0300
0000
2200
3300
2002
3003
,  // measure 63
0202
0303
0220
0330
2020
0030
3002
0020
,  // measure 64
0003
0000
0000
0000
0130
0000
1000
0001
0200
0000
0000
0000
0310
0000
2020
0000
,  // measure 65
3030
2002
3003
0402
0303
0000
0200
0000
,  // measure 66
0320
0000
1030
0001
2001
0000
0010
0000
,  // measure 67
0010
0000
0000
0000
0000
0000
0000
0000
0001
0000
0000
0000
0000
0000
0000
3000
4000
0000
0000
0000
0000
0000
0000
0000
0100
0000
0000
0000
0000
0000
0000
0000
0000
0000
0000
0000
0000
0000
0000
0000
0001
0000
0000
0000
0000
0000
0000
0000
0000
0000
0000
0000
0000
0000
0000
0000
0020
0000
0000
0000
0000
0000
0000
0000
,  // measure 68
3000
0000
0000
0000
0130
0000
0001
1000
0100
0000
0000
0000
0110
0000
0000
0000
,  // measure 69
0011
0001
0000
1001
0000
1000
0000
1200
,  // measure 70
0000
0000
0000
0000
0310
0000
0001
0010
0100
0000
0000
0000
1100
0000
0000
0000
,  // measure 71
1001
0001
0000
0101
0000
0100
0000
0220
,  // measure 72
0000
0000
0300
0000
1030
0000
0001
0010
0100
0000
0000
0000
1100
0000
0000
0000
,  // measure 73
1001
0001
0000
0101
0000
0110
0000
2010
,  // measure 74
0000
3001
0010
0001
2002
0000
0000
0000
,  // measure 75
0003
0000
0000
0000
3010
0100
0001
0000
2001
0000
3100
0000
0000
0000
0110
0000
,  // measure 76
0000
0000
0020
0030
0011
0000
0001
0000
1001
0000
1000
0000
0010
0000
0110
0000
,  // measure 77
0100
0001
1001
2002
0000
0000
0000
3003
;

//---------------dance-single - Hard----------------
#NOTES:
     dance-single:
     Ace Of Hearts (2014):
     Hard:
     8:
     0.551,0.284,0.028,1.000,0.009: // measure 1
0000
0000
0000
0000
,  // measure 2
2000
3020
0230
0302
,  // measure 3
2003
0000
3010
0200
0000
0000
0300
0000
,  // measure 4
0002
2003
3200
0320
,  // measure 5
0032
0000
0013
0200
0000
0000
0300
0000
,  // measure 6
2000
0000
3001
0010
0000
0100
0000
4000
,  // measure 7
0000
3000
0002
0000
0203
0000
0301
1000
,  // measure 8
0002
0000
0013
0000
0100
1000
0000
0001
,  // measure 9
0000
1000
0000
0020
0000
0000
0000
0000
,  // measure 10
1030
0000
0010
0000
0100
0001
0000
1000
,  // measure 11
0000
0010
0000
0200
0000
0000
0000
0000
,  // measure 12
0301
0000
1000
0000
0001
0010
0000
0100
,  // measure 13
0000
1000
0000
0002
0000
0000
0000
0000
,  // measure 14
0103
0000
0001
0000
1000
0100
0000
0010
,  // measure 15
0000
0100
0000
2000
0000
3001
0100
0001
,  // measure 16
2000
0000
0000
0000
,  // measure 17
3001
0100
0000
0010
0000
1000
0010
1000
,  // measure 18
0002
0000
0013
0100
4000
0000
3001
2000
,  // measure 19
0000
3020
0000
0430
0000
0300
0000
0001
,  // measure 20
2000
0000
3100
0020
0000
0032
0000
2003
,  // measure 21
0000
0000
0000
0000
0000
0000
0000
0000
0000
0000
0000
0000
0000
0000
0000
0000
3010
0000
0000
0000
0000
0000
0000
0000
0200
0000
0000
0000
0000
0000
0000
0000
0000
0000
0000
0000
0000
0000
0000
0300
0400
0000
0000
0000
0000
0000
0000
0000
0000
0000
0000
0000
0000
0000
0000
0000
0000
0000
0000
0000
0000
0000
0000
0000
,  // measure 22
0300
0000
0001
1000
0040
0000
1030
0002
,  // measure 23
0000
0023
0000
0430
0000
0300
0000
1000
,  // measure 24
0200
0000
0310
0002
0000
1003
0100
2000
,  // measure 25
0000
0000
0000
0000
0000
0000
0000
0000
0000
0000
0000
0000
0000
0000
0000
0000
0000
0000
0000
0000
0000
0000
0000
3000
4000
0000
0000
0000
0000
0000
0000
0000
0000
0000
0000
0000
0000
0000
0000
0000
0000
0000
0000
0000
0000
0000
0000
0000
3000
0000
0000
0000
0000
0000
0000
0000
0000
0000
0000
0000
0000
0000
0000
0000
,  // measure 26
0002
0000
1003
0010
2000
0000
3001
0020
,  // measure 27
0000
0230
0000
4300
0000
3000
0000
0001
,  // measure 28
0200
0000
0310
2000
0000
3002
0000
0023
,  // measure 29
0000
0000
0000
0000
0000
0000
0000
0000
0000
0000
0000
0000
0000
0000
0000
0000
0130
0000
0000
0000
0000
0000
0000
0000
2000
0000
0000
0000
0000
0000
0000
0000
0000
0000
0000
0000
0000
0000
0000
3000
4000
0000
0000
0000
0000
0000
0000
0000
0000
0000
0000
0000
0000
0000
0000
0000
0000
0000
0000
0000
0000
0000
0000
0000
,  // measure 30
3000
0000
0002
0000
0203
0000
0310
2000
,  // measure 31
0000
3001
0100
0020
0000
0030
0000
1000
,  // measure 32
0002
0000
0013
0200
0000
1300
0100
0020
,  // measure 33
0000
0000
0000
0000
0000
0000
0000
0000
0000
0000
0000
0000
0000
0000
0000
0030
0040
0000
0000
0000
0000
0000
0000
0000
0000
0000
0000
0000
0000
0000
0000
0000
0000
0000
0000
0000
0000
0000
0000
0000
0000
0000
0000
0000
0000
0000
0000
0000
0030
0000
0000
0000
0000
0000
0000
0000
0000
0000
0000
0000
0000
0000
0000
0000
,  // measure 34
0002
0000
0000
0000
0000
1003
0100
0010
,  // measure 35
0200
0000
1300
0002
0000
0000
0003
0000
,  // measure 36
2000
0000
3010
0100
0000
0001
0000
0400
,  // measure 37
0000
0000
0300
0000
,  // measure 38
0020
0000
0000
0000
0000
0000
0000
0000
0000
0000
0000
0000
0000
0000
0000
0000
0000
0000
0000
0000
0000
0000
0000
0030
0040
0000
0000
0000
0000
0000
0000
0000
0000
0000
0000
0000
0000
0000
0000
0000
1030
0000
0000
0000
0000
0000
0000
0000
0001
0000
0000
0000
0000
0000
0000
0000
0010
0000
0000
0000
0000
0000
0000
0000
,  // measure 39
0002
0000
1003
0200
0000
0000
0300
0000
,  // measure 40
0020
0000
0130
2000
0000
3000
0000
0001
,  // measure 41
0020
0000
0031
4000
0000
3000
0000
0001
,  // measure 42
0200
0000
0310
2000
0000
3001
0020
0200
,  // measure 43
0000
0000
0000
0000
0000
0330
0000
0200
,  // measure 44
0000
1300
0001
1000
0004
0000
0003
0000
2000
0000
0000
0000
3010
0000
0200
0000
,  // measure 45
0000
0302
0000
2003
0000
0000
3200
0000
,  // measure 46
0310
0000
0000
0000
0000
0000
0000
0000
0001
0000
0000
0000
0000
0000
0000
0000
0000
0000
0000
0000
0000
0000
0000
0000
2002
0000
0000
0000
0000
0000
0000
0000
0000
0000
0000
0000
0000
0000
0000
0000
0000
0000
0000
0000
0000
0000
0000
3000
4000
0000
0000
0000
0000
0000
0000
0000
0000
0000
0000
0000
0000
0000
0000
0000
,  // measure 47
0000
3003
0000
1000
0020
0000
0130
0002
,  // measure 48
0000
0000
0000
0000
0000
0000
0000
0000
2003
0000
0000
0000
0000
0000
0000
0000
0000
0000
0000
0000
0000
0000
0000
0000
3200
0000
0000
0000
0000
0000
0000
0000
0000
0000
0000
0000
0000
0000
0000
0300
0400
0000
0000
0000
0000
0000
0000
0000
0000
0000
0000
0000
0000
0000
0000
0000
0000
0000
0000
0000
0000
0000
0000
0000
,  // measure 49
0320
0000
0000
0000
0032
0000
1003
0020
,  // measure 50
0000
0030
0000
1000
0002
0000
0023
0000
,  // measure 51
0230
0000
2300
0000
3001
0100
0001
2000
,  // measure 52
0000
0000
3000
0000
0002
0000
0013
0200
,  // measure 53
0000
2300
0000
3002
0000
0000
0203
0000
,  // measure 54
0320
0000
0000
0000
0000
0000
0000
0000
0000
0000
0000
0000
0000
0000
0000
0000
1030
0000
0000
0000
0000
0000
0000
0000
0002
0000
0000
0000
0000
0000
0000
0000
0000
0000
0000
0000
0000
0000
0000
0000
0000
0000
0000
0000
0000
0000
0000
0000
0000
0000
0000
0000
0000
0000
0000
0003
0004
0000
0000
0000
0000
0000
0000
0000
,  // measure 55
0000
0003
0000
1000
0020
0000
0230
0000
,  // measure 56
0302
0000
0000
0000
2003
0000
0000
3000
2020
0000
0000
0000
0000
0000
0000
0000
,  // measure 57
3030
0000
0010
0100
0002
0000
1003
0020
,  // measure 58
0000
0030
2000
3002
,  // measure 59
0023
0000
0230
0000
0310
0001
0010
0200
,  // measure 60
0000
0300
2000
3002
,  // measure 61
0203
0000
0320
0000
2030
0000
3001
0200
,  // measure 62
0000
0300
0002
2003
,  // measure 63
3200
0000
0320
0000
0032
0000
1003
0020
,  // measure 64
0000
0000
0030
0000
2000
0000
3001
0010
,  // measure 65
0000
0100
0000
4000
3000
0000
0002
0000
,  // measure 66
0203
0000
0301
1000
0020
0000
1030
0000
,  // measure 67
0001
0010
0000
0100
0000
1000
0000
0002
,  // measure 68
0000
0000
1003
0100
,  // measure 69
0010
0001
0000
1000
0000
0010
0000
0200
,  // measure 70
0000
0000
0301
1000
,  // measure 71
0001
0010
0000
0100
0000
1000
0000
0002
,  // measure 72
0000
0000
1003
0010
,  // measure 73
0100
0001
0000
1000
0000
0001
0000
0200
,  // measure 74
0000
0310
1000
0001
0020
0000
0000
0000
,  // measure 75
0000
0000
0000
0000
0031
1000
0000
0100
,  // measure 76
0000
2000
0000
0000
3001
0000
0000
1001
,  // measure 77
0000
0000
2000
0002
0000
0000
0000
3003
;

//---------------dance-single - Medium----------------
#NOTES:
     dance-single:
     Ace Of Hearts (2014):
     Medium:
     6:
     0.313,0.107,0.000,0.472,0.000:
0000
0000
0000
0000
,
0001
0010
0001
0000
,
1000
0000
0000
2000
0000
0000
3000
0000
,
0010
0100
0010
0000
,
0100
0000
0000
0200
0000
0000
0300
0000
,
0002
0000
0000
1003
0000
0100
0000
1000
,
0000
0001
0010
0001
,
0020
0000
0000
0000
,
0000
0030
0000
0000
,
0001
0000
1000
0000
0001
0000
0000
1000
,
0000
0100
0000
2000
0000
0000
0000
0000
,
3001
0000
0100
0000
0001
0000
0000
1000
,
0000
0010
0000
2000
0000
0000
0000
0000
,
3010
0000
0100
0000
0010
0000
0000
0100
,
0000
0001
0000
0200
0000
0000
0301
0000
,
2000
0000
0000
0000
,
3001
0000
0000
1000
0000
0200
0000
0000
,
0300
0000
0010
0000
0010
0000
0000
0001
,
0000
0010
0000
0004
0000
0000
0003
0000
,
1000
0000
0000
1000
0000
0000
0000
0100
,
0000
0000
0000
0400
0000
0000
0000
0000
,
0300
0000
1000
0000
1000
0000
0000
0001
,
0000
0100
0000
0004
0000
0003
0000
0000
,
0100
0000
0000
0200
0000
0000
0000
0320
,
0000
0000
0000
0000
0000
0000
0000
0000
0000
0000
0000
0000
0000
0000
0000
0000
0000
0000
0000
0000
0000
0000
0000
0030
0040
0000
0000
0000
0000
0000
0000
0000
0000
0000
0000
0000
0000
0000
0000
0000
0000
0000
0000
0000
0000
0000
0000
0000
0030
0000
0000
0000
0000
0000
0000
0000
0000
0000
0000
0000
0000
0000
0000
0000
,
0000
0000
1000
0000
1000
0000
0000
0001
,
0000
0010
0000
0004
0000
0003
0000
0000
,
1000
0000
0000
1000
0000
0000
0000
0100
,
0000
0000
0000
0400
0000
0000
0000
0000
,
0300
0000
0010
0000
0010
0000
0000
0001
,
0000
0010
0000
0002
0000
0003
0000
0000
,
2000
0000
0000
3010
0000
0100
0000
0020
,
0000
0000
0000
0000
0000
0000
0000
0000
0000
0000
0000
0000
0000
0000
0000
0030
0040
0000
0000
0000
0000
0000
0000
0000
0000
0000
0000
0000
0000
0000
0000
0000
0000
0000
0000
0000
0000
0000
0000
0000
0000
0000
0000
0000
0000
0000
0000
0000
0030
0000
0000
0000
0000
0000
0000
0000
0000
0000
0000
0000
0000
0000
0000
0000
,
2000
0000
0000
3001
,
0100
0000
0000
0200
0000
0000
0300
0000
,
0020
0000
0000
1030
0000
0001
0000
4000
,
0000
0000
3000
0000
,
0002
0000
0000
0013
,
0100
0000
0000
0200
0000
0000
0300
0000
,
1000
0000
0000
2000
0000
3000
0000
0000
,
0001
0000
0000
0004
0000
0003
0000
0000
,
0100
0000
0000
0100
0000
0010
0000
0200
,
0000
0000
0000
0000
0000
0300
0000
0002
,
0000
1003
4000
3000
0200
0000
0000
0310
,
0000
0010
0000
0002
0000
0000
1003
0000
,
1000
0000
0000
0002
0000
0000
0000
0000
,
0000
0003
0000
0000
2000
0000
0000
3010
,
0000
0100
0000
0040
0000
0000
0030
0000
,
0200
0000
0000
0000
0301
0000
0000
0002
,
0000
0003
0000
0000
1000
0000
0010
0000
,
1000
0000
0000
0000
0001
0000
0000
0002
,
0000
0000
0003
0000
0020
0000
0000
0130
,
0000
0010
0000
0200
0000
0000
1300
0000
,
1000
0000
0000
0000
0000
0000
0000
0000
0000
0000
0000
0000
0000
0000
0000
0000
0000
0000
0000
0000
0000
0000
0000
0000
0002
0000
0000
0000
0000
0000
0000
0000
0000
0000
0000
0000
0000
0000
0000
0000
0000
0000
0000
0000
0000
0000
0000
0000
0000
0000
0000
0000
0000
0000
0000
0003
0004
0000
0000
0000
0000
0000
0000
0000
,
0000
0003
0000
0000
2000
0000
3200
0000
,
0320
0032
2000
0000
,
3003
0000
1000
0000
0010
0000
0000
0020
,
0000
0030
0100
0001
,
0200
0000
0000
0000
0310
0000
0000
0020
,
0000
0030
1000
0001
,
1000
0000
0000
0000
0100
0000
0000
0200
,
0000
0300
0000
0000
0010
0000
0100
0000
,
0010
0000
0000
0000
0001
0000
0000
0002
,
0000
0003
0000
0000
2000
0000
0000
3001
,
0000
0100
0000
0001
0000
0000
1000
0000
,
0100
1000
0200
0000
,
0000
0000
0000
0000
,
0300
0000
0010
0001
,
0010
0000
0000
0001
0000
1000
0000
0002
,
0000
0000
1003
0010
,
1000
0000
0000
0010
0000
0100
0000
0020
,
0000
0000
1030
0001
,
1000
0000
0000
0001
0000
0010
0000
0002
,
0000
1003
0020
0000
,
0000
0000
0000
0000
1030
0000
0000
0001
,
0000
0200
0000
0000
0310
0000
0000
1000
,
0000
0000
0002
2000
0000
0000
0000
3003
;

//---------------dance-single - Easy----------------
#NOTES:
     dance-single:
     Ace Of Hearts (2014):
     Easy:
     4:
     0.231,0.107,0.009,0.231,0.000:
0000
0000
0000
0000
,
1000
1000
1000
0000
,
0002
0000
0003
0000
,
0010
0010
0010
0000
,
0200
0000
0300
0000
,
1000
0000
1000
0000
,
1000
0000
0001
0001
,
0002
0000
0000
0000
,
0000
0003
0000
0000
,
1000
1000
1000
0000
,
0100
0000
0200
0000
,
0310
0010
0010
0000
,
0001
0000
0002
0000
,
1003
1000
1000
0000
,
0010
0000
0010
0000
,
0020
0000
0030
0000
,
0100
0000
0200
0000
,
0300
0000
0001
0000
,
1000
1000
1000
0000
,
0001
0000
0001
0000
,
1000
0000
4000
0000
,
3000
0000
0010
0000
,
1000
1000
1000
0000
,
0001
0000
0001
0000
,
0004
0000
0000
0003
,
0000
0000
0010
0000
,
0100
0100
0100
0000
,
1000
0000
1000
0000
,
1000
0000
4000
0000
,
3000
0000
0001
0000
,
0010
0010
0010
0000
,
0100
0000
0100
0000
,
0400
0000
0000
0300
,
2000
0000
3000
0000
,
0001
0001
0002
0000
,
0103
0000
0100
0000
,
0400
0000
0300
0000
,
0020
0000
0030
0000
,
1000
0000
1000
0000
,
0001
0000
0001
0000
,
0010
0000
0010
0000
,
0100
0000
0100
0000
,
0200
0000
0000
0300
,
2000
3000
0001
0000
,
0001
0000
0010
0010
,
0010
0000
0200
0000
,
0300
0000
1000
1000
,
1000
0000
0001
0000
,
0001
0000
0100
0000
,
0100
0000
0010
0010
,
0010
0000
1000
0000
,
2000
0000
3001
0000
,
0001
0000
0010
0010
,
0010
0000
0200
0000
,
0300
0000
1000
1000
,
1000
0000
0002
0000
,
0003
0000
0100
0000
,
0100
0000
0010
0010
,
0010
0000
2000
0000
,
3000
0000
0001
0001
,
0001
0000
0020
0000
,
0030
0000
0100
0100
,
0100
0000
2000
0000
,
3000
0000
0001
0000
,
0001
0000
0001
0000
,
0100
0100
0200
0000
,
0000
0000
0000
0000
,
0300
0000
0001
0001
,
0001
0000
1000
0000
,
2000
0000
3100
0100
,
0100
0000
0010
0000
,
0020
0000
0031
0001
,
0001
0000
1000
0000
,
1000
0000
2000
0000
,
0000
0000
3010
0000
,
0010
0000
1000
0000
,
1000
0000
0000
0000
2002
0000
0000
3003
;

//---------------dance-single - Novice----------------
#NOTES:
     dance-single:
     Ace Of Hearts (2014):
     Beginner:
     2:
     0.111,0.036,0.009,0.129,0.000:
0000
0000
0000
0000
,
0001
0000
0000
0000
,
0001
0000
0000
0000
,
0100
0000
0000
0000
,
0100
0000
0000
0000
,
0010
0000
0000
0000
,
0010
0000
0000
0000
,
2000
0000
0000
0000
,
3000
0000
0000
0000
,
0001
0000
0000
0000
,
0001
0000
0000
0000
,
0010
0000
0000
0000
,
0010
0000
0000
0000
,
0001
0000
0000
0000
,
0001
0000
0000
0000
,
2000
0000
0000
0000
,
3000
0000
0000
0000
,
0000
0000
0000
0000
,
0010
0000
0000
0000
,
0010
0000
0000
0000
,
0020
0000
0030
0000
,
0000
0000
0000
0000
,
0100
0000
0000
0000
,
0100
0000
0000
0000
,
0400
0000
0000
0300
,
0000
0000
0000
0000
,
0001
0000
0000
0000
,
0001
0000
0000
0000
,
0002
0000
0003
0000
,
0000
0000
0000
0000
,
1000
0000
0000
0000
,
1000
0000
0000
0000
,
4000
0000
3000
0000
,
0001
0000
0000
0000
,
0001
0000
0000
0000
,
0001
0000
0000
0000
,
0004
0000
0003
0000
,
0100
0000
0000
0000
,
0100
0000
0000
0000
,
0010
0000
0000
0000
,
0010
0000
0000
0000
,
0010
0000
0000
0000
,
0020
0000
0000
0000
,
0030
0000
1000
0000
,
0000
0000
1000
0000
,
0000
0000
2000
0000
,
3000
0000
0001
0000
,
0000
0000
0001
0000
,
0000
0000
0001
0000
,
0000
0000
0100
0000
,
0000
0000
0200
0000
,
0300
0000
0010
0000
,
0000
0000
0010
0000
,
0000
0000
0020
0000
,
0030
0000
0100
0000
,
0000
0000
0200
0000
,
0300
0000
0001
0000
,
0000
0000
0001
0000
,
0000
0000
0002
0000
,
0003
0000
1000
0000
,
0000
0000
1000
0000
,
0000
0000
0100
0000
,
0000
0000
0100
0000
,
0000
0000
0010
0000
,
0000
0000
0010
0000
,
0000
0000
0002
0000
,
0000
0000
0000
0000
,
0003
0000
1000
0000
,
0000
0000
1000
0000
,
0000
0000
0010
0000
,
0000
0000
0010
0000
,
0000
0000
0100
0000
,
0000
0000
0100
0000
,
0000
0000
0200
0000
,
0300
0000
0001
0000
,
0000
0000
0001
0000
,
0000
0000
0000
0000
2002
0000
0000
3003
;
