#TITLE:Decisive Battle;
#SUBTITLE:- Ho-Oh!;
#ARTIST:Hito Ookami;
#TITLETRANSLIT:;
#SUBTITLETRANSLIT:;
#ARTISTTRANSLIT:;
#GENRE:;
#CREDIT:Ace Of Hearts;
#BANNER:Decisive Battle - bn.png;
#BACKGROUND:Decisive Battle - bg.png;
#LYRICSPATH:;
#CDTITLE:Ace Of Hearts.png;
#MUSIC:Decisive Battle - Ho-Oh!.ogg;
#OFFSET:1.220;
#SAMPLESTART:37.400;
#SAMPLELENGTH:12.000;
#SELECTABLE:YES;
#BPMS:0.000=180.000,76.000=90.000,80.000=180.000,144.000=90.000,148.000=180.000,156.000=90.000,160.000=180.000,168.000=90.000,172.000=180.000,180.000=90.000,184.000=180.000,232.000=90.000,240.000=180.000,256.000=90.000,260.000=180.000,324.000=90.000,328.000=180.000,336.000=90.000,340.000=180.000,348.000=90.000,352.000=180.000,360.000=90.000,364.000=180.000,412.000=90.000,442.000=180.000,522.000=90.000,530.000=180.000,578.000=96.000;
#STOPS:;
#BGCHANGES:;
#FGCHANGES:;
#KEYSOUNDS:;

//---------------dance-single - Lv 85----------------
#NOTES:
     dance-single:
     Ace Of Hearts (2014):
     Hard:
     11:
     0.723,0.000,0.243,0.508,0.467: // measure 1
0000
0000
0000
0000
,  // measure 2
0000
0000
0000
0000
,  // measure 3
0000
0000
0000
0000
,  // measure 4
0000
0000
0000
0000
,  // measure 5
0000
0000
0000
0000
,  // measure 6
0000
0000
0000
0000
,  // measure 7
0000
0000
0000
0000
,  // measure 8
0000
0000
0000
0000
,  // measure 9
0000
0000
0000
0000
,  // measure 10
0000
0000
0000
0000
,  // measure 11
0000
0000
0000
0000
,  // measure 12
0001
0001
0100
0010
0000
1000
0001
0010
,  // measure 13
0100
0100
1000
0001
0000
0020
0000
0000
,  // measure 14
0031
0001
1000
0010
0000
1000
0010
0100
,  // measure 15
0001
0001
1000
0100
0000
2000
0000
0000
,  // measure 16
3001
0001
0100
0010
000M
1000
0010
0100
,  // measure 17
0010
0010
1000
0001
0M00
2000
0000
0000
,  // measure 18
3100
0100
0010
0001
M000
0010
0100
0010
,  // measure 19
0001
0001
1000
0010
0M00
2000
0000
0000
,  // measure 20
3002
0000
0013
0100
0000
0010
0100
1000
0000
0M00
M001
0001
0100
0100
0010
0010
,  // measure 21
1000
1000
0001
0011
0000
0010
0100
1000
,  // measure 22
0001
0001
0100
0110
0000
0010
1000
0001
,  // measure 23
0020
0000
0130
1100
0000
1000
0001
0100
,  // measure 24
0010
0010
0100
0101
0000
0001
1000
0100
,  // measure 25
M020
0000
0030
0011
0000
0001
1000
0010
,  // measure 26
1000
1000
0001
0011
0000
0010
0100
0010
,  // measure 27
0M02
0000
1003
1100
0000
0100
0010
0100
,  // measure 28
0000
1000
0M01
0001
01M0
0100
001M
0010
,  // measure 29
2010
00M0
0M00
3001
,  // measure 30
0201
000M
M000
0310
,  // measure 31
2010
0000
30M1
0011
0M00
000M
0100
0000
,  // measure 32
2100
0000
0M00
0000
00M0
3001
0100
0010
,  // measure 33
0210
0000
00M0
0000
M000
0301
1000
0100
,  // measure 34
0120
0000
0M00
0000
000M
0130
1000
0001
,  // measure 35
0201
0000
000M
0000
00M0
0000
0310
1000
,  // measure 36
1002
0000
0000
M000
0000
0000
1003
0100
0010
0100
0010
0001
,  // measure 37
2000
0000
0000
0000
0000
0000
0000
3001
0100
0010
0100
0001
1000
0010
0100
0010
,  // measure 38
1000
0001
2000
0000
00M0
0000
000M
0000
,  // measure 39
0M00
0000
0000
0000
00M0
0000
0000
0000
3001
0010
0001
0010
0100
1000
0100
1000
,  // measure 40
0002
0000
0M00
0000
0000
1003
0010
1000
0200
0000
000M
0000
1300
0001
0100
0001
,  // measure 41
1000
0100
0020
0000
0032
0000
00M0
0000
,  // measure 42
M000
0000
1003
0100
0020
0000
0M00
0000
,  // measure 43
0031
0010
0100
1000
0100
0010
0001
1000
0001
0010
0100
1000
0100
0010
0001
1000
,  // measure 44
0001
1000
0020
0000
M000
0000
000M
0000
,  // measure 45
0M00
0000
0000
0000
M000
0000
0000
0000
1030
0010
1000
0010
0100
0001
0100
0001
,  // measure 46
2000
0000
000M
0000
0000
3001
0010
0100
0020
0000
0000
0000
0000
0000
0031
0010
,  // measure 47
0100
1000
0002
0000
M023
0000
000M
0000
,  // measure 48
0M00
M000
0M00
000M
,  // measure 49
0130
1000
0001
0101
000M
0100
0110
0M00
,  // measure 50
0010
1010
0000
1000
1M02
0000
M023
0000
,  // measure 51
013M
1000
0100
0000
00M0
0000
0010
0000
0M01
0000
1000
0000
110M
0000
0100
0000
,  // measure 52
M010
0000
0100
0000
0M10
0001
0010
0000
010M
0000
0010
0000
01M0
1000
0100
0000
,  // measure 53
M010
0001
0010
0000
020M
0000
1300
0000
0M01
0010
0001
0000
20M0
0000
3100
0010
,  // measure 54
010M
0000
2000
0000
3M01
0010
0001
0000
M020
0000
0000
0000
023M
0000
0000
0000
,  // measure 55
13M0
0100
1000
0000
0M01
0000
0001
0000
10M0
0000
0010
0000
010M
0000
0001
0000
,  // measure 56
10M0
0000
0100
0000
M010
0100
0010
0000
0M01
0000
1000
0000
001M
0100
0010
0000
,  // measure 57
1M00
0001
0010
0010
010M
0100
1000
1000
,  // measure 58
0M01
0010
0001
0000
1000
0100
1000
0000
M001
0010
0001
0000
0010
0100
0010
0000
,  // measure 59
0M02
0000
1003
0100
0000
0010
0100
1000
01M0
0100
1000
0002
0000
1003
0020
0000
,  // measure 60
M130
0100
0001
1000
0000
0100
0010
0100
100M
1000
0001
1000
0000
0200
0000
0000
,  // measure 61
0310
0010
0100
1100
0000
1000
0001
0100
,  // measure 62
0010
0010
1000
0001
0000
0022
0000
0030
,  // measure 63
1003
0000
1000
0000
0001
0000
0101
0000
0000
0000
0100
0010
0100
0000
0001
0000
,  // measure 64
1000
1000
0010
0100
0000
0202
0000
0300
,  // measure 65
1003
0100
1000
0001
00M0
1000
0100
0010
0000
0000
010M
0100
10M0
1000
0M01
0001
,  // measure 66
1000
0000
0000
0000
0010
0000
0110
0000
0000
0000
0000
MMMM
0000
0000
0000
0000
,  // measure 67
2010
0000
3001
0010
0001
0000
1000
0000
0000
0000
MMMM
0000
0000
0000
0000
0000
,  // measure 68
0102
0000
1003
1100
0000
MMMM
0000
0000
,  // measure 69
0012
0000
2003
0002
0000
0000
0010
3003
,  // measure 70
0102
0000
0000
0000
0000
0000
1003
0000
0000
0000
0000
MMMM
0000
0000
0000
0000
,  // measure 71
0001
0000
0010
0000
0100
0000
1100
0000
0000
0000
0000
MMMM
0000
0000
0000
0000
,  // measure 72
1001
0000
0001
0101
0000
0000
MMMM
0000
,  // measure 73
0000
0001
10M0
1000
010M
0100
M010
0010
,  // measure 74
0001
0001
1000
1100
000M
0000
0100
0000
,  // measure 75
0M10
0010
0001
1001
00M0
0000
1100
0000
,  // measure 76
0012
0000
1003
1010
00M0
0000
0002
0000
,  // measure 77
M103
0001
1000
1100
000M
0100
0010
0001
,  // measure 78
10M0
1000
0001
0101
M000
0100
0010
1000
,  // measure 79
00M1
0001
0010
0110
M000
0100
0010
0001
,  // measure 80
10M0
0000
1000
0000
0010
0000
1000
0000
0M01
0010
0001
0000
1000
0000
0010
0000
,  // measure 81
M100
0000
0000
0001
0000
0000
0001
0000
0000
1000
0000
0000
0010
0000
0100
0000
0010
0000
1000
0000
0010
0000
1000
0000
,  // measure 82
0002
0000
0000
0000
0000
0000
0000
1003
0100
0010
0100
1000
0001
0010
0100
0010
,  // measure 83
0001
1000
0020
0000
M000
0000
0M00
0000
,  // measure 84
000M
0000
0000
0000
0M00
0000
0000
0000
1030
0010
1000
0010
0100
0001
0100
0001
,  // measure 85
2000
0000
0000
0000
0000
3001
0100
0010
0200
0000
0000
0000
0301
0100
0010
0100
,  // measure 86
0001
1000
020M
0000
M320
0000
0M00
0000
,  // measure 87
000M
0000
0130
1000
00M2
0000
0M00
0000
,  // measure 88
0013
0100
1000
0100
0010
0001
1000
0001
1000
0100
0010
0001
0010
0100
1000
0001
,  // measure 89
1000
0010
0200
0000
00M0
0000
M000
0000
,  // measure 90
000M
0000
0000
0000
00M0
0000
0000
0000
0301
0100
0001
0100
0010
1000
0010
1000
,  // measure 91
0002
0000
0000
0000
0000
1003
0010
0100
0020
0000
0000
0000
0000
0000
1030
0001
,  // measure 92
0100
0001
2M00
0000
302M
0000
M000
0000
,  // measure 93
0M00
000M
M000
0M00
,  // measure 94
1030
0001
0010
0110
000M
0100
1000
0001
,  // measure 95
M100
0010
0000
1000
0002
0003
0201
0000
,  // measure 96
031M
0100
0010
0000
1M00
0000
0001
0000
M010
0000
0100
0000
10M0
0000
0001
0000
,  // measure 97
1M00
0000
0010
0000
010M
0010
0100
0000
00M1
0000
1000
0000
0M01
0010
0001
0000
,  // measure 98
10M0
0100
1000
0000
0M01
0000
0010
0000
M001
0010
0001
0000
20M0
0000
3100
0010
,  // measure 99
010M
0000
0010
0000
010M
1000
0100
0000
M020
0000
0000
0000
023M
0000
0000
0000
,  // measure 100
13M0
0100
1000
0000
0M01
0000
0100
0000
001M
0000
1000
0000
00M1
0000
0100
0000
,  // measure 101
00M1
0000
1000
0000
001M
0100
0010
0000
1M00
0000
0001
0000
M010
0001
0010
0000
,  // measure 102
010M
1000
0M01
0001
10M0
1000
0M01
0001
,  // measure 103
M010
0001
0010
0000
010M
1000
0100
0000
M010
0100
0010
0000
010M
0010
0100
0000
,  // measure 104
40M0
0000
0000
0000
3002
0000
0000
0000
0M23
0000
0000
0000
000M
0000
0000
0130
,  // measure 105
1000
0001
1000
0001
0010
0100
0010
0100
1000
0100
0020
0000
000M
0000
M000
0000
,  // measure 106
0M00
0000
0000
0000
0000
0000
000M
0000
0000
0000
0000
0000
0031
0000
0010
0000
0100
0000
1000
0000
0100
0000
0010
0000
0002
0000
0000
0000
0000
0000
0000
0000
0000
0M00
0000
0000
0000
0000
0000
1003
0000
0000
0100
0000
0000
0010
0000
0000
,  // measure 107
0200
0000
000M
0000
1300
0100
0010
0100
1000
0100
0020
0000
0032
0000
M000
0000
,  // measure 108
0003
0000
1000
0100
2000
00M0
0000
0000
3001
0010
0100
1000
0100
0010
0001
1000
,  // measure 109
0001
0010
0100
1000
0100
0010
0001
1000
0001
1000
0200
0000
M000
0000
000M
0000
,  // measure 110
00M0
0000
0000
0000
0000
0000
0000
0000
0000
0000
0000
0000
0310
0000
0001
0000
0010
0000
0100
0000
1000
0000
0100
0000
0020
0000
0000
0000
0000
0000
0M00
0000
0000
0000
0000
0000
0000
0000
0000
0031
0000
0000
0010
0000
0000
0100
0000
0000
,  // measure 111
2000
0000
0M00
0000
0000
0000
3001
0100
0001
0000
1000
0000
02M0
0000
0000
0000
,  // measure 112
032M
0M00
M000
000M
,  // measure 113
M000
0000
0030
0000
0200
1300
1000
0002
,  // measure 114
0103
0100
0020
1030
1000
0002
0013
0010
,  // measure 115
0200
0000
0000
0000
1300
0000
0000
0000
010M
0010
0100
0000
10M0
0000
0001
0000
,  // measure 116
M100
0000
0010
0000
010M
0000
0001
0000
1M00
0000
0100
0000
M010
0001
0010
0000
,  // measure 117
010M
0000
1000
0000
0M01
0010
0001
0000
1000
0100
1000
0000
0001
0000
0100
0000
,  // measure 118
0010
0100
0010
0000
1000
0000
0001
0010
0001
0000
1000
0000
0010
0100
0010
0000
,  // measure 119
2000
0000
0000
0000
3002
0000
0000
0000
M103
0010
0100
0000
00M1
0000
1000
0000
,  // measure 120
010M
0000
0010
0000
M100
0000
1000
0000
00M1
0000
0100
0000
M010
0100
0010
0000
,  // measure 121
1M00
0000
0001
0000
10M0
0100
1000
0000
0002
0000
0013
0000
0010
0000
0200
0000
,  // measure 122
1300
1000
0002
0103
0100
0020
1030
1000
,  // measure 123
0002
0000
0000
0000
0203
0000
0000
0000
031M
0100
0010
0000
1M00
0000
0001
0000
,  // measure 124
M010
0000
0100
0000
001M
0000
0001
0000
1M00
0000
0100
0000
M010
0001
0010
0000
,  // measure 125
01M0
0000
1000
0000
010M
0010
0100
0000
10M0
0100
1000
0000
M002
0000
0013
0100
,  // measure 126
001M
0000
0100
1000
02M0
0000
0310
0100
M010
0000
0002
0000
10M3
0100
1000
0000
,  // measure 127
0M02
0000
0000
0000
M203
0000
0000
0000
031M
0100
0010
0000
1M00
0000
0001
0000
,  // measure 128
M010
0000
0100
0000
001M
0000
0001
0000
1M00
0000
0010
0000
010M
0010
0100
0000
,  // measure 129
00M1
0000
1000
0000
0M01
0010
0001
0000
M010
0100
0010
0000
0M02
0000
1003
0000
,  // measure 130
001M
0100
0010
0000
2M00
0000
3001
0000
M010
0001
0010
0000
010M
0010
0100
0000
,  // measure 131
10M0
0100
1000
0000
0M01
0010
0001
0000
1000
1000
0100
0010
0000
0100
1000
0100
,  // measure 132
0010
0010
0001
1000
0000
0020
0000
0000
1030
1000
0001
0010
0000
0100
0010
0001
,  // measure 133
0010
0010
0100
1000
0000
0002
0000
0000
10M3
0000
1000
0000
0100
0000
0110
0000
,  // measure 134
M000
0010
0001
1000
001M
0010
0100
0001
,  // measure 135
M000
0000
0022
0000
0003
0000
0130
1000
010M
0000
0100
0000
0010
0000
0001
0000
,  // measure 136
0M00
0000
1000
0100
1000
0000
0001
0000
M100
0000
0100
0000
0001
0000
1000
0000
,  // measure 137
000M
0100
0010
0010
0M01
0001
1000
1100
,  // measure 138
000M
0000
0100
0010
0100
0000
1000
0000
00M1
0000
0001
0000
0100
0000
0010
0000
,  // measure 139
0M00
2020
0000
0030
3M01
0001
1000
1100
,  // measure 140
000M
0000
0100
0010
0100
0000
1000
0000
0M01
0000
0001
0000
0010
0000
0100
0000
,  // measure 141
000M
2200
0000
0300
30M1
0001
0100
0110
,  // measure 142
M000
0000
0010
0100
0010
0000
1000
0000
0M01
0000
0001
0000
0010
0000
0001
0000
,  // measure 143
M000
0202
0000
0003
M310
0010
1000
1001
,  // measure 144
00M0
0000
0001
0010
0001
0000
0010
0000
010M
0000
0100
0000
1000
0000
0001
0000
,  // measure 145
0M00
0000
2002
0000
0000
0000
0003
0000
3100
0010
0100
0010
0100
0000
0000
0000
;

//---------------dance-single - Lv 100----------------
#NOTES:
     dance-single:
     Ace Of Hearts (2014):
     Challenge:
     13:
     1.000,0.000,0.966,0.656,0.730:
0000
0000
0000
0000
,
0000
0000
0000
0000
,
0000
0000
0000
0000
,
0000
0000
0000
0000
,
0000
0000
0000
0000
,
0000
0000
0000
0000
,
0000
0000
0000
0000
,
0000
0000
0000
0000
,
0000
0000
0000
0000
,
0000
0000
0000
0000
,
0000
0000
0000
0000
,
1001
1000
0010
0110
0000
0100
0001
1000
,
1100
0100
0010
0011
0000
2002
0000
3003
,
1010
0010
0100
0101
0000
0001
1000
0100
,
0110
0010
0001
1001
0000
2200
0000
3300
,
0110
0010
0001
1001
00MM
0100
0010
0001
,
1001
1000
0010
0110
M0M0
0202
0000
0303
,
1001
1000
0100
0110
MM00
0001
1000
0010
,
0110
0100
0001
1001
0MM0
1000
1010
0010
,
0110
0000
M100
0000
0001
0000
10M1
0000
1000
0000
010M
0000
0010
0000
0M11
0000
0000
0000
0000
0000
0010
M00M
0010
0000
1000
0000
0001
0000
0100
M00M
0100
0000
,
1100
0000
1000
0000
0001
0000
1001
0000
0MM0
0000
0001
0000
0100
0000
0010
1000
,
0001
0001
0010
0110
00MM
1000
0001
0100
,
0120
0000
1030
1001
MM00
0100
0010
1000
,
1001
0001
0010
0110
00MM
1000
0001
0100
,
0110
0010
0000
1010
0MM0
0001
0010
0100
,
1100
2000
3001
0101
0000
0M1M
1000
0001
,
0021
0000
0130
1100
0MM0
0001
1000
0010
,
0100
0000
0001
0000
0100
M00M
0100
0000
1000
0000
0010
M00M
0010
0000
0001
0000
,
2001
0M01
01M0
0M01
0000
0000
3001
0000
,
0201
0000
00M1
0000
001M
0000
00M1
0000
0000
0000
0310
1000
0002
0000
0013
0000
,
0210
0000
M010
0000
10M0
0000
M010
0000
0000
0000
0000
0000
2300
0000
0000
3000
,
1002
0000
10M0
0000
M010
0000
10M0
0000
0000
0000
0103
0010
2000
0000
3001
0000
,
0021
0M01
010M
0M01
0000
0130
1000
0001
,
0201
0000
00M1
0000
001M
0000
00M1
0000
0000
0000
0310
1000
0002
0000
0103
0000
,
0120
M100
1M00
M230
0000
0300
0101
0001
,
1001
0000
0000
1000
0000
0000
1200
0000
0000
0000
0000
0000
0310
0000
0001
0000
1000
0000
0100
0000
1000
0000
0001
0000
,
0020
0000
M000
0000
000M
0000
0000
0031
1000
0100
00M1
0100
1000
0010
0M01
0010
,
1000
0001
M020
0130
001M
0001
10M0
0010
,
M100
0000
0001
0000
10M0
0000
0100
0000
0010
0100
0010
0100
1000
0001
1000
0001
,
0200
0000
000M
0000
M000
0310
0001
0010
2000
000M
0000
0M00
3001
0010
1000
0010
,
0001
1000
0020
0030
M210
0301
10M0
0100
,
M010
0100
10M0
0001
M200
0310
100M
0001
,
0010
0001
1000
0001
1000
0010
0100
0001
1000
0100
0010
0001
1000
0100
1000
0001
,
0100
0010
2M00
3001
M010
0001
10M0
0010
,
010M
0000
0010
0000
1M00
0000
0001
0000
0010
0100
0010
0100
1000
0001
1000
0001
,
0100
0010
1000
0010
0100
0001
1000
0001
0010
0100
0010
0001
2000
0000
3001
0010
,
0100
0000
0010
0000
0002
0000
0000
0003
20M2
0000
0000
0000
0M00
0000
0003
0000
,
31M0
0000
0010
0000
M001
0010
0100
0000
10M0
0100
0010
0100
100M
0000
0001
0100
,
0020
0000
1030
0000
0001
0000
0021
0000
013M
1000
0001
0000
M201
0000
0310
0000
,
1M10
2000
30M1
0010
021M
0300
21M0
0000
,
3001
0100
0010
0000
MMMM
0000
0010
0000
1M10
0000
1000
0000
10M1
0000
0001
0000
,
M011
0000
0010
0000
010M
1000
0001
0000
1M01
0000
1000
0000
001M
0100
0001
0000
,
10M0
0100
0010
0000
0M12
0000
2003
0000
3M01
0010
0100
0000
210M
0000
3001
0100
,
M010
1010
1M00
0001
MM22
0033
22MM
0300
,
3001
0100
0010
M00M
0010
0000
0001
0000
1001
0000
1000
0000
1010
0000
0010
0000
,
0100
M00M
0100
0000
1000
0100
0010
0000
0011
0000
0001
0000
1000
0010
0100
0000
,
00M1
1000
0100
0000
M120
0000
0031
0000
1M00
0010
0100
0000
01M2
0000
1003
0000
,
M100
0010
0100
0000
10M0
0001
1000
0000
001M
0100
0010
0000
1M00
0010
0100
0010
,
200M
0000
3001
0M11
0010
0100
1000
0001
01M1
0100
0010
2M00
0000
3001
0022
0033
,
M110
0000
0100
0000
1000
0000
10M1
0000
0000
0000
0001
0000
0100
0000
0010
0000
101M
0000
1000
0000
0001
0000
10M1
0000
0000
0000
1200
0000
0310
0001
0010
0000
,
0210
0000
1300
0000
0001
0000
0101
0000
0MM0
0000
1000
0100
0010
0000
0001
0000
,
1001
0000
1000
0000
0010
0000
0110
0000
0000
0000
0202
0000
0003
0000
0310
1000
,
0001
0000
0010
0000
0100
0000
1100
0000
0MM0
0000
0001
0100
0010
0000
1000
0000
,
1001
0000
0001
0000
0010
0000
0110
0000
00MM
0000
1000
0001
0100
0000
0010
0000
,
1010
0000
1000
0000
0001
0000
0011
0000
0000
0000
0010
0000
0100
0000
1100
0000
0000
0000
0000
0000
0100
M00M
0100
0000
0001
0000
1000
0000
0010
M00M
0010
0000
,
0011
0MM0
0010
0110
MMMM
0100
1100
1000
,
1001
0000
0001
0100
0010
0000
1010
0000
MMMM
0000
1000
0000
1001
0000
0001
0000
,
0021
0000
0130
1100
MMMM
1000
1001
0001
,
0201
0000
0310
2020
0000
0000
0202
3333
,
1001
0002
0003
0011
MMMM
0010
0110
0100
,
1100
1000
0001
0101
MMMM
0100
0110
0010
,
1010
0MM0
1001
1001
MM00
0001
0011
0010
,
0110
0000
0100
0000
0010
M00M
0010
0000
1000
0000
0001
0000
0100
M00M
0100
0000
,
2100
010M
0M01
010M
0000
0000
3001
M0M0
,
0201
0000
0310
1000
0001
0000
0011
0000
MMMM
0000
0010
0100
2000
0000
3001
0000
,
0101
0000
0100
0000
0010
0000
1010
0000
0000
MMMM
0000
0000
2002
0000
3003
0000
,
0021
0130
1000
1001
MMMM
0001
0010
0100
,
2100
3001
0100
0110
MMMM
0010
1000
0001
,
0021
0000
0130
0000
1000
0000
1001
0000
MMMM
0000
0001
0100
0020
0000
1030
0000
,
1001
0001
0010
0220
0000
0030
1300
1001
,
MMMM
0000
0000
0001
0000
0000
0100
0000
0000
0010
0000
0000
1000
0000
0010
0000
1000
0000
0001
0000
0010
0000
0001
0000
,
2000
0000
000M
0000
0M00
0000
0000
3001
0100
0010
0100
0001
1000
0100
0010
0001
,
1001
1000
020M
0310
M001
1000
0M10
0100
,
001M
0000
1000
0000
0M01
0000
0010
0000
0100
1000
0100
1000
0001
0100
0001
0100
,
0020
000M
0000
0M00
0000
1030
0010
0001
M020
0000
0000
0000
1030
0001
0010
0100
,
1000
0001
0200
0300
012M
1030
0M01
0010
,
M001
1000
001M
0100
00M1
1000
010M
0010
,
0100
1000
0100
0010
0001
0010
0100
1000
0001
0100
0010
1000
0010
0100
0001
1000
,
1001
0001
M020
0130
10M0
0001
M100
0010
,
010M
0000
0001
0000
1M00
0000
0100
0000
M010
0001
0010
0100
100M
0100
0010
0001
,
1000
0010
0100
0010
1000
0001
0010
0100
0010
0001
1000
0001
0100
0010
1000
0001
,
0010
0100
2000
3000
2002
0000
0M00
0000
,
30M0
0000
0000
0000
1M03
0010
0100
0000
M001
0100
0010
1000
001M
0100
0001
0000
,
10M0
0100
0010
0000
0M12
0000
1003
0000
101M
0000
0010
0000
M210
0000
0301
0000
,
10M1
2000
310M
0010
MM22
0033
22MM
0300
,
30M1
0100
0010
0000
1M10
0000
1000
0000
10M1
0000
0001
0000
M011
0000
0010
0000
,
011M
0000
0100
0000
10M0
0001
0100
0000
M110
0000
0010
0000
1M00
0001
0010
0000
,
M010
0001
1000
0000
101M
0000
0010
0100
00M1
0100
0010
0000
2M10
0000
3001
0010
,
010M
0000
2100
0000
30M1
0100
0010
0000
2M2M
0000
3030
0000
M2M2
0000
0303
0000
,
0M01
1000
0100
0000
011M
0000
0010
0000
M011
0000
0001
0000
10M1
0000
1000
0000
,
101M
0000
0010
0000
01M0
0001
1000
0000
110M
0000
0100
0000
M010
0001
1000
0000
,
001M
0100
0001
0000
2M01
0000
3100
0000
011M
0000
0010
0000
M001
0010
0100
0000
,
100M
0100
0010
0000
M001
0010
0100
0000
1000
0100
0010
0001
0010
0100
1000
0001
,
1000
0100
1000
0100
1000
0100
1000
0000
0001
0010
0001
0000
0000
0000
0000
0000
2001
0000
0000
0000
0000
0000
0000
0000
00M0
0000
0000
0000
000M
0000
3010
0100
,
0010
1000
0001
1000
0001
0010
1M00
0010
0011
1000
0020
0000
0M00
0000
000M
0000
,
M000
0000
0000
0000
0000
0000
0M00
0000
0000
0000
0000
0000
1030
0000
0010
0000
0100
0000
0001
0000
0100
0000
0010
0000
2000
0000
0000
0000
0000
0000
0M0M
0000
0000
0000
0000
0000
0000
0000
0000
3100
0000
0000
00M1
0000
0000
0100
0000
0000
,
2000
0000
0MM0
0000
3001
0010
1M00
0010
0001
1000
0002
0000
0023
0000
0000
MM00
,
0000
0000
0031
0010
0200
0000
00MM
0000
1300
0100
0010
0001
0010
0100
1000
0001
,
0100
0010
0100
0001
1000
0001
0010
0100
1000
0001
0200
0000
M000
0000
00M0
0000
,
M000
0000
0000
0000
0000
0000
000M
0000
0000
0000
0000
0000
0310
0000
1000
0000
0001
0000
0010
0000
0100
0000
0010
0000
0002
0000
0000
0000
0000
0000
MM00
0000
0000
0000
0000
0000
0000
0000
0000
1003
0000
0000
0100
0000
0000
0010
0000
0000
,
0200
0000
0000
00MM
0000
0000
1300
0001
0100
0000
0010
0000
2000
0000
3000
0000
,
2002
0000
0000
0000
0000
0000
0000
3003
,
10M0
0100
0010
0100
100M
0000
0001
0100
M010
0100
0001
0000
10M0
0000
0100
0000
,
011M
0000
0010
0000
0M12
0000
1003
0010
010M
0000
0001
0000
10M0
0100
0010
0000
,
MM22
0000
0033
0000
22MM
0000
3300
0000
10M0
0001
0100
0000
M110
0000
0010
0000
,
101M
0000
1000
0000
1M01
0000
0001
0000
M011
0000
0010
0000
010M
1000
0001
0000
,
M101
0000
0100
0000
0M10
1000
0001
1000
001M
0100
0010
1000
0M01
0000
0021
0000
,
0130
1000
0001
0000
M201
0000
0310
1000
0M01
0000
0021
0000
0130
1000
0001
0000
,
M2M2
0000
0303
0000
2M2M
0000
3030
0000
1M00
0001
0010
0000
011M
0000
0100
0000
,
11M0
0000
1000
0000
1M01
0000
0001
0000
M101
0000
0100
0000
0M10
1000
0001
0000
,
01M1
0000
0100
0000
001M
1000
0001
0000
M021
0000
0130
1000
00M1
0000
0201
0000
,
031M
1000
0001
0000
M021
0000
0130
0000
11M0
0000
1000
0000
1M01
0000
0001
0000
,
MM22
0000
0033
0000
22MM
0000
3300
0000
10M0
0001
0100
0000
M110
0000
0010
0000
,
101M
0000
1000
0000
10M1
0000
0001
0000
M011
0000
0010
0000
010M
1000
0001
0000
,
01M1
0000
0100
0000
001M
1000
0001
0000
1M00
0010
0100
0010
100M
0000
1002
0000
,
M013
0100
1000
0000
10M2
0000
0103
0010
1M00
0000
1002
0000
0013
0100
1000
0000
,
2MM2
0000
3003
0000
M22M
0000
0330
0000
00M1
1000
0100
0000
M110
0000
0010
0000
,
0M11
0000
0001
1000
001M
0000
0010
1000
0M01
0000
0011
0000
M010
0100
1000
0100
,
001M
0000
0011
0000
0M01
1000
0010
0000
M010
0100
0001
0000
20M1
0000
3100
0010
,
M001
0010
0200
0000
13M0
0001
0100
0000
00M1
1000
0100
0000
10M0
0001
0100
0000
,
0M01
1000
0010
0000
1M00
0001
0010
0000
011M
0100
1000
10M1
0000
0001
M101
0100
,
011M
0010
1000
10M1
0000
0M22
0000
0033
M110
0100
1000
10M1
0000
0001
M101
0100
,
011M
0010
1000
1M01
0000
02M2
0000
0303
0110
0000
0010
0000
1000
0000
1001
0000
,
MMMM
0000
0001
0010
0100
0000
1000
0000
1001
0000
0001
0000
0100
0000
0110
0000
,
MMMM
0000
0010
1000
0001
1000
0010
0000
0210
0000
0301
0000
1000
0000
1100
0000
,
MMMM
0000
0100
0010
0001
0010
0100
1000
0001
0000
1000
0000
0010
0000
0110
0000
,
MMMM
0000
0100
0001
2000
0000
0000
3000
1001
0000
0001
0000
M010
0000
0100
0010
,
0M01
0010
0100
1000
010M
0010
0001
1000
0M01
0000
0100
0000
001M
0000
1000
0010
,
M100
0001
0100
0010
1M00
0001
0100
0010
100M
0000
0001
0000
M010
0000
0100
1000
,
010M
0010
0001
0010
010M
1000
0100
0010
M001
0010
0100
0000
10M0
0000
0001
0100
,
001M
1000
0010
0100
M001
0100
0010
1000
0M01
0000
0010
0000
010M
0000
1000
0100
,
001M
0100
1000
0100
001M
0100
1000
0100
001M
0100
1000
0000
00M1
0000
0100
0010
,
M100
0001
0100
0010
M100
0001
0100
0010
M100
0001
0100
0000
001M
0000
1000
0001
,
0M10
0001
1000
0010
1M00
0001
0010
0001
1M00
0001
0010
0000
01M0
0000
1000
0100
,
10M0
0001
0100
0001
10M0
0100
1000
0001
0100
0010
0100
0010
0100
0000
0000
0000
;

//---------------dance-single - Lv 70----------------
#NOTES:
     dance-single:
     Ace Of Hearts (2014):
     Medium:
     9:
     0.609,0.000,0.022,0.580,0.323:
0000
0000
0000
0000
,
0000
0000
0000
0000
,
0000
0000
0000
0000
,
0000
0000
0000
0000
,
0000
0000
0000
0000
,
0000
0000
0000
0000
,
0000
0000
0000
0000
,
0000
0000
0000
0000
,
0000
0000
0000
0000
,
0000
0000
0000
0000
,
0000
0000
0000
0000
,
1000
0010
1000
0010
0000
1000
0001
1000
,
0001
0100
0001
0100
0000
0020
0000
0000
,
1030
0001
1000
0001
0000
1000
0100
1000
,
0001
0010
0001
0010
0000
0200
0000
0000
,
1300
0001
1000
0010
0M00
1000
0001
1000
,
0010
0100
0010
1000
0M00
0002
0000
0000
,
1003
0100
1000
0001
0M00
0010
0100
0010
,
0001
1000
0001
1000
00M0
0200
0000
0000
,
0320
0000
0130
1000
0000
0001
0010
0001
0000
0M00
1000
1000
0010
0010
0100
0100
,
0001
1000
0001
0010
0000
0001
1000
0001
,
0100
0010
0100
0001
0000
1000
0100
1000
,
0002
0000
1003
0010
0000
1000
0010
1000
,
0001
0010
0001
1000
0000
0010
0100
0010
,
2000
00M0
0000
3001
0000
0010
0100
0010
,
0001
1000
0001
0100
0000
0010
0100
0010
,
2000
0M00
3001
0010
0000
0001
1000
0001
,
0100
0000
0010
0000
0100
000M
0100
0000
0001
00M0
0001
0000
1000
0M00
1000
0000
,
0002
0000
0000
0000
0000
M000
0000
0000
0000
0000
0000
0000
1003
0000
0000
0000
,
0200
0000
0000
0000
0000
00M0
0000
0000
0000
0000
0000
0000
0310
0000
0000
0000
,
0002
00M0
1003
0010
0000
0000
02M0
0000
,
0302
0000
0000
0M00
0000
1003
0100
0010
,
0200
0000
000M
0000
0000
1300
0001
1000
,
0020
0000
0000
0000
0000
M000
0000
0000
0000
0000
0130
0000
0001
0000
0100
0000
,
0002
0000
0000
0000
0000
0M00
0000
0000
0000
0000
0000
0000
1003
0000
0100
0000
,
2000
0000
0000
000M
0000
0000
3001
0010
0100
1000
0100
0010
,
0002
0000
0000
0000
0000
0000
0000
1003
0100
0010
0100
0010
0001
0010
0001
0010
,
0100
0000
1000
0000
0002
0000
0000
0000
0000
M000
0000
0000
0000
0000
0000
00M0
,
0000
0000
0403
0000
,
0320
0000
0M00
0000
0000
1030
0001
1000
0200
000M
0000
0000
0310
0001
0010
0001
,
1000
0000
0001
0000
2000
0000
0000
0000
3020
0000
0000
0000
0000
M000
0000
0000
,
0000
0000
0000
0000
1030
0000
0001
0000
2000
0000
0000
000M
0000
0000
0000
0000
,
3002
0000
0000
0000
0000
0000
0000
1003
0010
0100
0010
0100
0001
1000
0001
1000
,
0001
0000
0100
0000
0020
0000
0000
0000
0000
0M00
0000
0000
0000
0000
0000
000M
,
0000
0000
4030
0000
,
3002
0000
00M0
0000
0000
1003
0100
1000
0200
0000
0000
0000
0000
0000
1300
0001
,
1000
0100
0020
0000
0032
0000
0000
0000
,
00M0
0000
M000
0000
,
1003
0100
1000
0001
0M00
1000
0020
000M
,
1030
0001
00M0
1000
0200
0000
0320
0000
,
0031
0010
0001
0000
0M00
0000
1000
0000
0001
0000
0100
0000
0001
0000
1000
0000
,
0M01
0010
0100
1000
00M1
0100
0010
1000
,
0M01
0010
0001
0020
013M
0010
0200
1300
,
00M1
2000
3001
0100
M020
0000
2030
0000
,
30M1
0100
0001
0000
1000
0000
0100
0000
M010
0000
0001
0000
0010
0000
0100
0000
,
10M0
0000
0001
0000
0100
0010
0100
0000
00M1
0000
1000
0000
0100
0000
0010
0000
,
0M01
1000
0002
0103
001M
0200
0301
1000
,
0M01
0010
0001
0010
010M
1000
0100
1000
,
00M2
0000
1003
0100
0000
0100
1000
0000
10M0
0001
0000
0001
2000
0000
3020
0000
,
M230
0000
0301
1000
0000
1000
0001
0000
M020
0000
0130
1000
0000
0002
0000
0000
,
1003
0100
1000
0001
0000
1000
0010
1000
,
0001
0100
0001
1000
0000
0020
0000
0000
,
1030
0001
1000
0100
0000
0010
0001
0010
,
0100
1000
0100
1000
0000
0002
0000
0000
,
2003
0000
3100
0010
0000
0001
M010
0001
0000
0000
1000
1000
001M
0010
0100
0100
,
0002
0000
0000
0000
1003
0000
0010
0000
0000
0000
0000
M0M0
0000
0000
0000
0000
,
0200
0000
0000
0000
0301
0000
1000
0000
0000
0000
0000
M00M
0000
0000
0000
0000
,
0002
0000
0000
0000
0013
0000
0100
0000
0000
0000
0000
0MM0
0000
0000
0000
0000
,
0020
0000
0000
0000
0031
0000
1000
0000
0000
M00M
0000
0000
2200
0000
3300
0000
,
0200
0000
0000
0000
0000
0000
0310
0000
0000
0000
0000
0MM0
0000
0000
0000
0000
,
0001
0000
1000
0000
0001
0000
0100
0000
0000
0000
0000
0M0M
0000
0000
0000
0000
,
0020
0000
1030
0001
0000
0000
M00M
0000
,
0000
1000
0001
0001
0010
0010
0100
0100
,
2100
000M
3000
M001
,
0201
000M
0300
0M10
,
2010
0000
0M00
0000
3001
0000
0010
0000
0000
M000
0000
0000
0200
0000
0300
0000
,
2100
0000
0M00
0000
3000
00M1
0100
0010
,
0200
0000
000M
0000
0300
0001
1M00
0001
,
0020
0000
000M
0000
0030
0001
10M0
0001
,
0200
0000
000M
0000
0300
0000
M010
0100
,
0020
0000
0000
0000
0000
0000
1030
0010
0100
0001
0100
0010
,
2000
0000
0000
0000
0000
0000
0000
3001
0100
0010
0100
0010
1000
0001
1000
0001
,
1000
0000
0100
0000
0020
0000
0000
0000
0000
0M00
0000
0000
0000
0000
0000
M000
,
0000
0000
0034
0000
,
2003
0000
0000
0000
0000
3100
0010
0100
0020
0000
0000
0000
0031
1000
0001
1000
,
0010
0000
0100
0000
M002
0000
0000
0000
2003
0000
0000
0000
0000
000M
0000
0000
,
0000
0000
3001
0100
0020
0000
M000
0000
,
2030
0000
0000
0000
00M0
0000
0000
3001
1000
0100
1000
0100
0010
0001
0010
0001
,
1000
0000
0100
0000
0020
0000
0000
0000
0000
0M00
0000
0000
0000
0000
0000
000M
,
0000
0000
0430
0000
,
2300
0000
0000
00M0
0000
3001
1000
0001
0020
0000
0000
0000
0000
0000
0031
1000
,
0001
0100
0020
000M
2030
0000
0000
0000
,
00M0
0000
000M
0000
,
3001
0010
0001
1000
00M0
0100
0020
0000
,
0130
1000
0M00
0001
0200
0000
0320
0000
,
1M30
0001
1000
0000
0001
0000
0010
0000
010M
0000
1000
0000
0100
0000
0010
0000
,
0M01
1000
0100
001M
0100
1000
0001
0100
,
M010
0100
0001
2000
310M
0010
0002
1003
,
001M
0200
0310
1000
0M02
0000
2003
0000
,
30M1
0100
0001
0000
1000
0000
0001
0000
1M00
0000
0010
0000
0100
0000
0010
0000
,
M100
0000
0001
0000
1000
0010
1000
0000
00M1
0000
1000
0000
0100
0000
0010
0000
,
M100
1000
0002
1003
0M10
2000
3001
0010
,
010M
0010
0100
0010
0M01
1000
0001
1000
,
0400
0000
0000
0000
0300
0000
0000
0000
0020
0000
0000
0M00
0000
0000
0000
0031
,
0010
0100
0010
0100
1000
0100
1000
0100
0010
0001
2000
0000
0000
000M
0000
0000
,
0M00
0000
0000
0000
3004
0000
0000
0000
0203
0000
00M0
0000
0000
0310
1000
0010
,
2000
0000
0M00
0000
3001
0100
0001
0100
0010
0100
0020
0000
2030
0000
0000
00M0
,
3000
0000
0001
0100
0002
0000
0M00
0000
2003
0000
00M0
0000
000M
0000
0000
3100
,
0010
0001
0010
0001
1000
0001
1000
0001
0100
0010
0200
0000
0000
00M0
0000
0000
,
0000
M000
0000
0000
0340
0000
0000
0000
2030
0000
00M0
0000
0000
3001
0010
0001
,
0020
0000
0000
000M
0000
0000
0031
1000
0001
0000
0100
0000
002M
0000
0000
0000
,
2030
0000
0000
0M00
0000
0000
0000
000M
,
0000
0000
3000
0000
0001
0010
0100
1000
,
0000
0001
0100
0010
1000
0001
0010
0100
,
2000
0000
0000
0000
3200
0000
0000
0000
M310
0001
0010
0000
0100
0000
0010
0000
,
0M01
1000
0010
0100
001M
1000
0001
0100
,
M010
0100
0001
1000
010M
0010
0100
0020
,
0M31
1000
0002
1003
001M
2000
3001
0010
,
M002
0000
0000
0000
2003
0000
0000
0000
310M
0010
0100
0000
1000
0000
0001
0000
,
M010
0000
0100
0000
0010
0000
0001
0000
1M00
0000
0001
0000
0100
0001
0100
0000
,
M010
0100
0001
1000
0M01
0010
0001
2000
,
310M
0010
0200
1300
00M1
0100
0010
0100
,
M002
0000
0000
0000
2003
0000
0000
0000
301M
1000
0010
0000
1000
0000
0001
0000
,
0M10
0001
1000
0010
M100
0001
1000
0001
,
01M0
0001
1000
0100
001M
0100
1000
0002
,
1M03
0010
0200
0310
1M00
0002
0013
0001
,
2M00
0000
0000
0000
3200
0000
0000
0000
13M0
0001
1000
0000
0010
0000
1000
0000
,
0M01
0000
0010
0000
0100
0000
0010
0000
M001
0000
1000
0000
0001
0100
0001
0000
,
10M0
0100
0010
0100
10M0
0001
0200
0310
,
M100
0002
1003
0100
M010
0001
0010
0001
,
1M00
0000
0010
0000
1000
0000
0010
0000
0200
0000
0301
1000
0000
1000
0100
0010
,
0100
1000
0100
0010
0000
0002
0000
0000
1003
0010
1000
0010
0000
0100
0001
0100
,
0010
1000
0010
1000
0000
0002
0000
0000
1003
0000
0100
0000
1000
0000
0001
0000
,
0M00
1000
0010
1000
0001
1000
0001
0010
,
M000
0200
0000
0300
0010
0001
0010
0100
,
00M0
1000
0001
1000
0010
1000
0010
0100
,
M000
0002
0000
0003
0100
0010
0100
0001
,
00M0
1000
0100
1000
0001
0100
0001
1000
,
0000
0200
0000
0300
0010
0100
0010
0001
,
0M00
1000
0010
1000
0001
1000
0001
0010
,
M000
0200
0000
0300
1000
0100
1000
0001
,
0M00
1000
0010
1000
0001
0010
0001
1000
,
00M0
0200
0000
0300
0010
0001
0010
0100
,
M000
0010
0001
0010
0100
1000
0100
0010
,
M000
0000
0002
0000
0000
0000
0003
0000
1000
0010
1000
0010
1000
0000
0000
0000
;

//---------------dance-single - Lv. 55----------------
#NOTES:
     dance-single:
     Lv. 55:
     Easy:
     6:
     0.332,0.000,0.000,0.476,0.054:
0000
0000
0000
0000
,
0000
0000
0000
0000
,
0000
0000
0000
0000
,
0000
0000
0000
0000
,
0000
0000
0000
0000
,
0000
0000
0000
0000
,
0000
0000
0000
0000
,
0000
0000
0000
0000
,
0000
0000
0000
0000
,
0000
0000
0000
0000
,
0000
0000
0000
0000
,
0002
0000
0000
1003
0000
0000
0000
0000
,
2000
0000
0000
3010
0000
0000
0000
0000
,
0020
0000
0000
0130
0000
0000
0000
0000
,
0200
0000
0000
0301
0000
0000
0000
0000
,
0002
0000
0000
0000
0000
0000
1003
0000
0000
0000
0000
00M0
0000
0000
0000
0000
,
2000
0000
0000
3100
0000
000M
0000
0000
,
0200
0000
0000
0000
0000
0000
0310
0000
0000
0000
0000
M000
0000
0000
0000
0000
,
0020
0000
0000
0000
0000
0000
0031
0000
0000
0000
0000
0M00
0000
0000
0000
0000
,
2000
0000
0000
3000
0000
4000
0000
0000
,
3010
0000
0000
0000
0000
0000
0010
0000
0000
0000
0000
M000
0000
0000
0000
0000
,
0100
0000
0000
0000
0000
0000
0100
0000
0000
0000
0000
00M0
0000
0000
0000
0000
,
0001
0000
0000
0000
0000
0000
0001
0000
0000
0000
0000
0M00
0000
0000
0000
0000
,
1000
0000
0000
0000
0000
0000
1000
0000
0000
0000
0000
000M
0000
0000
0000
0000
,
0100
0000
0000
0000
0000
0000
0100
0000
0000
0000
0000
M000
0000
0000
0000
0000
,
0010
0000
0000
0000
0000
0000
0010
0000
0000
0000
0000
0M00
0000
0000
0000
0000
,
0001
0000
0000
0001
0000
0000
0000
0000
,
0000
4000
0000
0000
0000
0000
3000
0000
,
0002
0000
0000
0M00
0000
0000
1003
0000
,
0020
0000
0000
000M
0000
0000
1030
0000
,
0002
0000
1003
0100
0000
0000
2000
0000
,
3002
0000
0000
0M00
0000
0000
1003
0100
,
2000
0000
0000
000M
0000
0000
3100
0010
,
0200
0000
0000
00M0
0000
0000
1300
0001
,
2000
0000
0000
0M00
0000
0000
3001
0010
,
0002
0000
0013
0100
,
0020
0000
0000
0000
0031
1000
0001
1000
,
0100
0000
0020
0000
0000
0000
0000
0M00
,
0000
0000
0034
0000
,
2003
0000
0000
3001
0200
0000
0310
0100
,
0010
1000
0020
M000
,
0000
0000
1030
0001
2000
0000
0000
0000
,
3002
0000
0000
0000
1003
0100
1000
0100
,
0010
0000
0002
0000
0000
0000
0000
00M0
,
0000
0000
4003
0000
,
3020
0000
0000
1030
0002
0000
0000
1003
,
0100
1000
0002
0000
,
0000
M000
0000
0000
0000
0000
0000
0000
,
2003
0000
3100
0010
0000
0000
0001
0000
,
1000
0001
0000
0000
0020
0000
0032
0000
,
1M03
0000
0000
0000
001M
0100
0010
0000
,
1M00
0001
M010
0001
,
10M0
0002
1M03
0020
,
103M
0001
20M0
3002
,
0M13
0000
0100
0000
M010
0001
0010
0000
,
010M
0000
1000
0000
0M01
1000
0001
0000
,
10M0
0010
100M
0010
,
M100
0100
0001
0001
,
1000
0000
0000
1000
000M
0000
0000
0000
0010
0000
0000
0020
0000
0000
0000
0000
,
0130
0000
0000
0100
0000
0000
M000
0000
0001
0000
0000
0002
0000
0000
0000
0000
,
1003
0000
0000
1000
0000
0000
0000
0000
,
0100
0000
0000
0200
0000
0000
0000
0000
,
0310
0000
0000
0010
0000
0000
0000
0000
,
0001
0000
0000
0002
0000
0000
0000
0000
,
2003
0000
0000
0000
3000
0040
0000
0000
,
0130
0000
0000
0100
0000
0000
0M00
0000
,
0001
0000
0000
0001
0000
0000
000M
0000
,
1000
0000
0000
1000
0000
0000
M000
0000
,
0100
0000
0000
0100
0000
0000
0100
0000
,
0010
0000
0000
0010
0000
0000
00M0
0000
,
0001
0000
0000
0001
0000
0000
000M
0000
,
1000
0000
0000
1000
0000
0000
M000
0000
,
0000
0040
0000
0000
0000
0000
0000
0000
,
0230
0000
0000
00M0
0000
0000
0301
0000
,
2000
0000
0000
0M00
0000
0000
3001
0000
,
0020
0000
0130
1000
0000
0000
0002
0000
,
2003
0000
0000
00M0
0000
0000
3100
0010
,
0200
0000
0000
M000
0000
0000
0310
0001
,
0020
0000
0000
0M00
0000
0000
0130
0010
,
0200
0000
0000
00M0
0000
0000
1300
0001
,
2000
0000
3400
0000
,
0320
0000
0000
0000
0031
0001
1000
1000
,
0100
2000
0000
0M00
,
0000
0000
3004
0000
,
0203
0000
0000
0310
0020
0000
1030
1000
,
0001
0000
0100
0000
0002
0000
0000
M000
,
0000
0000
0000
0000
1003
0000
0100
0000
2000
0000
0000
00M0
0000
0000
0000
0000
,
3002
0000
0000
0000
0103
0100
0010
0010
,
1000
0020
0000
M000
,
0000
0000
4030
0000
,
3002
0000
0M00
0013
0020
0000
000M
0130
,
0100
1000
0200
0000
,
0000
M000
0000
0000
0000
0000
0000
0000
,
0320
0000
0031
1000
0000
0000
0001
0000
,
0010
0100
0000
0000
2000
0000
3002
0000
,
1M03
0000
0100
0000
10M0
0001
1000
0000
,
00M1
0100
M001
0100
,
001M
2000
3M01
0020
,
0M31
1000
00M2
2003
,
3M01
0000
1000
0000
001M
0100
0010
0000
,
1M00
0000
0001
0000
10M0
0100
1000
0000
,
0M01
2000
30M1
0010
,
0M01
0001
1000
1000
,
0200
0300
0020
0M00
,
0031
0001
1000
1000
0010
0020
0000
M000
,
0000
0000
0430
0000
0302
00M0
0000
1003
,
2000
0000
3M01
0001
0010
0100
0020
0000
,
M000
0031
0002
0000
2003
00M0
0000
0000
,
3010
0010
0100
0100
0001
0002
0000
0M00
,
0000
0000
4003
0000
3200
000M
0000
0310
,
0020
0000
M000
0031
0001
0000
1000
0000
,
0002
0000
0000
0000
,
0000
0000
0000
0000
2003
0000
3001
0100
,
0000
0000
0001
0000
1000
0100
0000
0000
,
2000
3002
0M13
0100
,
M010
0001
0010
0000
0M01
0000
1000
0000
,
00M1
1000
001M
0200
,
M301
0200
03M1
1000
,
0M02
2003
30M1
0010
,
010M
1000
0100
0000
10M0
0000
0001
0000
,
1M00
0001
1000
0000
001M
0000
2000
0000
,
3M01
2000
30M1
0010
,
M200
0320
0M31
1000
,
001M
0100
0010
0000
M100
0000
0001
0000
,
10M0
0001
1M00
0020
,
013M
0020
M130
0001
,
2M00
3002
10M3
0010
,
M100
0001
0100
0000
00M1
0000
1000
0000
,
0M01
0010
0001
0000
100M
0000
0200
0000
,
13M0
0200
M310
0001
,
0010
0000
0000
0000
0001
0000
0000
0000
0010
0000
0000
0010
0000
0000
0000
0000
,
0100
0000
0000
0200
0000
0000
0000
0000
1300
0000
0000
1000
0000
0000
0000
0000
,
0001
0000
0000
0002
0000
0000
0000
0000
0103
0000
0000
0000
0000
0000
0100
0000
,
0000
0000
0000
000M
0000
0000
0000
0000
0010
0000
0000
0000
0000
0000
0020
0000
,
0000
0000
0000
0000
1030
0000
0000
1000
,
0000
0000
0000
0M00
0000
0000
0000
0000
0001
0000
0000
0000
0000
0000
0002
0000
,
0000
0000
0000
0000
1003
0000
0000
1000
,
0000
0000
0000
000M
0000
0000
0000
0000
0100
0000
0000
0000
0000
0000
0200
0000
,
0000
0000
0000
0000
0310
0000
0000
0010
,
0000
0000
0000
M000
0000
0000
0000
0000
0001
0000
0000
0000
0000
0000
0002
0000
,
0000
0000
0000
0000
1003
0000
0000
1000
,
0000
0000
0000
0M00
0000
0000
0000
0000
0010
0000
0000
0000
0000
0000
0020
0000
,
0000
0000
0000
0000
0130
0000
0000
0100
,
0000
0000
0000
00M0
0000
0000
0000
0000
0001
0000
0000
0000
0000
0000
0002
0000
,
0000
0000
0000
0000
1003
0001
1000
0000
;

//---------------dance-single - Lv. 40----------------
#NOTES:
     dance-single:
     Ace Of Hearts (2014):
     Beginner:
     3:
     0.142,0.000,0.000,0.319,0.000:
0000
0000
0000
0000
,
0000
0000
0000
0000
,
0000
0000
0000
0000
,
0000
0000
0000
0000
,
0000
0000
0000
0000
,
0000
0000
0000
0000
,
0000
0000
0000
0000
,
0000
0000
0000
0000
,
0000
0000
0000
0000
,
0000
0000
0000
0000
,
0000
0000
0000
0000
,
1000
0000
0000
0000
,
2000
0000
0000
3000
0000
0000
0000
0000
,
0001
0000
0000
0000
,
0002
0000
0000
0003
0000
0000
0000
0000
,
0010
0000
000M
0000
,
0020
0000
0000
0030
0000
0000
0000
0000
,
0100
0000
00M0
0000
,
0200
0000
0000
0300
0000
0000
0000
0000
,
0020
0000
0M30
0000
,
0001
0000
00M0
0000
,
0001
0000
0000
0000
,
1000
0000
000M
0000
,
1000
0000
0000
0000
,
0100
0000
M000
0000
,
0100
0000
0000
0000
,
0010
0000
0M00
0000
,
0040
0000
0030
0000
,
0002
0000
0000
0003
0000
00M0
0000
0000
,
2000
0000
0000
3000
0000
0M00
0000
0000
,
0020
0000
0000
0030
0000
000M
0000
0000
,
0200
0000
0000
0300
0000
M000
0000
0000
,
0002
0000
0000
0003
0000
00M0
0000
0000
,
2000
0000
0000
3000
0000
000M
0000
0000
,
0200
0000
0000
0300
0000
M000
0000
0000
,
0020
0000
0030
0000
,
0001
0000
0001
0000
,
0002
0000
0000
00M0
,
0000
0000
0003
0000
,
1000
0000
1000
0000
,
2000
0000
0000
000M
,
0000
0000
3000
0000
,
0100
0000
0100
0000
,
0200
0000
0000
M000
,
0000
0000
0300
0000
,
0010
0000
0010
0000
,
0020
0000
0000
0M00
,
0000
0000
0030
0000
,
0002
0000
0003
0000
,
0002
0000
0003
0000
,
2000
0000
3000
0000
,
0010
0000
M010
0000
,
0020
0000
0030
0000
,
0200
00M0
0300
0000
,
0001
0000
0M01
0000
,
0002
0000
0003
0000
,
1000
0000
100M
0000
,
2000
0000
3000
0000
,
0002
0000
0003
M000
,
0002
0000
0003
0000
,
0100
0000
0000
0000
,
0200
0000
0000
0300
0000
0000
0000
0000
,
0010
0000
0000
0000
,
0020
0000
0000
0030
0000
0000
0000
0000
,
2000
0000
3000
0000
,
0001
0000
M000
0000
,
0001
0000
0000
0000
,
0100
0000
000M
0000
,
0100
0000
0000
0000
,
0010
0000
0M00
0000
,
0010
0000
0000
0000
,
1000
0000
00M0
0000
,
4000
0000
3000
0000
,
0002
0000
0000
0003
0000
0M00
0000
0000
,
2000
0000
0000
3000
0000
000M
0000
0000
,
0200
0000
0000
0300
0000
M000
0000
0000
,
0020
0000
0000
0030
0000
000M
0000
0000
,
0200
0000
0000
0300
0000
00M0
0000
0000
,
2000
0000
0000
3000
0000
0M00
0000
0000
,
0002
0000
0000
0003
0000
00M0
0000
0000
,
2000
0000
3000
0000
,
0010
0000
0010
0000
,
0020
0000
0000
M000
,
0000
0000
0030
0000
,
1000
0000
1000
0000
,
2000
0000
0000
000M
,
0000
0000
3000
0000
,
0001
0000
0001
0000
,
0002
0000
0000
M000
,
0000
0000
0003
0000
,
0010
0000
0010
0000
,
0020
0000
0000
000M
,
0000
0000
0030
0000
,
0002
0000
0003
0000
,
2000
0000
3000
0000
,
0100
0000
M100
0000
,
0200
0000
0300
0000
,
0020
0M00
0030
0000
,
0002
00M0
0003
0000
,
1000
0000
100M
0000
,
2000
0000
3000
0000
,
0001
0000
0001
0000
,
M002
0000
0000
0000
,
0003
0000
1000
0000
,
100M
0000
2000
0000
,
0000
3000
0100
0000
,
0100
0000
M200
0000
,
0000
0300
0010
0000
,
0010
0000
0M20
0000
,
0000
0030
0001
0000
,
00M1
0000
0002
0000
,
0000
0000
0000
0000
,
0003
0000
2000
0000
,
3000
0000
0020
0000
,
0030
0000
0100
0000
,
01M0
0000
0200
0000
,
0300
0000
0002
0M00
,
0003
0000
2000
000M
,
3000
0000
0100
0000
,
M100
0000
0200
0000
,
0300
0000
0010
0000
,
0M10
0000
0020
0000
,
0030
0000
0001
0000
,
00M1
0000
0002
0000
,
0003
0000
1000
0000
,
100M
0000
2000
0000
,
3000
0000
0010
0000
,
M010
0000
0020
0000
,
0030
0000
0100
0000
,
01M0
0000
0200
0000
,
0300
0000
0002
0000
,
0003
0000
0002
0000
,
0003
0000
1000
0000
,
0000
0000
0000
0000
2000
0000
0000
3000
,
0000
0000
0001
0000
,
M000
0000
0000
0000
0002
0000
0000
0003
,
0000
0000
0100
0000
,
000M
0000
0000
0000
0200
0000
0000
0300
,
0000
0000
0010
0000
,
0M00
0000
0000
0000
0020
0000
0000
0030
,
0000
0000
1000
0000
,
00M0
0000
0000
0000
2000
0000
0000
3000
,
0000
0000
0001
0000
,
000M
0000
0000
0000
0002
0000
0000
0003
,
0000
0000
0400
0300
;
