#TITLE:Club-Rockin' Beats;
#SUBTITLE:(Nightcore Mix);
#ARTIST:Serenity & Spyer feat. Tevin;
#TITLETRANSLIT:;
#SUBTITLETRANSLIT:;
#ARTISTTRANSLIT:;
#GENRE:Nightcore;
#CREDIT:Ace Of Hearts;
#BANNER:Club-Rockin' Beats - Bn.png;
#BACKGROUND:Club-Rockin' Beats - Bg.png;
#LYRICSPATH:;
#CDTITLE:Ace Of Hearts.png;
#MUSIC:Club-Rockin' Beats (Nightcore Mix).ogg;
#OFFSET:0.765;
#SAMPLESTART:21.600;
#SAMPLELENGTH:12.000;
#SELECTABLE:YES;
#BPMS:0.000=178.400,323.000=89.200,355.000=178.400;
#STOPS:;
#BGCHANGES:;
#KEYSOUNDS:;

//---------------dance-single - Expert----------------
#NOTES:
     dance-single:
     Ace Of Hearts (2014):
     Challenge:
     11:
     0.949,0.380,0.266,1.000,1.000:
0000
0000
0000
0000
,
0001
0001
0001
0001
,
0001
0000
0000
1000
0000
0200
0000
0300
0110
0000
0000
0000
,
0010
0010
0010
0200
,
1300
0000
0000
0002
0000
0000
1003
0000
0200
0000
0000
0300
,
1000
1000
1000
1000
,
0001
0000
0000
0001
0000
0200
0000
0300
0110
0000
0000
0000
,
0010
0010
1000
0001
,
0001
0000
0000
0010
0000
0200
0000
0300
1100
0000
0000
0000
,
1000
0000
0001
0100
0000
0000
0110
0000
0000
0000
0000
0010
,
1000
0000
1000
0001
0000
0000
0101
0000
0000
0000
0000
0000
,
0100
0000
0100
0010
0000
0000
1010
0000
1000
0001
0000
0000
,
1000
0000
0000
0100
0000
0010
0000
0000
0022
0000
0030
0000
,
1003
0000
0010
0100
0000
0000
0202
0000
0303
0000
0000
0000
,
0001
0000
0001
1000
0000
0000
2200
0000
3300
0000
0000
0000
,
0100
0000
0100
0020
0000
0000
0032
0000
0000
2003
0000
0000
,
3020
0000
0000
0230
0000
0000
0320
0000
0030
2010
0000
0000
,
3002
0000
0003
0021
0000
0000
0230
0000
1300
0001
0000
0001
,
1000
0000
0000
0000
1010
0000
0000
0000
0000
0000
0000
0000
0000
0000
0000
0000
1000
0000
0010
M00M
0010
0000
0001
0000
,
0100
M00M
0100
0000
1000
0000
0010
M00M
0010
0000
0001
0000
0100
M00M
0100
0000
1000
0000
0002
0000
0000
0000
0013
0000
,
0100
0000
2000
0000
0000
3002
0000
0000
0000
0203
0000
0000
,
0320
0000
0000
0230
0000
0000
0302
0000
0000
2003
0000
3100
,
0010
0000
0022
0000
0000
0033
0000
0000
0001
0020
0000
0000
,
0230
0000
0000
2300
0000
0000
3002
0000
0103
0010
0000
0010
,
1000
0000
0002
0000
0000
0203
0000
0000
0000
0320
0000
0000
,
2030
0000
0000
3002
0000
0000
0023
0000
0130
1000
0000
1000
,
0001
0000
0202
0000
0000
0303
0000
0000
0100
0010
0100
0010
,
1000
00M0
1000
0001
1000
0001
0010
0000
001M
M200
0000
13M0
,
0M01
0000
M201
0000
0000
002M
0300
0000
1030
0002
0000
0000
,
0023
0230
2300
3002
,
0203
0000
0020
0000
0330
MMMM
0100
0000
0100
0002
0000
0000
,
2003
0000
3000
1200
0000
0000
0320
0000
0031
1000
0000
1000
,
0010
0000
0210
0000
0000
0302
0000
0000
1003
0100
0010
0100
,
1000
0000
1000
0001
0000
0001
0200
0000
0310
1000
0000
1000
,
0001
0000
0001
1000
0000
1000
0002
0000
1003
0010
0100
0010
,
1000
0000
1000
0001
0000
0001
0010
0000
0010
0200
0000
0300
,
0200
0000
1300
0001
0000
0001
0020
0000
0130
1000
0001
1000
,
0010
0000
0010
0100
0000
0100
0002
0000
1003
0010
0000
0010
,
0100
0000
0100
0002
0000
1003
0002
0000
1003
0100
0010
0100
,
1000
0000
1000
0100
0000
0100
0020
0000
0130
2000
0000
0000
,
3002
0000
0000
0203
0000
0310
1000
0000
1000
0001
0010
0001
,
1000
0000
1000
0100
0000
0100
0020
0000
0130
2000
0000
3001
,
2000
0000
3010
2000
0000
3001
2000
0000
3001
0010
0100
0010
,
0001
0000
0001
1000
0000
1000
0020
0000
0130
0002
0000
0000
,
2003
0000
3100
0010
0000
0010
0002
0000
1003
0010
0100
0010
,
1000
0000
1000
0001
0000
0001
0020
0000
0130
2000
0000
3001
,
0020
0000
0130
0020
0000
0031
0020
0000
0130
1000
0001
1000
,
0100
0000
0100
0010
0000
0010
0002
0000
1003
0200
0000
0310
,
0200
0000
1300
0200
0000
0310
0100
1000
0100
0010
0001
0010
,
0100
0000
0100
1000
0000
1000
0002
0000
1003
0020
0000
0130
,
0020
0000
1030
0020
0000
0130
0020
0000
1030
0001
0010
0001
,
1000
0000
1000
0100
0000
0100
0020
0000
0130
2000
0000
0000
,
3002
0000
0103
0002
0000
1003
0002
0000
1003
0100
0010
0100
,
1000
0000
1000
0001
0000
0001
0200
0000
0310
2000
0000
3001
,
0020
0000
0130
0020
0000
0031
0020
0000
0130
0010
0001
0010
,
0100
0000
0100
1000
0000
1000
0002
0000
1003
0020
0000
0000
,
0230
0000
0301
1000
0000
1000
0002
0000
1003
0100
0010
0100
,
1000
0000
1000
0001
0000
0001
0200
0000
0310
2000
0000
3001
,
2000
0000
3100
2000
0000
3001
2000
0000
3010
0100
0001
0100
,
0010
0000
0010
0100
0000
0100
0002
0000
1003
0200
0000
0310
,
0200
0000
1300
0200
0000
0310
0200
0000
1300
0001
0100
0001
,
1000
0000
1000
0100
0000
0100
0020
0000
0130
2000
0000
3001
,
2000
0000
3010
2000
0000
3001
2000
0000
3001
0010
0100
0010
,
0001
0000
0001
1000
0000
1000
0020
0000
0130
0002
0000
0000
,
2003
0000
0000
3001
0010
0001
1000
0100
1000
0001
0000
0000
,
2000
3020
0230
0302
,
2003
0000
0000
3100
0000
0010
0000
0000
0022
0000
0000
0033
,
0002
0000
2003
0000
3020
0030
0210
0000
,
0302
0000
0000
2003
0000
0000
3100
0000
0220
0000
0000
0330
,
0020
0032
2003
3020
,
0230
0000
0000
0301
0000
2000
0000
3000
2200
0000
0000
3300
,
0200
0000
0000
0320
0000
0000
0032
0000
0003
2001
0000
0000
,
3020
0000
0000
0130
0000
0001
0000
0000
2002
0000
0000
3003
,
1100
0000
0100
0010
0000
0000
0022
0000
0000
0033
0000
0001
,
1000
0000
1000
0010
0000
0000
0220
0000
0000
0330
0000
0000
,
0100
0000
0100
0001
0000
0000
1001
0000
1000
0100
0000
0000
,
0110
0000
0000
0010
0000
0001
0000
0000
2002
0000
0000
3003
,
2000
0000
3010
0100
0000
0000
0202
0000
0000
0303
0000
0000
,
1001
0000
1000
0100
0000
0000
0220
0000
0000
0330
0000
0000
,
0011
0000
0001
2000
0000
0000
3020
0000
0030
0210
0000
0000
,
0302
0000
2003
0000
3020
0000
0230
0302
,
2003
0000
0000
0000
0000
0000
3200
0000
0000
0000
0310
0000
0001
0000
0000
0000
0001
0000
1000
0000
0000
0000
2002
0000
0000
0000
3003
0000
0000
0000
0000
0000
0000
0000
1000
0000
0100
M00M
0100
0000
0001
0000
0010
M00M
0010
0000
1000
0000
,
0100
M00M
0100
0000
0001
0000
0010
M00M
0010
0000
1000
0000
0002
0000
0000
0000
0103
0000
0010
0000
0000
0000
2000
0000
0000
0000
0000
0000
3002
0000
0000
0000
0000
0000
0003
0000
0020
0000
0000
0000
0000
0000
0230
0000
0000
0000
0000
0000
,
2300
0000
0000
3002
0000
0000
0203
0000
0310
1000
0000
2200
0000
0000
0000
3300
0000
0100
0020
0000
0000
0032
0000
0000
,
2003
0000
0000
3020
0000
0130
0002
0000
1003
0100
0000
0020
0000
0000
0230
0000
0000
0000
2300
0000
0000
3002
0000
0000
,
0203
0000
0000
0320
0000
1030
0001
0000
0001
0010
0000
0220
0000
0330
0000
0000
0000
0100
1000
0100
1000
0001
M000
0001
,
1000
0001
1000
0010
0000
M010
020M
0000
03M1
1M00
0000
120M
0000
0000
M320
0000
0000
0031
2000
0000
0000
3020
0000
0030
,
0210
0000
0000
0000
0000
0000
0302
0000
0000
0000
0003
0000
2001
0000
0000
0000
0000
0000
3200
0000
0000
0000
0020
0000
0330
0000
0000
MMMM
0000
0000
0001
0000
0000
0000
0001
0000
2000
0000
0000
0000
0000
0000
3020
0000
0000
0000
0000
0000
,
0230
0000
0000
0302
0000
1003
0100
0000
0100
0010
0000
0012
0000
0000
2003
0000
0000
3010
0100
0000
0001
0000
0100
0000
,
0001
0000
0001
1000
0000
1000
0200
0000
0310
0002
0000
1003
,
0002
0000
0103
0002
0000
1003
0002
0000
0013
0100
1000
0100
,
0010
0000
0010
0001
0000
0001
2000
0000
3010
0200
0000
0000
,
0302
0000
1003
0200
0000
0310
0002
0000
1003
0010
0100
0010
,
1000
0000
1000
0001
0000
0001
0020
0000
0130
0020
0000
0031
,
0020
0000
0130
0020
0000
0031
0020
0000
0130
1000
0001
0100
,
0001
0000
0001
1000
0000
1000
0200
0000
0310
0002
0000
1003
,
0200
0000
0310
0002
0000
1003
0020
0000
0130
0001
0100
0010
,
1000
0000
1000
0001
0000
0001
0200
0000
0310
0200
0000
0301
,
0200
0000
0310
0200
0000
0301
0200
0000
0310
1000
0010
0100
,
0001
0000
0001
1000
0000
1000
0200
0000
0310
0002
0000
1003
,
0020
0000
1030
0002
0000
0013
0200
0000
1300
0100
0010
0100
,
1000
0000
1000
0001
0000
0001
0200
0000
0310
0200
0000
0301
,
0200
0000
0310
0200
0000
0301
0200
0000
0310
1000
0010
0100
,
0001
0000
0001
1000
0000
1000
0200
0000
0310
0002
0000
1003
,
0002
0000
0013
0002
0000
1003
0001
0100
0010
2000
0000
0000
,
3002
0000
0000
0023
0000
0000
0230
0000
1300
0002
0000
0103
,
0010
0000
2020
0000
0000
3030
0000
0000
1000
0010
1000
0010
,
0100
00M0
0100
0001
0100
0001
1000
0000
100M
02M0
0000
M310
,
0M02
0003
20M1
0000
0000
3020
0000
0000
0130
0002
0000
0000
,
2003
3200
0320
0230
,
2300
0000
0002
0000
3003
MMMM
1000
0000
1000
0200
0000
0000
,
0320
0000
0000
0230
0000
0000
2300
0000
3001
0200
0000
0310
,
1000
0000
1002
0000
0000
0013
0100
1000
0001
0200
0000
0000
,
0000
0000
0000
0000
,
0000
0300
0000
0000
;

//---------------dance-single - Hard----------------
#NOTES:
     dance-single:
     Ace Of Hearts (2014):
     Hard:
     10:
     0.869,0.346,0.000,1.000,1.000: // measure 1
0000
0000
0000
0000
,  // measure 2
1000
1000
1000
1000
,  // measure 3
1000
0000
0000
0001
0000
0200
0000
0000
0310
0000
0000
0000
,  // measure 4
1000
1000
1000
0002
,  // measure 5
0013
0000
0000
0100
0000
0000
1000
0000
2000
0000
0000
3000
,  // measure 6
0001
0001
0001
0001
,  // measure 7
0100
0000
0000
0100
0000
0020
0000
0000
1030
0000
0000
0000
,  // measure 8
0001
0001
1000
0100
,  // measure 9
0100
0000
0000
0010
0000
0020
0000
0000
0031
0000
0000
0000
,  // measure 10
0001
0000
0001
0020
0000
0000
0130
0000
0000
0000
0000
1000
,  // measure 11
0001
0000
0001
2000
0000
0000
3100
0000
0000
0000
0000
0000
,  // measure 12
0010
0000
0010
0002
0000
0000
1003
0000
1000
0010
0000
0000
,  // measure 13
0200
0000
0000
0301
0000
2000
0000
0000
3200
0000
0000
0000
,  // measure 14
0310
0000
0010
0200
0000
0000
2300
0000
0000
3000
0000
0000
,  // measure 15
0001
0000
0001
0020
0000
0000
0230
0000
0000
0300
0000
0000
,  // measure 16
0020
0000
0031
2000
0000
0000
3200
0000
0000
0320
0000
0000
,  // measure 17
0230
2300
3002
2003
,  // measure 18
3200
0000
0000
2300
0000
0000
3001
0000
0001
0100
0000
0100
,  // measure 19
0010
0000
1000
0000
0000
0000
0000
0000
0001
0010
0001
0010
,  // measure 20
0001
0010
0100
1000
0100
1000
0100
1000
0100
0020
0000
0031
,  // measure 21
1000
0000
0200
0000
0000
0320
0000
0000
0000
0032
0000
0000
,  // measure 22
2003
0000
0000
3020
0000
0000
0230
0000
0000
0302
0000
1003
,  // measure 23
0100
0000
0020
0000
0000
0030
0000
0000
0100
2000
0000
0000
,  // measure 24
3002
0000
0000
0203
0000
0000
0320
0000
1030
0001
0000
0001
,  // measure 25
1000
0000
2000
0000
0000
3200
0000
0000
0000
0320
0000
0000
,  // measure 26
0230
0000
0000
2300
0000
0000
3002
0000
1003
0010
0000
0010
,  // measure 27
1000
0000
0001
0000
0000
0000
0000
0000
1000
0100
0010
0100
,  // measure 28
1000
0000
0001
0010
0100
0010
0001
0000
1000
0100
0000
0100
,  // measure 29
0010
0000
0002
0000
0000
2003
0000
0000
3001
0020
0000
0000
,  // measure 30
0032
2003
3020
0230
,  // measure 31
0301
0000
1000
0000
0000
0000
0001
0000
0001
2000
0000
0000
,  // measure 32
3200
0000
0000
0320
0000
0000
0230
0000
1300
0001
0000
0001
,  // measure 33
0100
0000
0020
0000
0000
2030
0000
0000
3001
0010
0000
0010
,  // measure 34
0100
0000
0100
1000
0000
1000
0001
0000
0001
1000
0000
1000
,  // measure 35
0010
0000
0010
0100
0000
0100
0002
0000
1003
0100
0000
0100
,  // measure 36
0010
0000
0010
0100
0000
0100
1000
0000
1000
0002
0000
0000
,  // measure 37
0203
0000
0310
1000
0000
1000
0002
0000
1003
0100
0000
0100
,  // measure 38
0010
0000
0010
0001
0000
0001
2000
0000
3001
0100
0000
0100
,  // measure 39
0010
0000
0010
2000
0000
3001
0020
0000
0130
1000
0000
1000
,  // measure 40
0001
0000
0001
0100
0000
0100
0010
0000
0010
2000
0000
0000
,  // measure 41
3002
0000
0000
0023
0000
0130
1000
0000
1000
0001
0000
0001
,  // measure 42
0100
0000
0100
0010
0000
0010
1000
0000
1000
0002
0000
0013
,  // measure 43
0002
0000
1003
0002
0000
0013
0002
0000
1003
0010
0000
0010
,  // measure 44
0100
0000
0100
0001
0000
0001
1000
0000
1000
0002
0000
0000
,  // measure 45
0023
0000
0130
1000
0000
1000
0002
0000
1003
0010
0000
0010
,  // measure 46
0100
0000
0100
0001
0000
0001
1000
0000
1000
0200
0000
0310
,  // measure 47
0200
0000
1300
0200
0000
0310
0200
0000
1300
0002
0000
0000
,  // measure 48
0203
0000
0000
0320
0000
0000
2030
0000
3001
0020
0000
0130
,  // measure 49
1000
0000
0002
0000
0000
0203
0000
0000
0310
1000
0010
1000
,  // measure 50
0010
0000
0010
0100
0000
0100
0002
0000
1003
0020
0000
0130
,  // measure 51
0020
0000
1030
0020
0000
0130
0020
0000
1030
0001
1000
0001
,  // measure 52
1000
0000
1000
0100
0000
0100
0010
0000
0010
0002
0000
0000
,  // measure 53
0023
0000
0130
0020
0000
0031
0020
0000
0031
1000
0001
1000
,  // measure 54
0001
0000
0001
1000
0000
1000
0010
0000
0010
0200
0000
0301
,  // measure 55
0200
0000
0310
0200
0000
0301
0200
0000
0310
1000
0010
1000
,  // measure 56
0010
0000
0010
0100
0000
0100
0002
0000
1003
0200
0000
0000
,  // measure 57
0320
0000
0031
1000
0000
1000
0020
0000
0130
0001
0100
0001
,  // measure 58
0100
0000
0100
0010
0000
0010
2000
0000
3001
0020
0000
0130
,  // measure 59
0020
0000
0031
0020
0000
0130
0020
0000
0031
1000
0001
1000
,  // measure 60
0001
0000
0001
0100
0000
0100
0002
0000
1003
0200
0000
0310
,  // measure 61
0200
0000
1300
0200
0000
0310
0200
0000
1300
0100
1000
0100
,  // measure 62
1000
0000
1000
0001
0000
0001
0200
0000
0310
2000
0000
3001
,  // measure 63
2000
0000
3100
2000
0000
3001
2000
0000
3010
0100
0010
0100
,  // measure 64
0010
0000
0010
1000
0000
1000
0002
0000
0013
0200
0000
0000
,  // measure 65
2300
0000
0000
3004
0400
0000
0000
0000
0000
0303
0000
0000
,  // measure 66
0200
0320
2030
3002
,  // measure 67
0023
0000
0000
0230
0000
2300
0000
0000
3001
0000
0000
0000
,  // measure 68
2000
3020
0230
0320
,  // measure 69
2030
0000
0000
3002
0000
0000
0013
0000
0200
0000
0000
0300
,  // measure 70
2000
3002
0203
0320
,  // measure 71
2030
0000
0000
3002
0000
0203
0000
0000
0320
0000
0000
0030
,  // measure 72
2000
3002
0023
0230
,  // measure 73
2300
0000
0000
3001
0000
0200
0000
0000
0320
0000
0030
0000
,  // measure 74
2000
0000
3001
0020
0000
0000
0230
0000
0000
0300
0000
0100
,  // measure 75
1000
0000
1000
0002
0000
0000
0203
0000
0000
0300
0000
0000
,  // measure 76
0010
0000
0010
2000
0000
0000
3001
0000
0001
0020
0000
0000
,  // measure 77
0230
0000
0000
1300
0000
0001
0000
0000
0200
0000
0000
0000
,  // measure 78
0310
0000
0010
2000
0000
0000
3002
0000
0000
0003
0000
0000
,  // measure 79
0010
0000
0010
0200
0000
0000
2300
0000
0000
3000
0000
0000
,  // measure 80
0002
0000
0103
0020
0000
0000
2030
0000
0000
3002
0000
0000
,  // measure 81
0023
0000
0230
0000
2300
0000
3002
0203
,  // measure 82
0320
0000
0000
2030
0000
3001
0010
0000
0010
0100
0000
1000
0000
0000
0000
0000
0000
0001
0100
0001
0100
0001
0100
0010
,  // measure 83
1000
0010
1000
0010
1000
0010
2000
0000
3001
0020
0000
0230
0000
0000
2300
0000
0000
3000
0002
0000
0000
0203
0000
0000
,  // measure 84
0320
0000
0000
2030
0000
0000
3002
0000
0013
0100
0000
2000
0000
0000
0000
3000
0000
0001
0020
0000
0000
0230
0000
0000
,  // measure 85
2300
0000
0000
3002
0000
0103
0010
0000
0010
2000
0000
3002
0000
0000
0203
0000
0000
0000
0320
0000
0000
2030
0000
0000
,  // measure 86
3002
0000
0000
0023
0000
0130
1000
0000
1000
0001
0000
0010
0000
0000
0000
0000
0000
0001
0010
0100
0010
0001
0000
1000
,  // measure 87
0100
0010
0100
1000
0000
0001
0020
0000
0130
1000
0000
0002
0000
0000
2003
0000
0000
3001
0200
0000
0000
0320
0000
0000
,  // measure 88
2030
0000
0000
3002
0000
0000
0023
0000
0000
0130
0000
1000
0000
0000
0000
0001
0000
0001
2000
0000
0000
3020
0000
0000
,  // measure 89
0230
0000
0000
0302
0000
1003
0100
0000
0100
0010
0000
0002
0000
0000
2003
0000
0000
3001
0010
0000
0001
0000
0010
0000
,  // measure 90
0001
0000
0001
1000
0000
1000
0001
0000
0001
0200
0000
0310
,  // measure 91
0200
0000
0301
0200
0000
0310
0200
0000
0301
0100
0001
0100
,  // measure 92
0001
0000
0001
1000
0000
1000
0100
0000
0100
0020
0000
0000
,  // measure 93
0032
0000
1003
0020
0000
1030
0002
0000
1003
0100
1000
0100
,  // measure 94
1000
0000
1000
0001
0000
0001
0100
0000
0100
0020
0000
1030
,  // measure 95
0020
0000
0130
0020
0000
1030
0020
0000
0130
0001
0100
0001
,  // measure 96
0100
0000
0100
0010
0000
0010
1000
0000
1000
0002
0000
0000
,  // measure 97
0023
0000
0130
1000
0000
1000
0002
0000
1003
0100
1000
0100
,  // measure 98
1000
0000
1000
0001
0000
0001
0200
0000
0310
2000
0000
3001
,  // measure 99
2000
0000
3100
2000
0000
3001
2000
0000
3100
0010
0100
0010
,  // measure 100
0100
0000
0100
1000
0000
1000
0001
0000
0001
2000
0000
0000
,  // measure 101
3200
0000
0310
0002
0000
1003
0002
0000
1003
0010
1000
0010
,  // measure 102
1000
0000
1000
0001
0000
0001
0010
0000
0010
0002
0000
1003
,  // measure 103
0002
0000
0013
0002
0000
1003
0002
0000
0103
0010
0100
0010
,  // measure 104
0100
0000
0100
0001
0000
0001
1000
0000
1000
0200
0000
0000
,  // measure 105
0320
0000
0130
1000
0000
1000
0002
0000
1003
0020
0000
0000
,  // measure 106
2030
0000
0000
3002
0000
0000
0023
0000
0130
0010
0000
0010
,  // measure 107
0001
0000
1000
0000
0000
0000
0000
0000
0001
0100
0010
0100
,  // measure 108
0001
0000
1000
0010
0100
0010
1000
0000
0001
0020
0000
0130
,  // measure 109
1000
0000
0002
0000
0000
0203
0000
0000
0310
2000
0000
0000
,  // measure 110
3002
0023
0230
2300
,  // measure 111
3002
0000
0103
0000
0000
0000
0020
0000
0130
0002
0000
0000
,  // measure 112
2003
0000
0000
3200
0000
0000
0320
0000
0130
1000
0000
1000
,  // measure 113
0001
0000
0020
0000
0000
0230
0000
0000
0000
2300
0000
0000
,  // measure 114
0000
0000
0000
0000
,  // measure 115
0000
3000
0000
0000
;

//---------------dance-single - Medium----------------
#NOTES:
     dance-single:
     Ace Of Hearts (2014):
     Medium:
     7:
     0.344,0.242,0.000,0.381,0.094:
0000
0000
0000
0000
,
0001
0001
0000
1000
,
0100
0000
0000
2000
0000
0000
0000
0000
3001
0000
0000
0000
,
0010
0010
0000
0100
,
0010
0000
0000
0200
0000
0000
0000
0000
1300
0000
0000
0000
,
0001
0001
0000
1000
,
0010
0000
0000
2000
0000
0000
0000
0000
3001
0000
0000
0000
,
0010
0010
0000
0001
,
0010
0000
0000
0002
0000
0000
0000
0000
1003
0000
0000
0000
,
0010
0100
0100
0000
,
0001
1000
1000
0000
,
0001
0001
0000
1000
,
0100
0000
0000
2000
0000
0000
0000
0000
3001
0000
0000
0000
,
0100
0010
0010
0000
,
1000
0001
0001
0000
,
0010
0010
0000
0001
,
1000
0002
0003
1000
,
0100
1000
0100
0020
,
0000
0000
0031
0000
0000
0000
0000
0000
0000
1000
0000
0000
,
0010
1000
0010
0200
,
0000
0000
0301
0000
0000
0000
0000
0000
0000
1000
0000
0000
,
0001
1000
0000
0002
,
0000
0000
0023
0000
0000
0000
0030
0000
0000
0001
0000
0000
,
0010
0001
0000
2000
,
0000
0000
3200
0000
0000
0000
0300
0000
0000
1000
0000
0000
,
0001
1000
0001
0200
,
0000
0000
0310
0000
0000
0000
0000
0000
0000
1000
0000
0000
,
1000
0001
0001
0020
,
0000
0000
0230
0000
0000
0300
0000
0000
0000
1000
0000
0000
,
0100
2000
3000
0002
,
0000
0000
0103
0000
0000
0000
0000
0000
0000
0010
0000
0000
,
0100
0020
0030
2000
,
0000
0000
3002
0000
0000
0003
0000
0000
0000
1000
0000
0000
,
1000
0100
0000
0010
,
0001
0010
0000
0100
,
0100
1000
0000
0001
,
0100
0001
0000
1000
,
1000
0010
0000
0100
,
0001
0100
0000
0010
,
0010
1000
0000
0001
,
0010
0001
0000
1000
,
0100
0100
0000
0010
,
0100
0010
0000
0001
,
1000
1000
0000
0001
,
0100
0001
0000
1000
,
0010
0010
0000
0100
,
0010
0100
0000
0001
,
0100
0001
0100
0020
,
0000
0000
2030
0000
0000
3000
0000
0000
0000
0001
0000
0000
,
0010
0001
0010
0200
,
0000
0000
0300
1000
,
0100
1000
0100
0020
,
0000
0000
0030
0001
,
1000
0001
1000
0200
,
0000
0000
0300
0010
,
0100
0010
0100
2000
,
0000
0000
3000
0001
,
0100
0001
0100
0020
,
0000
0000
0030
1000
,
0010
1000
0010
0200
,
0000
0000
0300
0010
,
0100
0010
0100
0002
,
0000
0000
0003
1000
,
0100
1000
0100
0020
,
0000
0034
0000
0003
,
1000
1000
0000
0010
,
0100
0000
0000
0020
0000
0000
0000
0000
1030
0000
0000
0000
,
0001
0001
0000
0010
,
0100
0000
0000
0020
0000
0000
0000
0000
0031
0000
0000
0000
,
1000
1000
0000
0100
,
0010
0000
0000
0200
0000
0000
0000
0000
1300
0000
0000
0000
,
0001
0001
0000
1000
,
0010
0000
0000
2000
0000
0000
0000
0000
3001
0000
0000
0000
,
0100
0010
0100
0000
,
0001
1000
0001
0000
,
1000
1000
0000
0001
,
0010
0000
0000
0002
0000
0000
0000
0000
1003
0000
0000
0000
,
0100
0010
0100
0000
,
1000
0001
1000
0000
,
0001
0001
0000
1000
,
0010
0000
2000
0000
3000
0000
0001
0100
,
0001
0000
0000
0100
0000
0000
0020
0000
0000
0000
0000
1030
0000
0000
0000
0000
0000
0000
0001
0000
0000
0001
0000
0000
,
0010
0000
0000
0010
0000
0000
0200
0000
0000
0000
0000
2300
0000
0000
3000
0000
0000
0000
0001
0000
0000
0010
0000
0000
,
0001
0000
0000
0010
0000
0000
0200
0000
0000
0000
0000
2300
0000
0000
3000
0000
0000
0000
0001
0000
0000
0100
0000
0000
,
0001
0000
0000
0000
0000
0000
2000
0000
0000
0000
0000
3200
0000
0000
0300
0000
0000
0000
0010
0000
0000
0100
0000
0000
,
0010
0000
0000
0100
0000
0000
2000
0000
0000
0000
0000
3001
0000
0000
0000
0000
0000
0000
1000
0000
0000
1000
0000
0000
,
0010
0000
0000
0010
0000
0000
0200
0000
0000
0000
0000
0302
0000
0000
0003
0000
0000
0000
1000
0000
0000
0100
0000
0000
,
1000
0000
0000
0100
0000
0000
0020
0000
0000
0000
0000
0031
0000
0000
0000
0000
0000
0000
1000
0000
0000
0010
0000
0000
,
1000
0000
0000
0000
0000
0000
0002
0000
0000
0000
0000
0023
0000
0000
0030
0000
0000
0000
0100
0000
0000
0000
0000
0000
,
1000
0100
1000
0002
,
0000
0000
0003
1000
,
0010
1000
0010
0200
,
0000
0000
0300
0001
,
0100
0001
0100
0020
,
0000
0000
0030
1000
,
0001
1000
0001
0200
,
0000
0000
0300
0010
,
1000
0010
1000
0002
,
0000
0000
0003
0010
,
0100
0010
0100
2000
,
0000
0000
3000
0001
,
0010
0001
0010
0200
,
0000
0000
0300
1000
,
0001
1000
0001
0020
,
0000
0000
0030
0001
,
0010
0001
0000
2000
,
0000
0000
3010
0000
0000
0000
0000
0000
0000
0100
0000
0000
,
0100
0001
0001
2000
,
0000
0000
3100
0000
0000
0000
0000
0000
0000
0010
0000
0000
,
0001
0010
0000
0200
,
0000
0000
1300
0000
0000
0000
0000
0000
0000
0001
0000
0000
,
0100
0001
0000
2000
,
0000
0000
3020
0000
0000
0030
0000
0000
0000
0200
0000
0000
,
0000
0000
0000
0000
,
0000
0300
0000
0000
;

//---------------dance-single - Easy----------------
#NOTES:
     dance-single:
     Ace Of Hearts (2014):
     Easy:
     5:
     0.239,0.138,0.000,0.339,0.000:
0000
0000
0000
0000
,
0000
1000
0000
1000
,
0000
2000
0000
3000
,
0000
0001
0000
0001
,
0000
0002
0000
0003
,
0000
0100
0000
0100
,
0000
0200
0000
0300
,
0000
0010
0000
0010
,
0000
0020
0000
0030
,
1000
1000
0000
0000
,
0001
0001
0000
0000
,
0000
0010
0000
0010
,
0000
0020
0000
0030
,
0001
0001
0000
0000
,
1000
1000
0000
0000
,
0010
0010
0000
0200
,
0000
0000
0300
0001
,
0001
0001
0000
2000
,
0000
3000
0000
0001
,
0001
0010
0010
0020
,
0000
0030
0000
0100
,
0000
0100
0000
0200
,
0000
0300
0000
1000
,
0000
1000
0000
2000
,
0000
3000
0000
0001
,
0001
0001
0000
0200
,
0000
0300
0000
0010
,
0010
1000
1000
2000
,
0000
3000
0000
0001
,
0000
0001
0000
0002
,
0000
0003
0000
0010
,
0010
0010
0000
0020
,
0000
0030
0000
0100
,
0000
0100
0000
0200
,
0000
0300
0000
1000
,
0000
1000
0000
2000
,
0000
3000
0000
0001
,
0000
0001
0000
0002
,
0000
0003
0000
0100
,
0000
0100
0000
0200
,
0000
0300
0000
0010
,
0000
0010
0000
0020
,
0000
0030
0000
1000
,
0000
1000
0000
2000
,
0000
3000
0000
0001
,
0000
0001
0000
0002
,
0000
0003
0000
0010
,
0010
0010
0000
0200
,
0000
0300
0000
1000
,
0001
1000
0000
0002
,
0000
0003
0000
1000
,
0100
1000
0000
0200
,
0000
0300
0000
0010
,
0100
0010
0000
0200
,
0000
0300
0000
0010
,
0001
0010
0000
0002
,
0000
0003
0000
1000
,
0010
1000
0000
0020
,
0000
0030
0000
0100
,
0001
0100
0000
0002
,
0000
0003
0000
1000
,
0100
1000
0000
0200
,
0000
0300
0000
0010
,
0100
0010
0000
0004
,
0000
0000
0000
0003
,
0000
1000
0000
1000
,
0000
2000
0000
3000
,
0000
0100
0000
0100
,
0000
0200
0000
0300
,
0000
0010
0000
0010
,
0000
0020
0000
0030
,
0000
0001
0000
0001
,
0000
0002
0000
0003
,
1000
1000
0000
0000
,
0010
0010
0000
0000
,
0000
0100
0000
0100
,
0000
0200
0000
0300
,
0001
0001
0000
0000
,
1000
1000
0000
0000
,
0100
0100
0000
0020
,
0000
0000
0000
0000
0030
0000
0001
0001
,
0001
0000
2000
0000
3000
0000
0100
0100
,
0010
0010
0020
0000
0030
0000
0001
0000
,
0001
0002
0003
1000
,
1000
0000
2000
0000
3000
0000
0010
0010
,
0010
0000
0200
0000
0300
0000
0001
0001
,
1000
1000
2000
0000
3000
0000
0100
0000
,
0100
0000
0200
0000
0300
0000
0010
0010
,
0010
0020
0030
0001
,
0010
0001
0000
0020
,
0000
0000
0030
0100
,
1000
0100
0000
2000
,
0000
0000
3000
0001
,
0100
0001
0000
0200
,
0000
0000
0300
0001
,
1000
0001
0000
2000
,
0000
0000
3000
0010
,
0100
0010
0000
0200
,
0000
0000
0300
0001
,
1000
0001
0000
2000
,
0000
0000
3000
0001
,
0010
0001
0000
0020
,
0000
0000
0030
0100
,
0010
0100
0000
0020
,
0000
0000
0030
0001
,
0001
0001
0000
2000
,
0000
3000
0000
0010
,
0010
0100
0100
0200
,
0000
0300
0000
0001
,
0000
0001
0000
0002
,
0000
0003
0000
1000
,
1000
1000
0000
2000
,
0000
3000
0000
0002
,
0000
0000
0000
0000
,
0000
0003
0000
0000
;

//---------------dance-single - Novice----------------
#NOTES:
     dance-single:
     Ace Of Hearts (2014):
     Beginner:
     2:
     0.155,0.069,0.000,0.290,0.000:
0000
0000
0000
0000
,
0000
0002
0000
0000
,
0000
0000
0000
0003
,
0000
2000
0000
0000
,
0000
0000
0000
3000
,
0000
0002
0000
0000
,
0000
0000
0000
0003
,
0000
0020
0000
0000
,
0000
0000
0030
0000
,
0000
0100
0000
0000
,
0000
0100
0000
0000
,
0000
0200
0000
0000
,
0000
0000
0000
0300
,
0000
1000
0000
0000
,
0000
1000
0000
0000
,
0000
2000
0000
0000
,
0000
3000
0000
0001
,
0000
0001
0000
0002
,
0000
0003
0000
0010
,
0000
0010
0000
0020
,
0000
0030
0000
0100
,
0000
0000
0000
0100
,
0000
0000
0000
1000
,
0000
0000
0000
1000
,
0000
0000
0000
0001
,
0000
0001
0000
0002
,
0000
0003
0000
0100
,
0000
0100
0000
0200
,
0000
0300
0000
0010
,
0000
0000
0000
0010
,
0000
0000
0000
0100
,
0000
0100
0000
0200
,
0000
0300
0000
0002
,
0000
0000
0000
0003
,
0000
0000
0000
2000
,
0000
0000
0000
3000
,
0000
0000
0000
0200
,
0000
0000
0000
0300
,
0000
0000
0000
0020
,
0000
0000
0000
0030
,
0000
0000
0000
0002
,
0000
0000
0000
0003
,
0000
0000
0000
2000
,
0000
0000
0000
3000
,
0000
0000
0000
0020
,
0000
0000
0000
0030
,
0000
0000
0000
0100
,
0000
0100
0000
0200
,
0000
0300
0000
0001
,
0000
0001
0000
0002
,
0000
0003
0000
1000
,
0000
1000
0000
2000
,
0000
3000
0000
0100
,
0000
0100
0000
0200
,
0000
0300
0000
0010
,
0000
0010
0000
0020
,
0000
0030
0000
0001
,
0000
0001
0000
0002
,
0000
0003
0000
1000
,
0000
1000
0000
2000
,
0000
3000
0000
0010
,
0000
0010
0000
0020
,
0000
0030
0000
0100
,
0000
0100
0000
0400
,
0000
0000
0000
0300
,
0000
0002
0000
0000
,
0000
0000
0003
0000
,
0000
2000
0000
0000
,
0000
0000
3000
0000
,
0000
0200
0000
0000
,
0000
0000
0300
0000
,
0000
0020
0000
0000
,
0000
0000
0030
0000
,
0000
0001
0000
0000
,
0000
0001
0000
0000
,
0000
0002
0000
0000
,
0000
0000
0000
0003
,
0000
1000
0000
0000
,
0000
1000
0000
0000
,
0000
2000
0000
0000
,
0000
0000
3000
0010
,
0010
0020
0030
0100
,
0100
0200
0300
0001
,
0000
0001
0000
1000
,
0000
1000
0000
0100
,
0100
0200
0300
0010
,
0010
0020
0030
0001
,
0000
0001
0000
1000
,
0000
1000
0000
0010
,
0000
0010
0000
0020
,
0000
0030
0000
1000
,
0000
1000
0000
2000
,
0000
3000
0000
0001
,
0000
0001
0000
0002
,
0000
0003
0000
0010
,
0000
0010
0000
0020
,
0000
0030
0000
0100
,
0000
0100
0000
0200
,
0000
0300
0000
1000
,
0000
1000
0000
2000
,
0000
3000
0000
0001
,
0000
0001
0000
0002
,
0000
0003
0000
1000
,
0000
1000
0000
2000
,
0000
3000
0000
0010
,
0000
0010
0000
0020
,
0000
0030
0000
0100
,
0000
0100
0000
0200
,
0000
0300
0000
0001
,
0000
0000
0000
0001
,
0000
0000
0000
1000
,
0000
1000
0000
2000
,
0000
3000
0000
0200
,
0000
0000
0000
0000
,
0000
0300
0000
0000
;
