#TITLE:Bullshit!!;
#SUBTITLE:Hard Problem!!;
#ARTIST:Kotoko;
#TITLETRANSLIT:;
#SUBTITLETRANSLIT:;
#ARTISTTRANSLIT:;
#GENRE:J-Rock;
#CREDIT:Ace Of Hearts;
#BANNER:Bullshit Hard Problem - Bn.png;
#BACKGROUND:Bullshit Hard Problem - Bg.png;
#LYRICSPATH:;
#CDTITLE:Ace Of Hearts.png;
#MUSIC:Bullshit!! Hard Problem!!.ogg;
#OFFSET:1.055;
#SAMPLESTART:30.800;
#SAMPLELENGTH:12.000;
#SELECTABLE:YES;
#DISPLAYBPM:105.000:210.000;
#BPMS:0.000=210.000,9.500=420.000,10.500=210.000,76.500=420.000,77.500=210.000,108.000=105.000,110.000=210.000,210.000=105.000,216.000=210.000,228.000=105.000,230.000=210.000,322.500=420.000,323.500=210.000;
#STOPS:9.500=0.143
,76.500=0.143
,322.500=0.143
;
#BGCHANGES:3.500=Nekonade Distortion OP.avi=1.000=1=0=1===CrossFade==,
99999=-nosongbg-=1.000=0=0=0 // don't automatically add -songbackground-
;
#FGCHANGES:;
#KEYSOUNDS:;

//---------------dance-single - Ridiculous----------------
#NOTES:
     dance-single:
     Ace Of Hearts (2014):
     Hard:
     11:
     1.000,0.000,0.808,1.000,0.183: // measure 1
0000
0000
0000
0000
,  // measure 2
0000
0000
0000
0000
,  // measure 3
0001
0010
0001
1000
0MM0
0010
0100
0002
,  // measure 4
0000
0000
1003
0000
0100
0000
0120
0000
0000
0000
0031
0000
1000
0100
1000
0100
,  // measure 5
10M0
0001
10M0
0001
10M0
0001
10M0
0010
,  // measure 6
100M
0010
100M
0010
100M
0010
100M
0001
,  // measure 7
M010
0001
M010
0001
M010
0001
M010
0100
,  // measure 8
100M
0100
100M
0100
001M
0001
1M00
0010
,  // measure 9
01M0
0001
01M0
0001
01M0
0001
01M0
0010
,  // measure 10
1M00
0010
1M00
0010
1M00
0010
1M00
0001
,  // measure 11
M100
0001
M100
0001
10M0
0100
001M
0100
,  // measure 12
1M00
0001
0101
0000
0100
0010
1010
0000
,  // measure 13
1001
0001
0000
0010
0000
0100
2000
0000
,  // measure 14
0000
0000
3000
0000
0000
M00M
0000
0000
0002
0000
0000
0000
0103
0000
0000
0000
,  // measure 15
0110
0010
0000
2000
0000
3001
0020
0000
,  // measure 16
0000
0000
0030
0000
0000
0MM0
0000
0000
0200
0000
0000
0000
2300
0000
0000
3000
,  // measure 17
1001
0001
0000
0200
0000
0310
2000
0000
,  // measure 18
0000
0000
3000
0000
0000
M00M
0000
0000
0002
0000
0000
0000
0023
0000
0000
0030
,  // measure 19
0110
0100
0000
2100
0000
0002
0000
3003
,  // measure 20
0101
0000
0100
0000
0M00
0000
0100
0000
0110
0000
0010
0000
1000
0001
1000
0001
,  // measure 21
1000
0200
0000
0020
0000
0002
0000
0000
,  // measure 22
0000
0000
0333
0000
0000
M0MM
0000
0000
0200
0000
0000
0000
2300
0000
3000
0000
,  // measure 23
1001
0002
0000
0200
0000
2000
0000
0000
,  // measure 24
0000
0000
3303
0000
0000
MMM0
0000
0000
0002
0000
0000
0000
1003
0100
0010
0100
,  // measure 25
1000
0000
0002
0000
0000
0003
0201
0000
0000
0000
0320
0000
0000
0000
1030
0000
,  // measure 26
1001
0002
0000
0023
0000
0230
2000
0000
,  // measure 27
001M
0000
00M1
0000
3300
0000
1002
0000
0000
0000
0103
0000
0010
0100
0001
0100
,  // measure 28
0010
0000
2000
0000
0000
0000
3002
0000
0023
0000
0130
0010
0100
0010
0200
0300
110M
0000
0000
0000
2000
0000
0000
0000
0000
0000
0000
0000
3002
0000
0000
0000
,  // measure 29
00M0
0103
0110
0020
0M00
2030
0000
3001
,  // measure 30
0M11
0000
0010
0000
0200
0000
0000
0300
11MM
0000
1MM0
0000
0001
0000
0200
0000
,  // measure 31
000M
0000
0320
0000
0000
0030
2010
0000
0M00
0000
3002
0000
0000
0000
0013
0000
,  // measure 32
021M
0000
0000
0000
2300
0000
0000
3000
1M01
0000
0001
0000
0100
0000
0120
0000
,  // measure 33
000M
0000
2030
0000
0000
3000
1002
0000
M000
0000
0203
0000
0000
0300
0120
0000
,  // measure 34
0M00
0000
2030
0000
0000
0000
3001
0000
M011
0000
0020
0000
0000
0030
0210
0000
,  // measure 35
000M
2000
0000
0010
0001
0000
0011
3300
,  // measure 36
20M0
0000
0000
0000
3002
0000
0000
0003
M101
0000
0200
0000
0000
0000
0320
0000
,  // measure 37
000M
1030
1001
0002
M000
0203
0000
0310
,  // measure 38
1M10
0000
1000
0000
0002
0000
0000
0003
M011
0000
0020
0000
0000
0000
0230
0000
,  // measure 39
000M
0000
2300
0000
0000
3000
1002
0000
M000
0000
0203
0000
0000
0000
0310
0000
,  // measure 40
201M
0000
0000
0000
3002
0000
0000
0003
M011
0000
0020
0000
0000
0030
0210
0000
,  // measure 41
00M0
1300
0001
0200
000M
0000
0000
M000
,  // measure 42
0000
0000
0301
1000
1100
0100
0010
0011
,  // measure 43
MM00
0001
1000
2020
3000
0130
0001
1000
,  // measure 44
0100
0020
0000
0031
1001
1000
0010
0110
,  // measure 45
0000
01MM
0000
0202
0300
1003
0100
0010
,  // measure 46
0100
1000
0001
0100
0020
MM00
0030
1000
,  // measure 47
0M01
0010
0M01
1000
0002
0000
M023
0000
,  // measure 48
1M3M
0020
M000
0031
1000
0010
0200
M0M0
,  // measure 49
0000
0000
0301
0100
0010
0100
0001
0000
2000
0000
00M0
0000
0000
0000
3200
0000
,  // measure 50
000M
0000
M3M1
0200
000M
1300
00M2
0000
,  // measure 51
M203
0000
23MM
0000
31M0
0002
0M00
1003
,  // measure 52
02M0
0000
M3M1
0200
000M
1300
0001
M100
,  // measure 53
0010
0000
M100
0000
0001
0000
1000
0000
110M
0000
0100
0010
M000
0011
0000
0001
,  // measure 54
10M0
0000
0000
0000
1010
0000
0000
0000
M010
0000
0100
0000
0000
0000
0101
0000
00M0
0000
0001
0000
0000
0000
1000
0000
010M
0010
0100
0010
0200
0000
0000
0000
,  // measure 55
1300
0001
01M0
0000
0010
1000
0M02
0000
,  // measure 56
0000
0000
0000
0000
1003
0000
0100
0000
0010
0000
0100
0000
2000
0000
0000
3000
,  // measure 57
1001
0000
0001
0000
0000
0000
0201
0000
0000
0000
0310
0000
1000
0001
1000
0001
,  // measure 58
1000
0000
0200
0000
0000
0000
0310
0000
0002
0000
1003
0010
1000
0010
2000
3000
1M01
0000
0000
0000
0002
0000
0000
0000
0000
0000
0000
0000
0023
0000
0000
0000
,  // measure 59
000M
0130
1100
2000
0M00
3002
0000
1003
,  // measure 60
101M
0000
0010
0000
0200
0000
0000
0300
M1M1
0000
0MM1
0000
1000
0000
0200
0000
,  // measure 61
M000
0000
0320
0000
0000
0030
0012
0000
00M0
0000
2003
0000
0000
0000
3010
0000
,  // measure 62
M210
0000
0301
0000
1M01
1000
0100
0020
,  // measure 63
0M00
0000
0230
0000
0000
0300
2100
0000
0M00
0000
3002
0000
0000
0003
0201
0000
,  // measure 64
000M
0320
0000
1030
10M1
0002
0000
0203
,  // measure 65
000M
0002
0000
1000
0010
0000
1010
0303
,  // measure 66
012M
0000
0000
0000
2030
0000
0000
3000
10M1
0000
0002
0000
0000
0000
0023
0000
,  // measure 67
000M
0130
1100
2000
0M00
3002
0000
1003
,  // measure 68
110M
0000
0100
0000
0020
0000
0000
0030
0M11
0000
0002
0000
0000
0000
2003
0000
,  // measure 69
000M
0000
3020
0000
0000
0030
0210
0000
00M0
0000
0302
0000
0000
0000
1003
0000
,  // measure 70
M200
0000
0310
0000
0M11
0002
0000
2003
,  // measure 71
000M
3010
0100
0002
0000
0M00
0000
0000
,  // measure 72
00M0
0000
1003
0100
0110
0010
0001
1001
,  // measure 73
0000
10MM
0000
2020
3000
0130
0001
1000
,  // measure 74
0010
0100
0010
1000
1001
0001
1000
110M
,  // measure 75
0000
01M0
0000
0220
0300
0031
1000
0010
,  // measure 76
0110
0100
0001
1000
1100
0100
0010
0M11
,  // measure 77
0000
M001
0000
2002
0003
3010
0100
0001
,  // measure 78
1000
0100
1000
0001
0101
0100
0010
1M10
,  // measure 79
0000
100M
0000
2002
3000
0013
0100
1000
,  // measure 80
1001
0001
1000
0010
0220
0000
0000
0000
,  // measure 81
0000
0000
0000
0030
0301
1001
0MM0
1100
,  // measure 82
0100
0010
0022
0030
10M3
0100
10M0
0100
,  // measure 83
10M0
0100
10M0
0001
M100
0001
M100
0001
,  // measure 84
M100
0001
M100
0001
1M00
0001
1M00
0001
,  // measure 85
1M00
0001
1M00
0100
001M
0100
001M
0100
,  // measure 86
001M
0001
1M00
0001
10M0
0010
100M
0010
,  // measure 87
100M
0010
100M
0001
01M0
0001
01M0
0001
,  // measure 88
01M0
0001
01M0
0010
M100
0010
M100
0010
,  // measure 89
1M00
0001
M010
0100
1000
0001
0101
M000
,  // measure 90
0100
0010
1010
0M00
2002
0000
0000
0000
,  // measure 91
0000
0000
0000
0000
0000
3003
0000
0000
;

//---------------dance-single - Bullshit----------------
#NOTES:
     dance-single:
     Ace Of Hearts (2014):
     Challenge:
     14:
     1.000,0.085,1.000,1.000,0.432:
0000
0000
0000
0000
,
0000
0000
0000
0000
0000
0000
0000
0000
0000
0000
0000
0000
0000
0000
0001
0010
,
0001
1000
0010
0110
0MM0
0101
0001
2001
,
0000
0000
3100
0000
0010
0000
0012
0000
0000
0000
1003
0010
0100
0010
1000
0001
,
M011
M010
M010
M010
M010
M010
M010
010M
,
010M
010M
010M
010M
010M
010M
010M
10M0
,
10M0
10M0
10M0
10M0
10M0
10M0
10M0
0M01
,
0M01
0000
0M01
0000
0M01
0000
0M01
0000
0010
M00M
0010
0000
0100
M00M
0100
0000
,
10M0
10M0
10M0
10M0
10M0
10M0
10M0
0M01
,
0M01
0M01
0M01
0M01
0M01
0M01
0M01
M100
,
M100
M100
M100
001M
1M00
M001
0M10
010M
,
11M0
1M00
1001
0001
0100
0010
1010
1000
,
1001
01MM
0000
0110
0000
0010
0022
0000
,
0000
0000
0033
0000
0000
MMMM
0000
0000
2001
0000
0000
0000
3010
0000
0000
0000
,
0110
1M0M
0000
1001
0000
0001
0202
0000
,
0000
0000
0303
0000
M1MM
0000
0010
1000
0001
0000
0011
0000
0110
0000
0100
0000
,
1100
0MM1
0000
0201
0000
0310
2020
0000
,
0000
3030
1MMM
0001
0010
0100
0010
0001
,
1001
M1M0
0000
0110
0000
1010
1001
0001
,
0011
0000
0010
0000
0MM0
0000
0010
0000
0110
0000
0100
0000
1000
0100
0010
0001
,
1001
01MM
0000
0210
0000
0022
0000
0033
,
0000
0000
0300
0000
0000
MMM0
0000
0000
0002
0000
0000
0000
2003
0000
3000
0000
,
1100
0MM1
0000
2001
0000
0202
0000
0303
,
0000
0000
3000
0000
MMMM
0000
0010
0100
0001
0000
1000
0000
0100
0010
0001
0010
,
0110
0000
20MM
0000
0000
3000
2002
0000
3003
0000
0202
0000
0003
0000
0310
0000
,
0011
0000
0010
0000
0000
0000
1010
0000
0000
0000
1000
0000
0200
0000
M0MM
0300
,
1111
0000
MM11
0000
0000
0000
2002
0000
0003
0000
3010
0000
0100
0001
0100
0010
,
1010
0000
0MM2
0000
0000
0000
1003
0000
0001
0100
0001
0100
0010
1000
0010
1000
1002
0000
0000
0000
M2M0
0000
0000
0000
0000
0000
0000
0000
0020
0000
0000
0000
,
0333
1MMM
2010
02M0
0000
0020
3330
1MMM
,
1001
0001
2000
3000
111M
10MM
0001
0201
,
0000
0000
2300
00MM
0000
30MM
1200
0000
0000
0300
0102
0000
0000
0000
0013
0000
,
2010
0000
0000
0MM0
3002
0MM0
0003
0000
M1M1
0000
0100
0000
1000
0000
1002
0000
,
0000
M0M0
0203
M0M0
0000
0300
2100
0000
0000
0MM0
3002
0MM0
0000
0003
0021
0000
,
0000
0000
2030
0000
0000
0000
3001
0000
0011
0000
M20M
0000
0000
0300
2200
0000
,
0000
0020
3000
0001
0002
0300
2M33
30M0
,
2M02
0000
0000
3003
0202
0000
0000
0303
2001
0000
0020
0000
0000
0000
0002
0000
,
3033
1MMM
1002
0M20
0000
2000
3033
MM1M
,
1010
0000
1000
0M0M
0020
0M0M
0000
0030
0011
0000
0002
0MM0
0000
0MM3
2001
0000
,
0000
0000
3020
0000
0000
MM30
0012
MM00
0000
0000
2003
0MM0
0000
00MM
3100
0000
,
0102
0000
0000
0000
2003
0000
0000
30MM
1100
00MM
0200
0000
0000
0300
0120
0000
,
0000
0031
0010
2010
000M
00M0
0M00
00M0
,
000M
00M0
3001
0100
4100
0000
0001
3101
,
MMMM
0000
0100
M00M
0100
0000
2200
0000
0300
0000
3001
0000
0020
0030
0110
0000
,
1100
0000
2000
0MM0
0000
3000
1100
0000
0140
0000
0000
0000
0001
0000
0131
0000
,
0000
0000
1100
0000
0000
0000
2002
0MM0
3000
0000
0103
0000
0110
0000
0010
0000
,
1010
0000
1000
0000
0100
M00M
0100
0000
M002
0000
0M00
0000
00M3
0000
1000
0000
,
1100
0000
0100
0000
0010
M00M
0010
0000
2M00
0000
00M0
3000
020M
0000
0000
0000
,
M301
20M0
0M00
3010
0001
0100
M020
0M00
,
000M
0000
1030
0010
0100
0001
1000
0100
0020
0000
000M
0000
0M00
0000
2030
0000
,
000M
0000
30M1
0200
000M
1300
0M20
0000
,
M032
0000
0000
0000
20M3
0000
0000
3000
110M
0000
0200
0000
M000
0000
0301
0000
,
2M01
0000
310M
0102
0M00
1003
M010
0001
,
10M0
0000
0010
0000
M001
0000
0010
0000
1010
0000
1000
1001
M0M0
0101
M00M
0001
,
0011
0000
00M0
0000
1000
0000
0M00
0000
1010
0000
0MM1
0000
0000
0000
0011
0000
0000
0000
0010
0000
0001
0000
1000
0000
0001
0100
0010
1000
0001
0100
0010
1000
,
1001
M1M0
0010
0000
1010
0MM1
0022
0000
,
0000
0000
0003
0000
0130
0000
1000
0000
1010
0000
0010
0000
0200
0000
0000
0300
,
0101
0000
1001
0000
0000
0000
1200
0000
0000
0000
0310
0001
0010
0100
1000
0001
,
2001
0000
0020
0000
3000
0000
0031
0000
0020
0000
1030
0010
0100
0001
1000
0010
0210
0000
0000
0000
M0M2
0000
0000
0000
0000
0000
0000
0000
0020
0000
0000
0000
,
0333
1MMM
2001
0200
0000
0020
3330
MMM1
,
0011
0000
0010
0000
0200
0000
0000
0300
M111
0000
MM01
0000
1000
0000
1020
0000
,
0M00
0000
0032
0000
M000
0003
2001
0000
00M0
0000
3200
0000
000M
0000
0301
0000
,
2M01
0000
320M
0300
M110
0010
1M00
0002
,
M000
0000
0203
0000
000M
0300
2100
0000
00M0
0000
3002
0000
M000
0000
2003
0000
,
000M
3020
0M00
0130
0101
0200
0000
0002
,
0000
2000
0300
0010
0020
0003
323M
03M0
,
M202
0303
2002
3003
2100
0002
0000
0200
,
3303
MMM1
0012
2000
0000
0020
3033
1MMM
,
1100
0000
0100
0000
MM02
0000
MM00
0003
0101
0000
0100
00MM
0000
00MM
2100
0000
,
0000
0MM0
3002
0MM0
0000
0000
0203
0000
0000
00MM
2300
00MM
0000
0000
3001
0000
,
0020
0M0M
0000
0M3M
2010
0000
0000
3000
1100
0000
0MM2
0000
0000
0003
0201
0000
,
0000
0310
0001
0020
M000
0M00
000M
0M00
,
M000
0M00
1030
0001
0401
0000
0010
0311
,
0000
0000
1001
0000
0000
0000
2200
00MM
3000
0000
0310
0000
0001
0000
1001
0000
,
1000
0010
0110
0100
0104
0000
1000
1103
,
0000
0000
0101
0000
0000
0000
0220
M00M
0300
0000
1030
0000
1001
0000
0001
0000
,
0011
0010
0100
1000
4001
0000
0001
3011
,
0000
0000
1010
0000
0000
0000
0202
M0M0
0300
0000
1003
0000
0100
M00M
0100
0000
,
0101
0000
0001
0000
0010
M00M
0010
0000
0410
0000
0000
0000
0010
0000
0311
0000
,
0000
0000
1001
0000
0000
0000
0022
MM00
0003
0000
0130
0000
1100
0000
1000
0000
,
1000
0000
0100
M00M
0100
0000
0001
0000
2002
0000
0000
0000
0000
0000
0000
0000
,
0000
0000
0000
0003
3010
0110
MMMM
0101
,
0001
0000
1000
0000
2200
0000
0000
3300
011M
0000
001M
0000
001M
0000
001M
0000
,
001M
001M
001M
M100
M100
M100
M100
M100
,
M100
M100
M100
10M0
10M0
10M0
10M0
10M0
,
10M0
10M0
10M0
0M01
0M01
0M01
0M01
0M01
,
0100
M00M
0100
0000
0010
M00M
0010
0000
100M
0000
100M
0000
100M
0000
100M
0000
,
100M
100M
100M
M100
M100
M100
M100
M100
,
M100
M100
M100
001M
001M
001M
001M
001M
,
M001
100M
0M10
M100
01M1
0001
1001
1000
,
110M
0100
0110
0010
2020
0000
0000
0000
,
0000
0000
0000
0000
0000
3030
0000
0000
;

//---------------dance-single - Stupid----------------
#NOTES:
     dance-single:
     Ace Of Hearts (2014):
     Medium:
     9:
     0.736,0.000,0.075,1.000,0.183:
0000
0000
0000
0000
,
0000
0000
0000
0000
,
1000
0010
1000
0010
0M00
1000
0001
2000
,
0000
0000
0000
3020
0000
0000
0430
0000
,
0304
0000
0M00
0000
0000
0M00
0000
4003
,
0000
0000
000M
0000
0000
000M
0000
3400
,
0000
00M0
0000
0000
00M0
0000
0000
0340
,
0000
M000
0000
0000
0031
0000
0010
0000
010M
0000
1000
0000
0001
0000
10M0
0000
,
0004
0000
M000
0000
00M0
0000
0000
0403
,
0000
0000
000M
0000
0000
M000
0000
0340
,
0000
0000
0000
0M00
0000
0000
0000
0000
1030
0000
0001
0000
0M10
0000
0001
0000
,
10M0
0001
0000
0000
0010
0100
2000
0000
,
3001
0010
0000
0200
0000
1300
0002
0000
,
0000
0000
0003
0000
0000
000M
0000
0000
2000
0000
0000
0000
3020
0000
0000
0000
,
0130
0001
0000
2000
0000
3100
0020
0000
,
0000
0000
0030
0000
0000
00M0
0000
0000
0002
0000
0000
0000
2003
0000
0000
0000
,
3010
0100
0000
0002
0000
1003
0200
0000
,
0000
0000
0300
0000
0000
0M00
0000
0000
2000
0000
0000
0000
3002
0000
0000
0000
,
0103
0010
00M0
2000
0000
0002
0000
3000
,
0013
0000
0100
0000
0000
0M00
0000
0000
2000
0000
0000
0000
3020
0000
0000
0000
,
0130
0001
0000
2000
0000
0020
0000
0000
,
0000
0000
3030
0000
0000
0M0M
0000
0000
2000
0000
0000
0000
3002
0000
0000
0000
,
0013
0200
0000
2300
0000
0002
0000
0000
,
0000
0000
3003
0000
0000
0MM0
0000
0000
0002
0000
0000
0000
0203
0000
0000
0000
,
0310
2000
0000
3002
0000
2003
0000
3001
,
0010
0002
0000
2003
0000
3001
0200
0300
,
M110
001M
0000
2000
0000
3001
0040
0000
,
0130
1000
0000
1000
0002
0000
0203
0000
031M
0000
2000
0000
0000
0000
3002
0000
,
0000
0013
01M0
2000
0000
3002
0000
1003
,
001M
0100
0020
0000
M130
00M1
1000
0200
,
0000
0320
0M00
0230
0000
2300
0000
3001
,
02M0
0000
0320
0000
1M30
0001
0010
0200
,
0000
2300
0000
3002
00M0
0203
0000
0320
,
0000
2030
0000
3001
0M10
0200
0000
2300
,
0000
3002
0000
0103
0020
0000
0130
0000
,
0M02
0000
2003
0000
30M1
0020
0000
0230
,
0000
0310
0M01
2000
0000
3020
0000
1030
,
00M1
0010
0002
0000
10M3
0200
0000
0320
,
0000
0230
00M0
2300
0000
3002
0000
0103
,
002M
0000
2030
0000
3001
0020
0000
0230
,
0000
0310
0001
2000
0000
000M
0000
0000
,
000M
0000
3000
0000
0001
0100
0010
1000
,
0M00
0001
0010
0200
0000
0310
0002
0000
,
1003
0020
0000
1030
0001
0010
0100
1000
,
00M0
0001
M000
0201
0000
0310
2000
0000
,
3001
0000
0020
0000
0000
0000
0230
0000
0000
M0M0
0000
0000
0300
0000
1000
0000
,
0100
M010
0002
0000
2003
0000
302M
0000
,
0130
0002
0M00
1003
0100
1000
0002
M000
,
0000
0000
4003
0000
0000
0000
0000
0000
3020
0000
0000
M000
0000
0000
0230
0000
,
0000
00M0
0000
0000
0301
0000
2000
000M
0000
0000
3001
0000
0020
0000
0000
0000
,
023M
0000
0000
0000
2300
0000
0000
0M00
3001
0000
0200
000M
0000
0000
0310
0000
,
2000
0M00
0000
0000
3001
0000
0020
M000
0000
0000
0130
0000
1000
0000
0001
0000
,
0100
0000
001M
0000
0100
0000
0001
0000
1M00
0000
0001
0010
M000
0100
0000
1000
,
00M1
0000
0100
0000
M010
0100
0000
0001
00M0
1000
0000
0100
004M
0000
0000
0000
,
0130
1000
0001
00M0
1000
0100
0020
0000
,
000M
0000
0130
1000
0001
1000
0020
0000
,
1030
0001
0000
0200
0000
0301
4000
0000
,
3000
0002
0000
0103
0020
000M
0230
0000
M301
0000
2000
0000
0000
0000
3200
0000
,
0000
0310
01M0
2000
0000
3002
0000
0103
,
001M
1000
0002
0000
0M13
010M
1000
0002
,
0000
2003
0000
3020
M000
0230
0000
0301
,
200M
0000
3100
0000
0M10
0100
1000
0002
,
0000
0203
0000
0320
0M00
2030
0000
3002
,
0000
0023
0000
0130
1M00
0002
0000
2003
,
0000
3020
0000
0130
0002
0000
1003
0M00
,
0020
0000
0230
0000
03M1
2000
0000
3200
,
0000
1300
0M01
0200
0000
0320
0000
1030
,
M001
0010
0200
0000
031M
0002
0000
2003
,
0000
3200
0000
2300
0M00
3002
0000
0103
,
002M
0000
1030
0000
M001
0020
0000
0230
,
0000
1300
0001
2000
0000
000M
0000
0000
,
000M
0000
3000
0000
0010
1000
0001
0010
,
M000
0100
000M
2100
0000
3001
0200
0000
,
0310
2000
0000
3001
1000
0100
0010
0001
,
0M00
1000
000M
1020
0000
0130
0001
1000
,
0001
0020
0000
0130
1000
0001
0100
0010
,
0M00
1000
00M0
1002
0000
0013
0200
0000
,
1300
0002
0000
1003
0010
1000
0001
0010
,
M000
0100
000M
2100
0000
3001
0200
0000
,
0310
2000
3000
2002
0000
0000
0000
0000
,
0000
0000
3000
0000
1003
0010
000M
0100
,
0001
1000
0001
0010
0400
0000
00M0
0000
,
0000
00M0
0000
0000
0000
0000
4300
0000
0000
0000
0000
0M00
0000
0000
0000
0000
,
0000
0M00
0000
0000
0000
0000
3004
0000
0000
0000
0000
M000
0000
0000
0000
0000
,
0000
M000
0000
0000
0000
0000
0403
0000
0000
0000
0000
000M
0000
0000
0000
0000
,
0310
0000
1000
0000
0M01
0000
1000
0000
0400
0000
0000
M000
0000
0000
0000
0000
,
0000
M000
0000
0000
0000
0000
0340
0000
0000
0000
0000
0M00
0000
0000
0000
0000
,
0000
0M00
0000
0000
0000
0000
0034
0000
0000
0000
0000
M000
0000
0000
0000
0000
,
1003
0010
010M
0010
1M00
0001
0010
M000
,
0001
1000
0001
00M0
0202
0000
0000
0000
,
0000
0000
0000
0000
0000
0303
0000
0000
;

//---------------dance-single - Dumb----------------
#NOTES:
     dance-single:
     Ace Of Hearts (2014):
     Easy:
     6:
     0.437,0.000,0.028,0.901,0.000:
0000
0000
0000
0000
,
0000
0000
0000
0000
,
0002
0000
0000
1003
0000
0100
0000
2000
,
0000
0000
0000
3002
0000
0403
0000
0000
,
0302
0000
0000
0M00
0000
0000
0000
2003
,
0000
0000
0000
000M
0000
0000
0000
3200
,
0000
0000
0000
M000
0000
0000
0000
2300
,
0000
0000
3001
0100
,
0002
0000
0000
0M00
0000
0000
0000
2003
,
0000
0000
0000
000M
0000
0000
0000
3200
,
0000
M000
0310
0100
,
0010
0000
0001
0010
,
0002
0000
0000
1003
0000
0000
2000
0000
,
0000
3000
000M
0000
1000
0000
0100
0000
,
2000
0000
0000
3001
0000
0000
0002
0000
,
0000
0003
M000
0000
0001
0000
0100
0000
,
0001
0000
0000
0100
0000
0000
0200
0000
,
0000
0300
000M
0000
0100
0000
0010
0000
,
0200
0000
0000
0301
0000
0002
0000
0000
,
0003
0000
0010
0100
,
0020
0000
0000
0031
0000
0002
0000
0000
,
0000
0003
M000
0000
0001
0000
0100
0000
,
0001
0000
0000
1000
0000
2000
0000
0000
,
0000
3000
000M
0000
1000
0000
0010
0000
,
2000
0000
0000
3001
0000
0100
0000
0002
,
0000
0000
0000
2003
0000
0000
3100
0000
,
M11M
0000
0000
0020
0000
0000
0030
0000
,
0001
0000
0001
0000
1000
0000
000M
2000
,
0000
0000
3010
0000
0000
0020
0000
0000
,
0130
0000
0100
0000
M001
0000
0M00
0002
,
0000
0000
0000
1003
00M0
2000
0000
0000
,
3100
0000
0000
0000
0010
0000
0000
0020
,
M000
0000
0000
0031
0000
0010
0000
0002
,
0000
0000
0000
0000
2003
0000
0000
3010
,
0000
0100
0000
0020
0000
0000
1030
0000
,
2000
0000
0000
0000
3001
0000
0000
0002
,
0M00
0000
0013
0000
0000
0020
0000
0000
,
0130
0000
0100
0000
1000
0000
000M
2000
,
0000
0000
0000
3001
0000
0002
0000
0000
,
M103
0000
0100
0000
0020
0000
0000
1030
,
0000
0001
0000
2000
0000
0000
000M
0000
,
0000
0000
3000
0000
0002
0000
0000
1003
,
0000
0M10
0000
2000
0000
0000
3001
0000
,
0002
0000
0000
0000
2003
0000
0000
3100
,
0000
M010
0000
0200
0000
0000
1300
0000
,
0200
0000
0000
0320
M000
0000
0030
0000
,
0001
0002
00M0
1003
,
2000
0000
310M
0200
,
0000
0000
1300
0000
20M0
0000
0000
3002
,
0000
0000
0000
0203
M000
0000
0301
0000
,
1000
0001
M200
0000
,
0320
0000
0000
0230
M000
0000
0301
0000
,
0002
0000
10M3
1000
,
010M
0100
M010
0010
,
0M01
1000
0001
M002
,
0000
0103
0010
0100
,
0010
0000
0000
2000
00M0
0000
0000
0000
,
3002
0000
2003
0000
3100
000M
0000
0200
,
0000
0000
0310
0000
0000
0020
0000
M000
,
0031
0000
0001
0000
1000
0000
0000
200M
,
0000
0000
0000
3010
0000
0020
0000
0000
,
M130
0000
0100
0000
0001
0000
0000
0M02
,
0000
0000
0000
1003
0000
0100
0000
2000
,
0000
0M00
0000
0000
3002
0000
0000
0103
,
0000
0200
000M
0000
0310
0000
0010
0000
,
2000
0000
0M00
0000
3001
0000
0000
0002
,
0000
0000
M103
0000
0000
0200
0000
0000
,
031M
0000
0010
0000
1000
0000
0000
2000
,
00M0
0000
0000
3001
0000
0002
0000
0000
,
M013
0000
0010
0000
0100
0000
0000
1000
,
00M0
0001
0000
2000
0000
0000
000M
0000
,
0000
0000
3000
0000
0002
0000
0000
0013
,
0000
0100
0000
0020
0000
0000
0031
0000
,
0002
0000
0000
0000
2003
0000
0000
3010
,
0000
100M
0000
0020
0000
0000
0130
0000
,
0200
0000
0000
0000
0302
0000
0000
1003
,
0000
01M0
0000
2000
0000
0000
3001
0000
,
0002
0000
0000
0000
0203
0000
0000
0310
,
0000
010M
0000
0020
0000
0000
1030
0000
,
1000
0000
0000
2002
0000
0000
0000
0000
,
0000
0000
3000
0000
0000
0013
0000
0000
,
0010
0000
0001
0000
0020
0000
0000
000M
,
0000
0000
0000
0230
0000
0000
0000
00M0
,
0000
0000
0000
2300
0000
0000
0000
0M00
,
0000
0000
0000
3002
0000
0M00
0000
0000
,
1003
0010
2000
000M
,
0000
0000
0000
3002
0000
0000
0000
M000
,
0000
0000
0000
0023
0000
0000
0000
0000
,
0031
1000
0001
0000
,
1000
0000
2200
0000
,
0000
0000
0000
0000
0000
3300
0000
0000
;

//---------------dance-single - Unpleasant----------------
#NOTES:
     dance-single:
     Ace Of Hearts (2014):
     Beginner:
     3:
     0.264,0.000,0.028,0.498,0.000:
0000
0000
0000
0000
,
0000
0000
0000
0000
,
2000
0000
3000
0000
,
0002
0000
0003
0000
,
2000
0000
3000
0000
,
0020
0000
0030
0000
,
0200
0000
0300
0000
,
0002
0000
0003
0000
,
2000
0000
3000
0000
,
0200
0000
0300
0000
,
0020
0000
0000
0000
,
0030
0000
0001
0000
,
0002
0000
M003
0000
,
0001
0000
1000
0000
,
2000
0000
300M
0000
,
1000
0000
0010
0000
,
0020
M000
0030
0000
,
0010
0000
0100
0000
,
0200
00M0
0300
0000
,
0000
0000
0001
0000
,
0M01
0000
0002
0000
,
0003
0000
1000
0000
,
100M
0000
2000
0000
,
3000
0000
0100
0000
,
M100
0000
0100
0000
,
1000
0000
1000
0000
,
1MM1
0000
0000
0000
,
0002
0003
2000
0000
,
300M
2000
0000
3000
,
0001
0001
MM02
0000
,
0003
0000
0100
010M
,
0100
0000
0010
0M00
,
0010
0000
1000
00M0
,
1000
0000
0001
M000
,
0001
0000
0100
010M
,
0100
0000
0002
0000
,
0003
0M02
0000
0003
,
0010
0010
002M
0000
,
0030
0000
0100
01M0
,
0100
0000
1000
0000
,
1M00
0000
2000
0000
,
0000
3000
0002
0000
,
0003
00M0
1000
0000
,
1000
0000
2000
0000
,
3000
0M00
0010
0000
,
0010
0000
0020
0000
,
0030
0000
1000
0000
,
10M0
0000
2000
0000
,
3000
0000
0001
M000
,
0001
0000
0100
000M
,
0100
0000
0010
0M00
,
0010
0000
1000
00M0
,
1000
0000
0002
0003
,
0M01
0001
2000
30M0
,
1000
0000
2000
0000
,
3000
0020
0000
0030
,
1000
0000
1000
0000
,
0002
0003
0020
0000
,
003M
0020
0000
0030
,
0100
0100
02MM
0000
,
0300
0000
1000
1M00
,
1000
0000
0001
M000
,
0001
0000
0100
000M
,
0100
0000
0010
0M00
,
0010
0000
0100
01M0
,
0100
0000
0002
0000
,
0M03
0002
0000
0003
,
1000
100M
1000
0000
,
0001
0000
M001
0000
,
0001
0000
0100
0000
,
0100
0000
0200
0000
,
0000
0300
0002
0000
,
0003
0M00
1000
0000
,
1000
0000
2000
0000
,
3000
00M0
0100
0000
,
0100
0000
0200
0000
,
0300
M000
0010
0000
,
0010
0000
0020
0000
,
0030
0000
0001
0000
,
0001
0000
2002
0000
,
0000
0000
0000
0000
0000
3003
0000
0000
,
1000
0000
2000
0000
,
3000
0000
0200
0000
,
0300
0000
2000
0000
,
3000
0000
0002
0000
,
0003
0000
0200
0000
,
0300
0000
0020
0000
,
0030
0000
2000
0000
,
3000
0000
M001
0000
,
0001
0000
2002
0000
,
0000
0000
0000
0000
0000
3003
0000
0000
;
