#TITLE:Ageha;
#SUBTITLE:;
#ARTIST:Ryu*;
#TITLETRANSLIT:;
#SUBTITLETRANSLIT:;
#ARTISTTRANSLIT:;
#GENRE:;
#CREDIT:Ace Of Hearts;
#BANNER:Ageha - Bn.png;
#BACKGROUND:Ageha - Bg.png;
#LYRICSPATH:;
#CDTITLE:Ace Of Hearts.png;
#MUSIC:Ageha.ogg;
#OFFSET:1.255;
#SAMPLESTART:93.300;
#SAMPLELENGTH:11.000;
#SELECTABLE:YES;
#DISPLAYBPM:90.000:180.000;
#BPMS:0.000=180.000,42.000=90.000,59.000=180.000,123.000=360.000,131.000=180.000,197.000=90.000,232.000=180.000;
#STOPS:123.000=0.167
,124.000=0.167
,125.000=0.167
,126.000=0.167
,127.000=0.167
,128.000=0.167
,129.000=0.167
,130.000=0.167
;
#BGCHANGES:;
#FGCHANGES:;
#KEYSOUNDS:;

//---------------dance-single - Expert----------------
#NOTES:
     dance-single:
     Ace Of Hearts (2014):
     Challenge:
     12:
     1.000,0.383,1.000,0.566,0.719: // measure 1
0000
0000
0000
0000
,  // measure 2
1000
0100
0010
0000
0001
0010
0100
0000
2000
0000
3001
0010
0100
0000
0010
0000
,  // measure 3
0011
0000
0011
0000
0110
0100
0000
1100
,  // measure 4
0000
1001
0000
0001
0101
0000
0110
0000
,  // measure 5
1010
1000
1001
0001
0011
0000
0110
0100
,  // measure 6
1100
1000
1001
0000
0101
0100
0101
0000
,  // measure 7
1001
0000
1001
0000
1100
0100
0000
0110
,  // measure 8
0000
0011
0000
0001
1001
0000
1001
0000
,  // measure 9
1010
0010
0110
0100
0101
0000
1001
1000
,  // measure 10
0100
0010
0001
0000
1000
0100
0010
0000
0002
0000
1003
0010
0100
0000
0001
0000
,  // measure 11
2002
0000
3003
0002
,  // measure 12
0000
1003
0010
0100
0002
0000
0000
0000
2003
0000
0000
3000
1200
0000
0320
0000
,  // measure 13
0000
0031
4000
0000
3040
0000
0430
0000
,  // measure 14
0000
0301
0100
0010
2000
0000
0000
0000
0000
0000
0000
0000
3002
0000
0000
0000
,  // measure 15
0023
0000
0230
0000
2300
0000
3001
0100
,  // measure 16
0110
0000
0010
1000
0001
1000
0001
0000
0101
0000
0100
0010
0100
0000
0001
0000
,  // measure 17
1001
0000
1000
0100
0010
0100
1000
0000
1001
0000
0001
0010
0001
0000
1000
0000
,  // measure 18
1100
0000
0100
0010
0001
0010
0100
0000
1100
0000
1000
0001
1000
0000
0001
0000
,  // measure 19
0011
0000
0010
0100
1000
0100
0010
0000
0011
0000
0001
1000
0001
0000
1000
0000
,  // measure 20
1010
0000
0010
0100
0001
0100
0010
0000
1010
0000
1000
0001
1000
0000
0001
0000
,  // measure 21
0011
0000
0010
0100
1000
0100
0010
0000
0011
0000
0000
0000
1001
0000
1000
0000
,  // measure 22
1010
0000
0010
0000
0110
0000
0000
0000
0101
0000
0001
0000
1000
0100
0010
0000
,  // measure 23
0100
0010
0001
0000
1001
0000
1000
0010
0100
0000
0001
0000
1001
0000
0000
0000
,  // measure 24
1001
0000
1100
0100
0000
0110
0000
0011
,  // measure 25
0000
0001
1001
0000
0101
0000
0110
0010
,  // measure 26
1010
1000
1001
0000
0011
0010
0110
0100
,  // measure 27
1100
0000
1001
0001
1001
0000
0101
0000
,  // measure 28
0101
0000
0110
0010
0000
1010
0000
1001
,  // measure 29
0000
0001
0011
0000
1001
0000
1010
0010
,  // measure 30
0110
0000
0100
0000
0101
0000
0000
0000
1001
0000
0001
0000
0010
0100
1000
0000
,  // measure 31
0001
0010
0100
0000
2000
0000
3001
0100
0010
0000
1000
0000
0002
0000
0003
0000
,  // measure 32
0020
0030
0002
0003
0020
0030
0200
0300
,  // measure 33
2000
0000
3000
0000
0200
0000
0300
0000
2000
0000
3000
0000
0001
0010
0001
0010
,  // measure 34
0100
1000
0100
1000
0001
0100
0001
0100
0010
1000
0010
1000
0001
0010
0001
0010
,  // measure 35
0100
1000
0100
1000
0001
1000
0001
1000
0010
0100
0010
0100
0001
0100
0001
0100
,  // measure 36
0010
1000
0010
1000
0001
0010
0001
0010
0100
1000
0100
1000
0001
0100
0001
0100
,  // measure 37
0010
1000
0010
1000
0002
0013
0001
0010
0200
1300
0100
1000
0002
0103
0001
0100
,  // measure 38
0010
1000
0010
1000
0001
0010
0001
0010
0100
1000
0100
1000
0100
0010
0100
0010
,  // measure 39
0001
1000
0001
1000
0010
1000
0010
1000
0001
0100
0001
0100
0010
0100
0010
0100
,  // measure 40
0001
1000
0001
1000
0001
0010
0001
0010
0100
1000
0100
1000
0001
0100
0002
0000
,  // measure 41
1003
0100
2000
0000
3001
0010
0002
0000
1003
0100
0010
0001
2000
3100
1000
0100
,  // measure 42
0010
0001
0010
0001
1000
0010
1000
0010
1000
0001
1000
0001
1000
0100
1000
0100
,  // measure 43
0010
0001
0010
0001
1000
0001
1000
0001
0100
0010
0100
0010
1000
0001
1000
0001
,  // measure 44
1000
0010
1000
0010
0100
0001
0100
0001
1000
0100
1000
0100
0010
0001
0010
0001
,  // measure 45
1000
0010
1000
0010
0200
0301
0100
0001
2000
3100
1000
0100
0020
0031
0010
0001
,  // measure 46
1000
0001
1000
0001
0010
0100
0010
0100
1000
0001
1000
0001
0100
0010
0100
0010
,  // measure 47
1000
0010
1000
0010
0100
0001
0100
0001
1000
0100
1000
0100
0010
0001
0010
0001
,  // measure 48
1000
0010
1000
0010
0100
0001
0100
0001
1000
0100
1000
0100
0010
0001
0020
0000
,  // measure 49
0130
1000
0200
0000
0320
0000
0031
0010
0100
0000
0010
0000
0022
0000
0000
0000
,  // measure 50
0000
0000
0000
0000
0033
0000
0000
0000
0000
0000
0000
0000
0002
0000
0000
0003
,  // measure 51
2001
0000
0000
0000
0000
0000
0000
0000
0000
0000
0000
0000
0000
0000
0000
0001
3000
0000
0010
0000
0000
0100
0000
0000
2000
0000
0000
0000
0000
0000
0000
0000
0000
0000
0000
0000
3002
0000
0000
0000
0000
0000
0000
0000
0000
0003
0000
0000
,  // measure 52
0201
0000
0320
0000
0000
0000
2030
3000
2002
0000
0000
3003
2020
0000
0000
3030
,  // measure 53
0202
0000
0000
0003
0000
0301
0010
0100
2000
0000
0000
0000
0000
0000
0000
3000
,  // measure 54
1002
0000
0000
0000
0203
0000
0000
0300
0120
0000
0000
0000
2030
0000
3002
0003
,  // measure 55
0021
0100
0001
0100
0032
1000
0100
1000
,  // measure 56
0203
0000
0010
0000
0001
0000
0010
0000
0302
0000
1000
0000
0023
0000
0000
0030
,  // measure 57
0210
0000
1000
0000
0010
0000
1000
0000
0320
0000
0000
0000
0000
0000
0000
0030
,  // measure 58
0011
0000
0001
0000
1001
0000
1000
0000
1100
0000
0000
0000
0110
0000
0010
0000
0001
0010
0001
0000
1000
0000
0100
1000
0100
0000
0010
0100
0010
0000
0001
0000
,  // measure 59
1001
0000
1010
0000
0110
0100
0000
0101
,  // measure 60
0000
1001
0000
1000
1100
0000
0011
0000
,  // measure 61
1001
1000
1010
0010
0110
0000
0101
0001
,  // measure 62
1001
1000
1100
0000
0110
0010
0110
0000
,  // measure 63
1100
0000
0011
0000
1001
1000
0000
1010
,  // measure 64
0000
0101
0000
0001
1001
0000
1100
0000
,  // measure 65
0110
0010
0011
0001
1001
0000
1010
0010
,  // measure 66
0100
0001
1000
0000
0001
0100
0010
0000
2000
0000
3001
0010
0100
0000
1000
0000
,  // measure 67
1001
0000
0101
0000
0110
0010
0000
1010
,  // measure 68
0000
1001
0000
0001
0011
0000
0110
0000
,  // measure 69
1100
1000
1001
0001
0101
0000
0110
0010
,  // measure 70
1010
1000
1001
0000
0011
0010
0011
0000
,  // measure 71
0110
0000
1100
0000
1001
0001
0000
0101
,  // measure 72
0000
1010
0000
1000
1001
0000
0011
0000
,  // measure 73
0110
0100
1100
1000
1001
0000
0101
0100
,  // measure 74
0010
1000
0001
0000
1000
0010
0100
0000
0002
0000
1003
0100
0010
0000
0001
0000
,  // measure 75
1001
1000
1010
0010
0110
0000
0101
0001
,  // measure 76
1001
1000
1100
0000
0110
0010
0110
0000
,  // measure 77
2002
0000
0000
3003
;

//---------------dance-single - Hard----------------
#NOTES:
     dance-single:
     Ace Of Hearts (2014):
     Hard:
     10:
     0.721,0.032,0.732,0.358,0.225: // measure 1
0000
0000
0000
0000
,  // measure 2
0004
0000
0000
0003
,  // measure 3
1001
0000
1001
0000
1100
0100
0000
0110
,  // measure 4
0000
0010
0000
0001
1001
0000
1000
0000
,  // measure 5
1010
0010
0100
0001
1001
0000
1000
0100
,  // measure 6
0110
0010
0001
0000
1001
1000
0010
0000
,  // measure 7
0110
0000
0110
0000
0101
0001
0000
1001
,  // measure 8
0000
1000
0000
0100
0110
0000
0010
0000
,  // measure 9
0011
0001
1000
0010
0110
0000
0100
0001
,  // measure 10
1001
1000
0100
0000
0110
0010
0001
0000
,  // measure 11
2002
0000
3003
2000
,  // measure 12
0000
3001
0010
0100
2000
0000
0000
0000
3002
0000
0000
0000
0103
0000
0020
0000
,  // measure 13
0000
1030
0004
0000
0043
0000
0430
0000
,  // measure 14
0000
1300
0100
0010
0002
0000
0000
0000
0000
0000
0000
0000
2003
0000
0000
0000
,  // measure 15
3020
0000
0230
0000
0302
0000
1003
0100
,  // measure 16
0010
0000
0100
0000
0010
0001
0010
0000
0110
0000
0000
0000
0100
0000
1000
0000
,  // measure 17
0001
0000
1000
0000
0010
0100
0010
0000
1010
0000
0000
0000
1000
0000
0001
0000
,  // measure 18
0010
0000
0100
0000
1000
0100
1000
0000
1001
0000
0000
0000
0001
0000
0100
0000
,  // measure 19
0010
0000
0100
0000
0001
1000
0001
0000
0011
0000
0000
0000
0010
0000
0100
0000
,  // measure 20
1000
0000
0001
0000
0100
0010
0100
0000
0101
0000
0000
0000
0001
0000
1000
0000
,  // measure 21
0100
0000
0010
0000
0100
1000
0100
0000
0110
0000
0000
0000
0011
0000
0001
0000
,  // measure 22
1000
0010
0110
0000
0100
0001
1001
1000
,  // measure 23
0100
0000
0110
0010
0001
0000
1001
0000
,  // measure 24
1001
0000
1010
0010
0000
0110
0000
0100
,  // measure 25
0000
0001
1001
0000
1000
0000
1100
0100
,  // measure 26
0010
0001
1001
0000
1000
0010
0110
0100
,  // measure 27
0001
0000
1001
1000
0100
0000
0110
0000
,  // measure 28
0010
0000
0011
0001
0000
1001
0000
1000
,  // measure 29
0000
0010
0110
0000
0100
0000
0101
0001
,  // measure 30
1000
0100
0110
0000
0010
0001
1001
1000
,  // measure 31
0010
0000
0110
0100
0001
0000
2000
3000
,  // measure 32
0020
0030
2000
3000
0020
0030
0200
0300
,  // measure 33
0002
0000
0003
0000
0200
0000
0300
0000
0002
0000
0003
0000
1000
0100
0010
0100
,  // measure 34
1000
0000
0001
0000
0100
0000
0010
0000
0100
0000
0000
0000
0001
0100
0010
0100
,  // measure 35
0001
0000
1000
0000
0100
0000
0010
0000
0001
0000
1000
0000
0001
0100
0010
0100
,  // measure 36
0001
0000
1000
0000
0100
0000
0010
0000
0100
0000
0000
0000
1000
0100
0010
0100
,  // measure 37
1000
0000
0001
0000
1000
0000
0100
0000
0010
0000
0001
0000
1000
0010
0100
0010
,  // measure 38
1000
0000
0001
0000
1000
0000
0100
0000
0010
0000
0000
0000
0001
1000
0100
1000
,  // measure 39
0001
0000
0010
0000
0001
0000
1000
0000
0010
0000
0100
0000
0001
1000
0010
1000
,  // measure 40
0001
0000
0010
0000
0100
0000
1000
0000
0001
0000
0000
0000
1000
0100
1000
0000
,  // measure 41
0001
0010
0001
0000
1000
0010
1000
0000
0001
0100
0001
0000
1000
0100
0010
0100
,  // measure 42
1000
0000
0001
0000
0100
0000
0010
0000
1000
0000
0000
0000
0001
0010
0100
0010
,  // measure 43
0001
0000
1000
0000
0010
0000
0100
0000
0010
0000
1000
0000
0001
0100
0010
0100
,  // measure 44
0001
0000
1000
0000
0010
0000
0100
0000
0010
0000
0000
0000
1000
0010
0100
0010
,  // measure 45
1000
0000
0001
0000
0010
0000
0100
0000
1000
0000
0001
0000
1000
0001
0100
0001
,  // measure 46
1000
0000
0100
0000
0010
0000
0001
0000
1000
0000
0000
0000
0001
1000
0100
1000
,  // measure 47
0001
0000
0100
0000
0010
0000
1000
0000
0001
0000
0010
0000
0001
1000
0100
1000
,  // measure 48
0004
0400
0000
0000
0000
0000
0000
0000
0000
0000
0303
0000
0002
0000
1003
0000
,  // measure 49
0010
0100
0010
0000
2000
0000
3001
0000
1000
0100
1000
0000
2002
0000
0000
0000
,  // measure 50
0000
3003
0000
0002
,  // measure 51
2003
0000
0000
0000
0000
3001
0010
0100
2000
0000
0000
0000
3002
0000
0000
0000
,  // measure 52
0023
0230
0000
2300
3004
0000
0043
0000
,  // measure 53
0430
0000
0000
0000
0000
1300
0100
0010
0002
0000
0000
0000
0000
0000
0000
0000
,  // measure 54
2003
0000
3020
0000
0230
0000
0301
1000
,  // measure 55
0020
0000
0230
0000
,  // measure 56
0302
0000
2003
3200
,  // measure 57
0320
0000
0000
0000
0000
0000
0000
0000
0032
0000
0000
0000
0000
0000
0000
0003
,  // measure 58
1001
1000
0100
0010
0011
0000
0001
1000
1010
0010
0100
0000
0101
0001
1000
0000
,  // measure 59
1100
0000
0100
0000
0110
0010
0000
0011
,  // measure 60
0000
0001
0000
1000
1010
0000
0010
0000
,  // measure 61
0110
0100
0001
1000
1100
0000
0100
0010
,  // measure 62
0011
0001
1000
0000
1010
0010
0100
0000
,  // measure 63
0101
0000
0001
0000
1001
1000
0000
1100
,  // measure 64
0000
0100
0000
0010
0011
0000
0001
0000
,  // measure 65
1001
1000
0010
0100
0101
0000
0001
1000
,  // measure 66
1100
0100
0010
0000
0011
0001
1000
0000
,  // measure 67
1010
0000
0010
0000
0110
0100
0000
0101
,  // measure 68
0000
0001
0000
1000
1100
0000
0100
0000
,  // measure 69
0110
0010
0001
1000
1010
0000
0010
0100
,  // measure 70
0101
0001
1000
0000
1100
0100
0010
0000
,  // measure 71
0011
0000
0001
0000
1001
1000
0000
1010
,  // measure 72
0000
0010
0000
0100
0101
0000
0001
0000
,  // measure 73
1001
1000
0100
0010
0011
0000
0001
1000
,  // measure 74
1010
0010
0100
0000
0101
0001
1000
0001
,  // measure 75
0011
0010
0100
1000
1001
0000
0001
0100
,  // measure 76
0110
0010
1000
0000
1001
0001
1000
0000
,  // measure 77
2002
0000
0000
3003
;

//---------------dance-single - Medium----------------
#NOTES:
     dance-single:
     Ace Of Hearts (2014):
     Medium:
     8:
     0.532,0.032,0.025,0.333,0.054: // measure 1
0000
0000
0000
0000
,  // measure 2
4000
0000
0000
3000
,  // measure 3
0001
0000
0001
0000
0010
0100
0000
1000
,  // measure 4
0000
1000
0000
1000
0001
0000
0001
0000
,  // measure 5
1000
0100
0010
0100
1000
0000
0001
0010
,  // measure 6
0100
0010
0001
0000
1000
0001
1000
0000
,  // measure 7
0010
0000
0010
0000
0100
0001
0000
1000
,  // measure 8
0000
1000
0000
1000
0001
0000
0001
0000
,  // measure 9
1000
0010
0100
0010
1000
0000
0001
0100
,  // measure 10
0010
0100
0001
0000
1000
0001
1000
0000
,  // measure 11
2002
0000
3003
2000
,  // measure 12
0000
3001
0010
0001
0020
0000
0000
0000
0230
0000
0000
0000
1300
0000
0002
0000
,  // measure 13
0000
1003
0040
0000
0430
0000
0304
0000
,  // measure 14
0000
1003
0100
1000
0200
0000
0000
0000
0000
0000
0000
0000
0320
0000
0000
0000
,  // measure 15
0032
0000
2003
0000
3002
0000
1003
0100
,  // measure 16
0010
0001
0010
0100
1000
0000
0001
0010
,  // measure 17
0100
1000
0100
0010
0001
0000
1000
0010
,  // measure 18
0100
0001
0100
0010
1000
0000
0001
0100
,  // measure 19
0010
1000
0010
0100
0001
0000
1000
0100
,  // measure 20
1000
0100
0010
0001
0010
0000
0100
1000
,  // measure 21
0100
1000
0001
0100
0001
0000
1000
0100
,  // measure 22
0010
0100
1000
0000
0001
0100
0010
0100
,  // measure 23
0001
0000
1000
0001
1000
0000
0010
0000
,  // measure 24
0010
0000
0100
0001
0000
0100
0000
0100
,  // measure 25
0000
0100
0010
0000
0010
0000
1000
0010
,  // measure 26
0100
0010
1000
0000
0001
0010
0100
0010
,  // measure 27
0001
0000
1000
0001
1000
0000
0100
0000
,  // measure 28
0100
0000
0010
0001
0000
0010
0000
0010
,  // measure 29
0000
0010
0100
0000
0100
0000
1000
0100
,  // measure 30
0010
0100
1000
0000
0001
0010
0100
0010
,  // measure 31
0001
0000
1000
0001
1000
0000
0020
0030
,  // measure 32
0200
0300
0020
0030
0200
0300
0002
0003
,  // measure 33
2000
3000
0002
0003
2000
3000
0001
0010
,  // measure 34
0100
0010
0001
0000
1000
0000
0001
0100
,  // measure 35
0010
0100
0001
0000
0000
0000
1000
0100
,  // measure 36
0010
0100
1000
0000
0001
0000
1000
0010
,  // measure 37
0100
0010
1000
0000
0000
0000
0001
1000
,  // measure 38
0100
1000
0001
0000
1000
0000
0001
1000
,  // measure 39
0100
1000
0001
0000
0000
0000
1000
0001
,  // measure 40
0010
0001
1000
0000
0001
0000
0040
0000
,  // measure 41
0000
0000
0000
0000
0030
0000
0001
0010
,  // measure 42
0100
0010
0001
0000
1000
0000
0001
0100
,  // measure 43
0010
0100
0001
0000
0000
0000
1000
0010
,  // measure 44
0100
0010
1000
0000
0001
0000
1000
0100
,  // measure 45
0010
0100
1000
0000
0002
0000
1003
0001
,  // measure 46
0100
0001
1000
0000
0010
0000
1000
0001
,  // measure 47
0100
0001
1000
0000
0000
0000
0001
1000
,  // measure 48
0010
1000
0001
0000
0010
0000
0001
1000
,  // measure 49
0100
1000
0001
0000
1000
0000
2002
0000
,  // measure 50
0000
3003
0000
2000
,  // measure 51
3020
0000
0000
0000
0000
1030
0001
1000
0002
0000
0000
0000
0023
0000
0000
0000
,  // measure 52
0130
2000
0000
3001
0040
0000
0430
0000
,  // measure 53
4300
0000
0000
0000
0000
3001
0100
0001
0200
0000
0000
0000
0000
0000
0000
0000
,  // measure 54
0320
0000
2030
0000
3002
0000
0013
0100
,  // measure 55
0020
0000
0032
0000
,  // measure 56
2003
0000
3020
2030
,  // measure 57
3002
0000
2003
0000
,  // measure 58
3001
0010
0100
0010
0001
0000
1000
0100
0010
0100
1000
0000
0001
1000
0001
0000
,  // measure 59
1000
0000
1000
0000
0001
0010
0000
0100
,  // measure 60
0000
0100
0000
0100
1000
0000
1000
0000
,  // measure 61
0001
0100
0010
0100
0001
0000
1000
0010
,  // measure 62
0100
0010
1000
0000
0001
1000
0001
0000
,  // measure 63
0100
0000
0100
0000
0010
1000
0000
0001
,  // measure 64
0000
0001
0000
0001
1000
0000
1000
0000
,  // measure 65
0100
0010
0001
0010
0100
0000
1000
0100
,  // measure 66
0010
0100
1000
0000
0001
1000
0001
0000
,  // measure 67
0100
0000
0100
0000
0010
1000
0000
0001
,  // measure 68
0000
0001
0000
0001
0100
0000
0100
0000
,  // measure 69
0010
0100
0001
0100
0010
0000
1000
0010
,  // measure 70
0100
0010
1000
0000
0001
1000
0001
0000
,  // measure 71
0010
0000
0010
0000
0100
1000
0000
0001
,  // measure 72
0000
0001
0000
0001
0010
0000
0010
0000
,  // measure 73
0100
1000
0001
1000
0100
0000
0010
0001
,  // measure 74
1000
0001
0010
0000
0001
1000
0001
1000
,  // measure 75
0010
0100
0001
0100
0010
0000
1000
0010
,  // measure 76
0100
0010
1000
0000
0001
1000
0001
0000
,  // measure 77
2002
0000
0000
3003
;

//---------------dance-single - Easy----------------
#NOTES:
     dance-single:
     Ace Of Hearts (2014):
     Easy:
     4:
     0.239,0.000,0.008,0.241,0.000: // measure 1
0000
0000
0000
0000
,  // measure 2
0000
0000
0000
0000
,  // measure 3
1000
0000
1000
0000
1000
0000
0000
0001
,  // measure 4
0000
0000
0001
0000
,  // measure 5
0040
0000
0030
0400
,  // measure 6
0000
0300
4000
3000
,  // measure 7
0001
0000
0001
0000
0001
0000
0000
0100
,  // measure 8
0000
0000
0100
0000
,  // measure 9
0040
0000
0030
4000
,  // measure 10
0000
3000
0004
0003
,  // measure 11
2000
0000
3000
0002
,  // measure 12
0000
1003
1000
2000
,  // measure 13
0000
3010
0010
0020
,  // measure 14
0000
0230
0000
0302
,  // measure 15
0000
2003
0000
3100
,  // measure 16
0100
0200
0300
0010
,  // measure 17
0010
0020
0030
0001
,  // measure 18
0001
0002
0003
1000
,  // measure 19
1000
2000
3000
0010
,  // measure 20
0010
0020
0030
1000
,  // measure 21
1000
2000
3000
0004
,  // measure 22
0000
0003
4000
0000
,  // measure 23
3000
0400
0300
0010
,  // measure 24
0010
0000
0010
0000
0000
0100
0000
0000
,  // measure 25
0000
0100
0000
4000
,  // measure 26
0000
3000
0004
0000
,  // measure 27
0003
0400
0300
0010
,  // measure 28
0010
0000
0010
0000
0000
0100
0000
0000
,  // measure 29
0000
0100
0000
0004
,  // measure 30
0000
0003
4000
0000
,  // measure 31
3000
0400
0300
0020
,  // measure 32
0000
0000
0000
0000
0000
0030
0200
0000
,  // measure 33
0000
0000
0000
0000
0000
0300
1000
0000
,  // measure 34
1000
1000
0000
0001
,  // measure 35
0001
0001
0000
0100
,  // measure 36
0100
0100
0000
0010
,  // measure 37
0010
0010
0000
1000
,  // measure 38
1000
1000
0000
0001
,  // measure 39
0001
0001
0000
0010
,  // measure 40
0010
0010
0000
0100
,  // measure 41
0100
0100
0000
1000
,  // measure 42
1000
1000
0000
0001
,  // measure 43
0001
0001
0000
0100
,  // measure 44
0100
0100
0000
0010
,  // measure 45
0010
0010
0000
1000
,  // measure 46
1000
1000
0000
0001
,  // measure 47
0001
0001
0000
0010
,  // measure 48
0010
0010
0000
0100
,  // measure 49
0100
0100
0000
2000
,  // measure 50
0000
3000
0000
0001
,  // measure 51
0002
0000
0103
0100
,  // measure 52
0200
0000
0310
0010
,  // measure 53
0020
0000
2030
0000
,  // measure 54
3002
0000
0023
0000
,  // measure 55
0230
0000
2300
0000
,  // measure 56
3002
0000
0103
0100
,  // measure 57
0200
0000
0302
0000
,  // measure 58
4003
0000
3000
0004
0000
0003
0400
0300
,  // measure 59
0010
0000
0010
0000
0010
0000
0000
1000
,  // measure 60
0000
0000
1000
0000
,  // measure 61
0004
0000
0003
4000
,  // measure 62
0000
3000
0400
0300
,  // measure 63
1000
0000
1000
0000
1000
0000
0000
0001
,  // measure 64
0000
0000
0001
0000
,  // measure 65
0400
0000
0300
0040
,  // measure 66
0000
0030
4000
3000
,  // measure 67
0001
0000
0001
0000
0001
0000
0000
1000
,  // measure 68
0000
0000
1000
0000
,  // measure 69
0400
0000
0300
0040
,  // measure 70
0000
0030
0004
0003
,  // measure 71
0010
0000
0010
0000
0010
0000
0000
0100
,  // measure 72
0000
0000
0100
0000
,  // measure 73
4000
0000
3000
0004
,  // measure 74
0000
0003
0040
0000
,  // measure 75
0000
0000
0030
0400
,  // measure 76
0000
0300
4000
3000
,  // measure 77
2002
0000
0000
3003
;

//---------------dance-single - Novice----------------
#NOTES:
     dance-single:
     Ace Of Hearts (2014):
     Beginner:
     2:
     0.146,0.000,0.008,0.200,0.000: // measure 1
0000
0000
0000
0000
,  // measure 2
0000
0000
0000
0000
,  // measure 3
0001
0000
0001
0000
,  // measure 4
0002
0000
0003
0000
,  // measure 5
4000
0000
0000
0000
,  // measure 6
0000
0000
3000
0000
,  // measure 7
0010
0000
0010
0000
,  // measure 8
0020
0000
0030
0000
,  // measure 9
0400
0000
0000
0000
,  // measure 10
0000
0000
0300
0000
,  // measure 11
0002
0000
0003
1000
,  // measure 12
0000
1000
0000
2000
,  // measure 13
3000
0001
0000
0001
,  // measure 14
0000
0002
0003
0010
,  // measure 15
0000
0010
0000
0020
,  // measure 16
0000
0030
0000
0002
,  // measure 17
0000
0003
0000
2000
,  // measure 18
0000
3000
0000
0020
,  // measure 19
0000
0030
0000
0200
,  // measure 20
0000
0300
0000
0002
,  // measure 21
0000
0003
0000
4000
,  // measure 22
0000
0000
0000
0000
,  // measure 23
0000
3000
0000
0010
,  // measure 24
0000
0010
0000
0020
,  // measure 25
0000
0030
0000
0400
,  // measure 26
0000
0000
0000
0000
,  // measure 27
0000
0300
0000
0001
,  // measure 28
0000
0001
0000
0002
,  // measure 29
0000
0003
0000
4000
,  // measure 30
0000
0000
0000
0000
,  // measure 31
0000
3000
0000
0020
,  // measure 32
0000
0000
0000
0000
,  // measure 33
0000
0030
0000
1000
,  // measure 34
0000
1000
0000
0001
,  // measure 35
0000
0001
0000
0010
,  // measure 36
0000
0010
0000
0100
,  // measure 37
0000
0100
0000
1000
,  // measure 38
0000
1000
0000
0001
,  // measure 39
0000
0001
0000
1000
,  // measure 40
0000
1000
0000
0010
,  // measure 41
0000
0010
0000
0100
,  // measure 42
0000
0100
0000
0001
,  // measure 43
0000
0001
0000
1000
,  // measure 44
0000
1000
0000
0001
,  // measure 45
0000
0001
0000
1000
,  // measure 46
0000
1000
0000
0100
,  // measure 47
0000
0100
0000
0010
,  // measure 48
0000
0010
0000
0001
,  // measure 49
0000
0001
0000
2000
,  // measure 50
0000
3000
0000
0000
,  // measure 51
0010
0000
0010
0000
,  // measure 52
0020
0030
1000
0000
,  // measure 53
1000
0000
2000
3000
,  // measure 54
0001
0000
0001
0000
,  // measure 55
1000
0000
1000
0000
,  // measure 56
0010
0000
0010
0000
,  // measure 57
0020
0000
0030
0000
,  // measure 58
0400
0000
0000
0000
0000
0000
0000
0300
,  // measure 59
0001
0000
0001
0000
,  // measure 60
0002
0000
0003
0000
,  // measure 61
4000
0000
0000
0000
,  // measure 62
0000
0000
3000
0000
,  // measure 63
0100
0000
0100
0000
,  // measure 64
0200
0000
0300
0000
,  // measure 65
0040
0000
0000
0000
,  // measure 66
0000
0000
0030
0000
,  // measure 67
0001
0000
0001
0000
,  // measure 68
0002
0000
0003
0000
,  // measure 69
4000
0000
0000
0000
,  // measure 70
0000
0000
3000
0000
,  // measure 71
0010
0000
0010
0000
,  // measure 72
0020
0000
0030
0000
,  // measure 73
0400
0000
0000
0000
,  // measure 74
0000
0000
0300
0000
,  // measure 75
0004
0000
0000
0000
,  // measure 76
0000
0000
0003
0000
,  // measure 77
2002
0000
0000
3003
;
