#TITLE:Yellow;
#SUBTITLE:;
#ARTIST:Miku Hatsune;
#TITLETRANSLIT:;
#SUBTITLETRANSLIT:;
#ARTISTTRANSLIT:;
#GENRE:J-Pop;
#CREDIT:Ace Of Hearts;
#BANNER:Yellow - Bn.png;
#BACKGROUND:Yellow - Bg.png;
#LYRICSPATH:;
#CDTITLE:Ace Of Hearts.png;
#MUSIC:Yellow.ogg;
#OFFSET:1.770;
#SAMPLESTART:59.900;
#SAMPLELENGTH:12.000;
#SELECTABLE:YES;
#DISPLAYBPM:63.500:127.000;
#BPMS:0.000=127.000,20.250=254.000,20.750=63.500,21.000=127.000,28.250=254.000,28.750=63.500,29.000=127.000,36.250=254.000,36.750=63.500,37.000=127.000,44.250=254.000,44.750=63.500,45.000=127.000,52.250=254.000,52.750=63.500,53.000=127.000,60.250=254.000,60.750=63.500,61.000=127.000,68.250=254.000,68.750=63.500,69.000=127.000,84.250=254.000,84.750=63.500,85.000=127.000,100.250=254.000,100.750=63.500,101.000=127.000,116.250=254.000,116.750=63.500,117.000=127.000,164.250=254.000,164.750=63.500,165.000=127.000,165.750=254.000,166.750=127.000,168.250=254.000,168.750=127.000,169.750=274.000,170.500=127.000,172.250=254.000,172.500=127.000,176.250=254.000,177.750=127.000,180.250=254.000,180.750=63.500,181.000=127.000,228.500=31.750,228.625=63.500,232.250=127.000,232.500=31.750,232.625=63.500,236.250=127.000,236.500=31.750,236.625=63.500,240.250=127.000,240.500=31.750,240.625=63.500,244.250=127.000,244.500=31.750,244.625=63.500,248.250=127.000,248.500=31.750,248.625=63.500,252.250=127.000,252.500=31.750,252.625=63.500,260.250=127.000,320.250=63.500,321.750=127.000,330.250=254.000,330.750=63.500,331.000=127.000,338.250=254.000,338.750=63.500,339.000=127.000,346.250=254.000,346.750=63.500,347.000=127.000,354.500=31.750,354.625=63.500,358.250=127.000,358.500=31.750,358.625=63.500,362.250=127.000,362.500=31.750,362.625=63.500,366.250=127.000,366.500=31.750,366.625=63.500,369.750=127.000;
#STOPS:165.750=0.236
,168.250=0.118
,169.750=0.177
,172.250=0.059
,176.250=0.118
,176.750=0.118
,177.250=0.118
,321.750=0.236
;
#BGCHANGES:4.500=Yellow Music Video (Diva).avi=1.000=0=0=1=====,
370.750=Yellow - Bg.png=1.000=0=0=1=Centered====,
99999=-nosongbg-=1.000=0=0=0 // don't automatically add -songbackground-
;
#KEYSOUNDS:;

//---------------dance-single - Ace Of Hearts (2013)----------------
#NOTES:
     dance-single:
     Ace Of Hearts (2013):
     Challenge:
     9:
     0.561,0.000,0.105,0.922,1.000: // measure 1
0000
0000
0000
0000
,  // measure 2
0000
0000
0000
0000
,  // measure 3
0000
0000
0000
0000
,  // measure 4
0000
0000
0000
0000
,  // measure 5
0000
0000
0000
0000
,  // measure 6
0000
0002
0000
0000
0000
0103
0000
0020
0000
0000
0000
1030
0000
0001
0000
0010
,  // measure 7
0000
0100
0000
1000
0000
0100
0000
0020
0000
0000
0000
0130
0000
1000
0000
0001
,  // measure 8
0000
0200
0000
0000
0000
0310
0000
2000
0000
0000
0000
3001
0000
0010
0000
0100
,  // measure 9
0000
1000
0100
1000
0100
0010
0001
0010
0001
1000
0000
0010
0100
0020
0000
0000
,  // measure 10
0030
0210
0000
0000
0000
0301
0000
2000
0000
0000
0000
3100
0000
0010
0000
0100
,  // measure 11
0000
1000
0000
0001
0000
0100
0000
0020
0000
0000
0000
1030
0000
0001
0000
1000
,  // measure 12
0000
1020
0000
0000
0000
0130
0000
0002
0000
0000
0000
1003
0000
0100
0000
1000
,  // measure 13
0000
0001
0000
0100
0000
0010
0000
2000
0000
0000
0000
3001
0000
0010
0000
0100
,  // measure 14
0000
2100
0000
0000
0000
3001
0000
0200
0000
0000
0000
0310
0000
1000
0000
0001
,  // measure 15
0000
0010
0000
0100
0000
1000
0000
0002
0000
0000
0000
1003
0000
0010
0000
0100
,  // measure 16
0000
0102
0000
0000
0000
1003
0000
0200
0000
0000
0000
0310
0000
0100
0000
1000
,  // measure 17
0000
0100
0000
0010
0000
0001
0000
2000
0000
0000
0000
3010
0000
0100
0000
0001
,  // measure 18
0000
2001
0000
0000
0000
3020
0000
0000
0000
0230
0000
0000
0000
0302
0000
0000
,  // measure 19
0000
1003
0000
0100
0000
0010
0000
0002
0000
0000
0000
0000
0000
0000
0000
0000
,  // measure 20
0000
0003
0000
1000
0000
0100
0000
0020
0000
0000
0000
0130
0000
1000
0000
0002
,  // measure 21
0000
0000
0000
1003
0000
0100
0000
0020
0000
0000
0000
0000
0000
0230
0000
0000
,  // measure 22
0000
2300
0000
0000
0000
3002
0000
0000
0000
0023
0000
0000
0000
0032
0000
0000
,  // measure 23
0000
1003
0000
0010
0000
0100
0000
0002
0000
0000
0000
1003
0000
0001
0000
0200
,  // measure 24
0000
0000
0000
0310
0000
1000
0000
0002
0000
0000
0000
0013
0000
0200
0000
0000
,  // measure 25
0000
1300
0000
0001
0000
1000
0000
0020
0000
0000
0000
0000
0000
0030
0000
0000
,  // measure 26
0000
0200
0000
0000
0000
0302
0000
0000
0000
2003
0000
0000
0000
3020
0000
0000
,  // measure 27
0000
0130
0000
0001
0000
1000
0000
0200
0000
0000
0000
0000
0000
0000
0000
0000
,  // measure 28
0000
0300
0000
0010
0000
0001
0000
2000
0000
0000
0000
3010
0000
0100
0000
0001
,  // measure 29
0000
1000
0000
0100
0000
0010
0000
0002
0000
0000
0000
0013
0000
0200
0000
0000
,  // measure 30
0000
2300
0000
0000
0000
3002
0000
0000
0000
0203
0000
0000
0000
0320
0000
0000
,  // measure 31
0000
1030
0000
0001
0000
0100
0000
0020
0000
0000
0000
0130
0000
0001
0000
0002
,  // measure 32
0000
0000
0000
0103
0000
0010
0000
2000
0000
0000
0000
3001
0000
0010
0000
0100
,  // measure 33
0000
1000
0000
0001
0000
0100
0000
0020
0000
0000
0000
1030
0000
0001
0000
0010
,  // measure 34
0000
0210
0000
0000
0000
2000
0000
3000
0000
0020
0000
0030
0000
1300
0000
0001
,  // measure 35
0000
0200
0000
0010
0000
1000
0000
0010
0000
0302
0000
0000
0000
1003
0000
0001
,  // measure 36
0000
1000
0000
0100
0000
0001
0000
0000
0000
0001
0000
0100
0000
1000
0000
0000
,  // measure 37
0000
1000
0000
0001
0000
0100
0000
0010
0000
2000
0000
0000
0000
3001
0000
0100
,  // measure 38
0000
0120
0000
0000
0000
0002
0000
0003
0000
0200
0000
0300
0000
1030
0000
0001
,  // measure 39
0000
0020
0000
0100
0000
1000
0000
0100
0000
0032
0000
0000
0000
1003
0000
0001
,  // measure 40
0000
1000
0000
0010
0000
0001
0000
0000
0000
0001
0000
0010
0000
1000
0000
0001
,  // measure 41
0000
0010
0000
0100
0000
2000
0000
0000
0000
3002
0000
0000
0000
0003
0000
0000
,  // measure 42
0000
2002
0000
0000
0000
3003
0000
0101
0000
0000
0000
0000
0000
0000
0000
0110
,  // measure 43
0000
1010
0000
0000
0000
1001
0000
0011
0000
0000
0000
0000
0000
0010
0000
0100
,  // measure 44
0000
1000
0000
0001
0000
0100
0000
0020
0000
0000
0000
0130
0000
0001
0000
1000
,  // measure 45
0000
0000
0000
0001
0000
0000
0000
0000
0000
0010
0000
0000
0000
0000
0000
0001
0000
0000
0000
0000
0000
2000
0000
0000
0000
0000
0000
0000
0000
0000
0000
0000
0000
3010
0000
0000
0000
0000
0000
0100
0000
0001
0000
0100
0000
0001
0000
0000
,  // measure 46
0000
2000
0000
0000
0000
3002
0000
0000
0000
0023
0000
0000
0000
0230
0000
0000
,  // measure 47
0000
1300
0000
0100
0000
0001
0000
0200
0000
0000
0000
1300
0000
0001
0000
0200
,  // measure 48
0000
0000
0000
0310
0000
1000
0000
0002
0000
0000
0000
0013
0000
0100
0000
1000
,  // measure 49
0000
0001
0000
0100
0000
1000
0000
0200
0000
0000
0000
0301
0000
1000
0000
0010
,  // measure 50
0000
0220
0000
0030
0000
0002
0000
0003
0000
0320
0000
0000
0000
1030
0000
0001
,  // measure 51
0000
0020
0000
0100
0000
1000
0000
0100
0000
0032
0000
0000
0000
1003
0000
0010
,  // measure 52
0000
0200
0000
0000
0300
0101
0000
0000
0000
0001
0000
0010
0000
1000
0000
0000
,  // measure 53
0000
0001
0000
0100
0000
1000
0000
0001
0000
0200
0000
0000
0000
0310
0000
1000
,  // measure 54
0000
2200
0000
3000
0000
0020
0000
0030
0000
2300
0000
0000
0000
3001
0000
1000
,  // measure 55
0000
0020
0000
0100
0000
0001
0000
0100
0000
2030
0000
0000
0000
3001
0000
1000
,  // measure 56
0000
0001
0000
0100
0000
1000
0000
0000
0000
0001
0000
0010
0000
1000
0000
0001
,  // measure 57
0000
0010
0000
0100
0000
2000
0000
0000
0000
3002
0000
0000
0000
0000
0000
0003
,  // measure 58
0000
2000
0000
3200
0000
0320
0000
0032
0000
2003
0000
0000
3020
0000
0000
0000
,  // measure 59
0030
0200
0000
0302
0000
2003
0000
3200
0000
0320
0000
0032
0000
2003
0000
3010
,  // measure 60
0100
0002
0000
2003
0000
3200
0000
0320
0000
0230
0000
0000
2300
0000
0000
3000
,  // measure 61
0000
0002
0000
0203
0000
0320
0000
2030
0000
3002
0000
0023
0000
0230
0000
1300
,  // measure 62
0001
0200
0000
0320
0000
2030
0000
3002
0000
0023
0000
0000
0230
0000
0000
0000
,  // measure 63
0300
2000
0000
3002
0000
0203
0000
0320
0000
2030
0000
3002
0000
0023
0000
0230
,  // measure 64
0000
0320
0000
0031
0001
1000
1000
0010
0010
0100
0100
0001
0001
1000
1000
0001
,  // measure 65
0001
0000
0000
0000
0000
0000
0000
0000
0000
0000
0000
0000
1000
0000
0000
0000
0000
0000
0100
0000
0000
0000
0000
0000
1000
0000
0000
0000
0000
0000
0100
0000
0000
0000
0000
0000
0010
0000
0000
0000
0000
0000
0001
0000
0000
0000
0000
0000
0010
0000
0000
0000
0000
0000
0001
0000
0000
0000
0000
0000
1000
0000
0000
0000
0000
0000
0010
0000
0000
0000
0000
0000
1000
0000
0000
0000
0000
0000
0010
0000
0000
0000
0000
0000
0100
0000
0000
0000
0000
0000
0001
0000
0000
0000
0000
0000
0100
0000
0000
0000
0000
0000
0001
0000
0000
0000
0000
0000
0400
0000
0000
0000
0040
0000
0000
0000
0000
0000
0000
0000
0000
0000
0000
0000
0000
0000
0000
0000
0000
0000
0000
0000
0000
0000
0000
0000
0000
0000
0000
0000
0000
0000
0000
0000
0000
0000
0000
0000
0000
0000
0000
0000
0000
0000
0000
0000
0000
0000
0000
0000
0000
0000
0000
0000
0000
0000
0000
0000
0000
0000
0000
0000
0000
0000
0000
0000
0000
0000
0000
0000
0330
0000
0000
0000
0000
0000
0000
0000
0000
0000
0000
0000
,  // measure 66
0000
2020
0000
3000
0000
0002
0000
0003
0000
2030
0000
0000
0000
3001
0000
1000
,  // measure 67
0000
0200
0000
0001
0000
1000
0000
0001
0000
0320
0000
0000
0000
0031
0000
0100
,  // measure 68
0000
0020
0000
0000
0030
1010
0000
0000
0000
1000
0000
0010
0000
0001
0000
0000
,  // measure 69
0000
1000
0000
0100
0000
0001
0000
1000
0000
0200
0000
0000
0000
0310
0000
0001
,  // measure 70
0000
0202
0000
0003
0000
2000
0000
3000
0000
0302
0000
0000
0000
1003
0000
0100
,  // measure 71
0000
0020
0000
1000
0000
0001
0000
1000
0000
0230
0000
0000
0000
0310
0000
0001
,  // measure 72
0000
1000
0000
0010
0000
0001
0000
0000
0000
1000
0000
0100
0000
0001
0000
1000
,  // measure 73
0000
0100
0000
0010
0000
0100
0000
1000
0000
0001
0000
1000
0000
0010
0000
0100
,  // measure 74
0000
0202
0000
0300
0000
0020
0000
0030
0000
0203
0000
0000
0000
0310
0000
0100
,  // measure 75
0000
0002
0000
0010
0000
0100
0000
0010
0000
2003
0000
0000
0000
3010
0000
0100
,  // measure 76
0000
0001
0000
0010
0000
1000
0000
0000
0000
0001
0000
0100
0000
1000
0000
0000
,  // measure 77
0000
0001
0000
0100
0000
0010
0000
1000
0000
0002
0000
0000
0000
0013
0000
0100
,  // measure 78
0000
2000
0000
0000
0000
0020
0000
0030
0000
3200
0000
0000
0000
0310
0000
0001
,  // measure 79
0000
2000
0000
0100
0000
0010
0000
0100
0000
3002
0000
0000
0000
0103
0000
0010
,  // measure 80
0000
1000
0000
0010
0000
0001
0000
0000
0000
1000
0000
0100
0000
0001
0000
1000
,  // measure 81
0000
0200
0000
2300
0000
0002
0000
0010
3003
2002
0000
0000
0000
0000
0000
0000
,  // measure 82
0000
0000
0000
0000
,  // measure 83
0000
3003
0000
1000
0000
0010
0000
0100
0000
0002
0000
0000
0000
1003
0000
0200
,  // measure 84
0000
0000
0000
0310
0000
0100
0000
1000
0000
0001
0000
0100
0000
0010
0000
2000
,  // measure 85
0000
0000
0000
3001
0000
0100
0000
0010
0000
0200
0000
0000
0000
0301
0000
2000
,  // measure 86
0000
0000
0000
3001
0000
0010
0000
0100
0000
1000
0000
0100
0000
0010
0000
0002
,  // measure 87
0000
0000
0000
1003
0000
0010
0000
0100
0000
0020
0000
0000
0000
1030
0000
0002
,  // measure 88
0000
0000
0000
1003
0000
0010
0000
0100
0000
0001
0000
0100
0000
0010
0000
2000
,  // measure 89
0000
0000
0000
3001
0000
1000
0000
0100
0000
0020
0000
0031
1000
0000
1000
0100
,  // measure 90
0010
0001
0010
0100
2000
0000
3001
0100
0010
0200
0000
0301
0010
0000
0010
0001
,  // measure 91
1000
0000
0100
0000
0010
0000
0001
0000
0020
0000
0000
0000
0031
0000
1000
0100
2000
0000
3002
0000
0000
0000
0013
0000
0100
0000
0000
0000
0100
0000
0010
0000
,  // measure 92
0001
0000
0000
1000
0000
0000
0010
0000
0000
0100
0000
0000
0002
0000
0000
0000
0000
0000
1003
0000
0000
0200
0000
0000
0310
0001
0010
0002
0000
0000
0000
0000
0000
1003
0000
0000
0010
0000
0000
0000
0000
0000
0010
0000
0000
0100
0000
0000
,  // measure 93
0001
1000
0100
0010
0002
0000
0000
0000
0000
0000
0000
0003
0000
0000
0000
0000
;

//---------------dance-single - Ace Of Hearts (2013)----------------
#NOTES:
     dance-single:
     Ace Of Hearts (2013):
     Hard:
     7:
     0.501,0.000,0.005,0.811,1.000:
0000
0000
0000
0000
,
0000
0000
0000
0000
,
0000
0000
0000
0000
,
0000
0000
0000
0000
,
0000
0000
0000
0000
,
0000
2000
0000
0000
0000
3001
0000
0020
0000
0000
0000
0130
0000
1000
0000
0100
,
0000
0010
0000
0001
0000
1000
0000
0002
0000
0000
0000
1003
0000
0010
0000
0100
,
0000
0002
0000
0000
0000
1003
0000
0020
0000
0000
0000
1030
0000
0001
0000
0010
,
0000
0004
4000
0000
0000
0000
0000
0000
0000
0000
0000
0000
0000
3003
0000
0000
,
0000
2000
0000
0000
0000
3001
0000
0200
0000
0000
0000
0310
0000
1000
0000
0001
,
0000
1000
0000
0010
0000
0100
0000
0002
0000
0000
0000
1003
0000
0100
0000
0010
,
0000
0200
0000
0000
0000
1300
0000
0002
0000
0000
0000
1003
0000
0010
0000
1000
,
0000
0001
0000
0010
0000
0100
0000
2000
0000
0000
0000
3001
0000
0010
0000
0100
,
0000
0020
0000
0000
0000
0031
0000
2000
0000
0000
0000
3001
0000
0100
0000
0010
,
0000
0100
0000
0001
0000
1000
0000
0002
0000
0000
0000
1003
0000
0100
0000
0010
,
0000
0200
0000
0000
0000
1300
0000
0002
0000
0000
0000
1003
0000
0100
0000
0010
,
0000
0100
0000
1000
0000
0001
0000
2000
0000
0000
0000
3001
0000
0100
0000
0010
,
0000
0200
0000
0000
0000
0302
0000
0000
0000
2003
0000
0000
0000
3200
0000
0000
,
0000
0310
0000
0001
0000
1000
0000
0020
0000
0000
0000
0000
0000
0000
0000
0000
,
0000
0030
0000
1000
0000
0001
0000
2000
0000
0000
0000
3001
0000
0010
0000
0200
,
0000
0000
0000
1300
0000
0001
0000
0020
0000
0000
0000
0000
0000
0230
0000
0000
,
0000
0300
0000
0000
0000
2000
0000
0000
0000
3002
0000
0000
0000
0203
0000
0000
,
0000
0310
0000
1000
0000
0010
0000
0200
0000
0000
0000
0301
0000
1000
0000
0002
,
0000
0000
0000
0013
0000
0100
0000
2000
0000
0000
0000
3001
0000
0200
0000
0000
,
0000
0310
0000
1000
0000
0001
0000
2000
0000
0000
0000
0000
0000
3000
0000
0000
,
0000
0000
0000
0000
0000
0002
0000
0000
0000
0203
0000
0000
0000
0320
0000
0000
,
0000
1030
0000
0001
0000
1000
0000
0020
0000
0000
0000
0000
0000
0000
0000
0000
,
0000
0030
0000
1000
0000
0001
0000
0020
0000
0000
0000
0130
0000
1000
0000
0001
,
0000
1000
0000
0001
0000
0100
0000
0002
0000
0000
0000
1003
0000
0200
0000
0000
,
0000
0300
0000
0000
0000
0020
0000
0000
0000
0230
0000
0000
0000
2300
0000
0000
,
0000
3001
0000
0010
0000
0001
0000
2000
0000
0000
0000
3001
0000
0100
0000
0002
,
0000
0000
0000
1003
0000
0010
0000
0200
0000
0000
0000
0310
0000
1000
0000
0010
,
0000
0100
0000
0001
0000
0100
0000
0002
0000
0000
0000
1003
0000
0100
0000
0010
,
0000
0002
0000
0000
0000
2003
0000
0000
0000
3002
0000
0000
0000
0013
0000
0100
,
0000
1000
0000
0100
0000
0010
0000
0100
0000
2000
0000
0000
0000
3001
0000
0100
,
0000
0010
0000
0100
0000
0010
0000
0000
0000
0100
0000
0010
0000
0100
0000
0000
,
0000
0001
0000
0100
0000
0010
0000
0100
0000
0002
0000
0000
0000
1003
0000
0100
,
0000
0020
0000
0000
0000
0230
0000
0000
0000
0320
0000
0000
0000
0031
0000
1000
,
0000
0001
0000
0010
0000
0100
0000
0010
0000
0002
0000
0000
0000
0013
0000
0100
,
0000
1000
0000
0001
0000
1000
0000
0000
0000
0001
0000
1000
0000
0001
0000
0100
,
0000
0010
0000
1000
0000
0002
0000
0000
0000
2003
0000
0000
0000
3000
0000
0000
,
0000
0200
0000
0000
0000
0300
0000
0010
0000
0000
0000
0000
0000
0000
0000
0001
,
0000
1000
0000
0000
0000
1000
0000
0001
0000
0000
0000
0000
0000
1000
0000
0010
,
0000
1000
0000
0001
0000
1000
0000
0020
0000
0000
0000
1030
0000
0001
0000
1000
,
0000
0100
0000
0010
0000
0100
0000
2000
0000
0000
0000
3001
0000
0400
0000
0000
,
0000
0300
0000
0000
0000
0020
0000
0000
0000
2030
0000
0000
0000
3002
0000
0000
,
0000
1003
0000
0100
0000
1000
0000
0002
0000
0000
0000
1003
0000
0001
0000
2000
,
0000
0000
0000
3100
0000
0010
0000
0200
0000
0000
0000
1300
0000
0001
0000
1000
,
0000
0010
0000
0100
0000
0010
0000
2000
0000
0000
0000
3001
0000
0010
0000
0100
,
0000
2000
0000
0000
0000
3002
0000
0000
0000
2003
0000
0000
0000
3001
0000
0010
,
0000
0100
0000
1000
0000
0100
0000
0010
0000
0002
0000
0000
0000
1003
0000
0010
,
0000
0200
0000
0000
0000
0301
0000
0000
0000
0001
0000
1000
0000
0100
0000
0000
,
0000
1000
0000
0100
0000
0010
0000
0100
0000
2000
0000
0000
0000
3001
0000
0100
,
0000
0020
0000
0000
0000
0230
0000
0000
0000
0320
0000
0000
0000
1030
0000
0010
,
0000
0100
0000
0001
0000
0100
0000
0010
0000
2000
0000
0000
0000
3001
0000
0010
,
0000
0001
0000
0010
0000
0100
0000
0000
0000
0010
0000
0100
0000
1000
0000
0001
,
0000
1000
0000
0100
0000
0020
0000
0000
0000
0230
0000
0000
0000
0000
0000
0300
,
0000
0000
0000
2000
0000
3002
0000
0023
0000
0230
0000
0000
2300
0000
0000
0000
,
3000
0000
0000
0002
0000
2003
0000
3200
0000
2300
0000
3002
0000
0023
0000
0130
,
1000
0000
0000
0002
0000
0203
0000
0320
0000
2030
0000
0000
3002
0000
0000
0000
,
0003
0000
0000
2000
0000
3200
0000
0320
0000
0032
0000
0023
0000
0230
0000
1300
,
0001
0000
0000
2000
0000
3020
0000
0230
0000
0302
0000
0000
2003
0000
0000
0000
,
3000
0000
0000
0002
0000
0023
0000
0230
0000
0320
0000
0032
0000
2003
0000
3200
,
0000
0300
0000
0020
0000
0230
0000
2300
0000
3002
0000
0013
0200
0000
0000
1300
,
0100
0010
0100
1000
0000
0001
0100
0001
0000
1000
0100
0010
0001
0010
0100
1000
,
0001
2000
0000
0000
0000
3020
0000
0000
0000
0230
0000
0000
0000
0301
0000
0100
,
0000
0010
0000
1000
0000
0010
0000
0100
0000
0002
0000
0000
0000
1003
0000
0100
,
0000
2000
0000
0000
0000
3001
0000
0000
0000
0001
0000
0100
0000
0010
0000
0000
,
0000
0010
0000
0100
0000
0001
0000
1000
0000
0200
0000
0000
0000
0310
0000
0100
,
0000
2000
0000
0000
0000
3002
0000
0000
0000
0203
0000
0000
0000
0301
0000
0010
,
0000
0100
0000
1000
0000
0100
0000
0010
0000
0002
0000
0000
0000
1003
0000
0100
,
0000
0010
0000
0001
0000
0010
0000
0000
0000
0010
0000
0001
0000
1000
0000
0000
,
0000
1000
0000
0010
0000
0100
0000
0001
0000
1000
0000
0100
0000
1000
0000
0001
,
0000
0200
0000
0000
0000
0320
0000
0000
0000
2030
0000
0000
0000
3001
0000
0100
,
0000
0010
0000
1000
0000
0010
0000
0100
0000
0002
0000
0000
0000
1003
0000
0100
,
0000
1000
0000
0001
0000
0100
0000
0000
0000
0100
0000
0010
0000
1000
0000
0000
,
0000
1000
0000
0001
0000
0010
0000
0100
0000
2000
0000
0000
0000
3002
0000
0000
,
0000
0023
0000
0000
0000
0230
0000
0000
0000
2300
0000
0000
0000
3010
0000
1000
,
0000
0100
0000
1000
0000
0010
0000
1000
0000
0200
0000
0000
0000
0310
0000
0001
,
0000
0100
0000
0001
0000
0010
0000
0000
0000
0010
0000
0001
0000
0100
0000
0001
,
0000
2000
0000
3200
0000
0320
0000
0031
0000
2002
0000
0000
0000
0000
0000
0000
,
0000
0000
0000
0000
,
0000
3003
0000
0000
0000
0000
0000
0000
0000
2000
0000
0000
0000
3010
0000
0200
,
0000
0000
0000
0301
0000
1000
0000
0001
0000
0010
0000
0100
0000
1000
0000
0002
,
0000
0000
0000
1003
0000
0010
0000
0100
0000
0020
0000
0000
0000
1030
0000
0002
,
0000
0000
0000
0013
0000
0100
0000
1000
0000
0100
0000
0010
0000
0001
0000
2000
,
0000
0000
0000
3010
0000
0100
0000
0001
0000
0200
0000
0000
0000
0310
0000
2000
,
0000
0000
0000
3001
0000
0010
0000
0100
0000
1000
0000
0100
0000
0010
0000
0002
,
0000
0000
0000
1003
0000
0010
0000
1000
0000
0002
0000
1003
0100
0000
1000
0001
,
1000
0001
0100
0001
2000
0000
3001
0010
0100
2000
0000
3001
0010
0000
0001
0010
,
0100
1000
0100
0010
0002
0000
1003
0100
1000
0200
0000
0310
0001
0000
1000
0010
,
1000
0001
1000
0001
0020
0000
0130
1000
0004
2003
0000
3100
0010
0000
0001
0010
,
0100
1000
0100
0010
0002
0000
0000
0000
0000
0000
0000
0003
0000
0000
0000
0000
;

//---------------dance-single - Ace Of Hearts (2013)----------------
#NOTES:
     dance-single:
     Ace Of Hearts (2013):
     Medium:
     5:
     0.403,0.000,0.005,0.851,0.932:
0000
0000
0000
0000
,
0000
0000
0000
0000
,
0000
0000
0000
0000
,
0000
0000
0000
0000
,
0000
0000
0000
0000
,
0000
0002
0000
0000
0000
1003
0000
0010
0000
0000
0000
1000
0000
0001
0000
0000
,
0000
2000
0000
0000
0000
3100
0000
0020
0000
0000
0000
0000
0000
0030
0000
0000
,
0000
0200
0000
0000
0000
0310
0000
0001
0000
0000
0000
1000
0000
0010
0000
0000
,
0000
2000
0000
0000
0000
3001
0000
0200
0000
0000
0000
0000
0000
0300
0000
0000
,
0000
0020
0000
0000
0000
1030
0000
0001
0000
0000
0000
0010
0000
0100
0000
0000
,
0000
2000
0000
0000
0000
3001
0000
0200
0000
0000
0000
0000
0000
0300
0000
0000
,
0000
0002
0000
0000
0000
1003
0000
0100
0000
0000
0000
0010
0000
0001
0000
0000
,
0000
2000
0000
0000
0000
3001
0000
0020
0000
0000
0000
0000
0000
0030
0000
0000
,
0000
0200
0000
0000
0000
1300
0000
0001
0000
0000
0000
1000
0000
0010
0000
0000
,
0000
0200
0000
0000
0000
0301
0000
2000
0000
0000
0000
0000
0000
3000
0000
0000
,
0000
0002
0000
0000
0000
1003
0000
0010
0000
0000
0000
0100
0000
0010
0000
0000
,
0000
2000
0000
0000
0000
3001
0000
0020
0000
0000
0000
0000
0000
0030
0000
0000
,
0000
0000
0000
0000
0000
0200
0000
0000
0000
2300
0000
0000
0000
3002
0000
0000
,
0000
0203
0000
0000
0000
0310
0000
2000
0000
0000
0000
0000
0000
0000
0000
0000
,
0000
3000
0000
0000
0000
0001
0000
0020
0000
0000
0000
0000
0000
0130
0000
2000
,
0000
0000
0000
0000
0000
3001
0000
0020
0000
0000
0000
0000
0000
0130
0000
0000
,
0000
0000
0000
0000
0000
2000
0000
0000
0000
3002
0000
0000
0000
0023
0000
0000
,
0000
0032
0000
0000
0000
1003
0000
0020
0000
0000
0000
0000
0000
0130
0000
0002
,
0000
0000
0000
0000
0000
1003
0000
0200
0000
0000
0000
0000
0000
2300
0000
0000
,
0000
3002
0000
0000
0000
0103
0000
0020
0000
0000
0000
0000
0000
0030
0000
0000
,
0000
0000
0000
0000
0000
0200
0000
0000
0000
0320
0000
0000
0000
2030
0000
0000
,
0000
3002
0000
0000
0000
0013
0000
0200
0000
0000
0000
0000
0000
0000
0000
0000
,
0000
0300
0000
0000
0000
1000
0000
0200
0000
0000
0000
0000
0000
0310
0000
0002
,
0000
0000
0000
0000
0000
1003
0000
0020
0000
0000
0000
0130
0000
0001
0000
0000
,
0000
0000
0000
0000
0000
2000
0000
0000
0000
3002
0000
0000
0000
0203
0000
0000
,
0000
0320
0000
0000
0000
1030
0000
0002
0000
0000
0000
1003
0000
0000
0000
0200
,
0000
0000
0000
0000
0000
0310
0000
0002
0000
0000
0000
1003
0000
0200
0000
0000
,
0000
0320
0000
0000
0000
0130
0000
1000
0000
0000
0000
0001
0000
0100
0000
0000
,
0000
0020
0000
0000
0000
1000
0000
0000
0000
1030
0000
0000
0000
1000
0000
0000
,
0000
0002
0000
0000
0000
1003
0000
0100
0000
1000
0000
0000
0000
0001
0000
0000
,
0000
1000
0000
0001
0000
1000
0000
0000
0000
0001
0000
1000
0000
0001
0000
0000
,
0000
2000
0000
0000
0000
0000
0000
3001
0000
0200
0000
0000
0000
0301
0000
0000
,
0000
2000
0000
0000
0000
0100
0000
0000
0000
3100
0000
0000
0000
0200
0000
0000
,
0000
0310
0000
0000
0000
0001
0000
0010
0000
0001
0000
0000
0000
1000
0000
0000
,
0000
0010
0000
0100
0000
0010
0000
0000
0000
0100
0000
0010
0000
0100
0000
0000
,
0000
0002
0000
0000
0000
1003
0000
0000
0000
2000
0000
0000
0000
0000
0000
3000
,
0000
0020
0000
0000
0000
0030
0000
0100
0000
0000
0000
0000
0000
0000
0000
0001
,
0000
1000
0000
0000
0000
1000
0000
0001
0000
0000
0000
0000
0000
0200
0000
0000
,
0000
0310
0000
0000
0000
0000
0000
0000
0000
0000
0000
0000
0000
0000
0000
0000
,
0000
2000
0000
0000
0000
3001
0000
0020
0000
0000
0000
0130
0000
4000
0000
0000
,
0000
3000
0000
0000
0000
0002
0000
0000
0000
0203
0000
0000
0000
0320
0000
0000
,
0000
2030
0000
0000
0000
3001
0000
0020
0000
0000
0000
0000
0000
0130
0000
2000
,
0000
0000
0000
0000
0000
3001
0000
0200
0000
0000
0000
0000
0000
0310
0000
2000
,
0000
0000
0000
0000
0000
3001
0000
0020
0000
0000
0000
0130
0000
1000
0000
0000
,
0000
0002
0000
0000
0000
0100
0000
0000
0000
1003
0000
0000
0000
2000
0000
0000
,
0000
3020
0000
0000
0000
0130
0000
0001
0000
0100
0000
0000
0000
0010
0000
0000
,
0000
2000
0000
0000
0000
3001
0000
0000
0000
0010
0000
0001
0000
0010
0000
0000
,
0000
0100
0000
1000
0000
0100
0000
0000
0000
2000
0000
0000
0000
3001
0000
0000
,
0000
0020
0000
0000
0000
0100
0000
0000
0000
0031
0000
0000
0000
0002
0000
0000
,
0000
1003
0000
0000
0000
0010
0000
1000
0000
0010
0000
0000
0000
0200
0000
0000
,
0000
0301
0000
1000
0000
0001
0000
0000
0000
0010
0000
0100
0000
0010
0000
0000
,
0000
0002
0000
0000
0000
2003
0000
0000
0000
3200
0000
0000
0000
0000
0000
0300
,
0000
0000
0000
0020
0000
0032
0000
0023
0000
0230
0000
0000
2300
0000
0000
0000
,
3000
0000
0000
0002
0000
2003
0000
3002
0000
0023
0000
0230
0000
2300
0000
0000
,
3001
0000
0000
2000
0000
3002
0000
0023
0000
0032
0000
0000
2003
0000
0000
0000
,
3000
0000
0000
0002
0000
0023
0000
0230
0000
2300
0000
3200
0000
0320
0000
0000
,
0031
0000
0000
2000
0000
3200
0000
2300
0000
3002
0000
0000
0203
0000
0000
0000
,
0300
0000
0000
0020
0000
2030
0000
3020
0000
0230
0000
0302
0000
2003
0000
3200
,
0000
0300
0000
0020
0000
0032
0000
0023
0000
0230
0000
0000
2300
0000
0000
3001
,
0000
1000
0100
1000
0000
0001
0010
0001
0000
4000
0000
0000
0000
0000
0000
3000
,
0000
0002
0000
0000
0000
0100
0000
0000
0000
2003
0000
0000
0000
3010
0000
0000
,
0000
0200
0000
0000
0000
0301
0000
1000
0000
0001
0000
0000
0000
1000
0000
0000
,
0000
0002
0000
0000
0000
0013
0000
0000
0000
0100
0000
0010
0000
0100
0000
0000
,
0000
1000
0000
0100
0000
1000
0000
0000
0000
0002
0000
0000
0000
2003
0000
0000
,
0000
3002
0000
0000
0000
1000
0000
0000
0000
0203
0000
0000
0000
0310
0000
0000
,
0000
2000
0000
0000
0000
3001
0000
0100
0000
0001
0000
0000
0000
2000
0000
0000
,
0000
3100
0000
0010
0000
0100
0000
0000
0000
1000
0000
0001
0000
1000
0000
0000
,
0000
0002
0000
0000
0000
2003
0000
0000
0000
3100
0000
0000
0000
1000
0000
0000
,
0000
0200
0000
0000
0000
0010
0000
0000
0000
2300
0000
0000
0000
3001
0000
0000
,
0000
0200
0000
0000
0000
0310
0000
1000
0000
0010
0000
0000
0000
1000
0000
0000
,
0000
0001
0000
0100
0000
0001
0000
0000
0000
1000
0000
0100
0000
1000
0000
0000
,
0000
0001
0000
1000
0000
0001
0000
0000
0000
0020
0000
0000
0000
0130
0000
0000
,
0000
2000
0000
0000
0000
0100
0000
0000
0000
3002
0000
0000
0000
0103
0000
0000
,
0000
0020
0000
0000
0000
0130
0000
0001
0000
0100
0000
0000
0000
0020
0000
0000
,
0000
1030
0000
0001
0000
1000
0000
0000
0000
0100
0000
0010
0000
0100
0000
0000
,
0000
2000
0000
3200
0000
0320
0000
0031
0000
2002
0000
0000
0000
0000
0000
0000
,
0000
0000
0000
0000
,
0000
3003
0000
0000
0000
0000
0000
0000
0000
2000
0000
0000
0000
3100
0000
0010
,
0000
0000
0000
0001
0000
0010
0000
0000
0000
0200
0000
0000
0000
1300
0000
0002
,
0000
0000
0000
0000
0000
0003
0000
0000
0000
2000
0000
0000
0000
3001
0000
0100
,
0000
0000
0000
0010
0000
0100
0000
0000
0000
0002
0000
0000
0000
1003
0000
0200
,
0000
0000
0000
0000
0000
0300
0000
0000
0000
0020
0000
0000
0000
0031
0000
1000
,
0000
0000
0000
0010
0000
1000
0000
0000
0000
0002
0000
0000
0000
0013
0000
0200
,
0000
0000
0000
0000
0000
0300
0000
0000
0000
2000
0000
3001
0010
0000
0001
0010
,
0000
0200
0000
1300
0002
0000
0000
0003
0000
2000
0000
3100
0010
0000
0100
0010
,
0000
0200
0000
1300
0002
0000
0000
0003
0000
0200
0000
0310
1000
0000
0010
1000
,
0000
0002
0000
1003
0200
0000
0000
0300
0000
0020
0000
0031
1000
0000
0001
1000
,
0000
0200
0000
0310
0002
0000
0000
0000
0000
0000
0000
0003
0000
0000
0000
0000
;

//---------------dance-single - Ace Of Hearts (2013)----------------
#NOTES:
     dance-single:
     Ace Of Hearts (2013):
     Easy:
     3:
     0.215,0.000,0.000,0.215,0.644:
0000
0000
0000
0000
,
0000
0000
0000
0000
,
0000
0000
0000
0000
,
0000
0000
0000
0000
,
0000
0000
0000
0000
,
0000
1000
0000
0000
0000
1000
0000
0000
0000
1000
0000
0000
0000
0000
0000
0000
,
0000
0001
0000
0000
0000
0001
0000
0000
0000
0002
0000
0000
0000
0003
0000
0000
,
0000
0100
0000
0000
0000
0100
0000
0000
0000
0100
0000
0000
0000
0000
0000
0000
,
0000
0040
0000
0000
0000
0000
0000
0000
0000
0030
0000
0000
0000
0000
0000
0000
,
0000
0100
0000
0000
0000
0100
0000
0000
0000
0100
0000
0000
0000
0000
0000
0000
,
0000
0001
0000
0000
0000
0001
0000
0000
0000
0002
0000
0000
0000
0003
0000
0000
,
0000
1000
0000
0000
0000
1000
0000
0000
0000
1000
0000
0000
0000
0000
0000
0000
,
0000
0100
0000
0000
0000
0100
0000
0000
0000
0200
0000
0000
0000
0300
0000
0000
,
0000
0010
0000
0000
0000
0010
0000
0000
0000
0010
0000
0000
0000
0000
0000
0000
,
0000
0001
0000
0000
0000
0001
0000
0000
0000
0002
0000
0000
0000
0003
0000
0000
,
0000
1000
0000
0000
0000
1000
0000
0000
0000
1000
0000
0000
0000
0000
0000
0000
,
0000
0010
0000
0000
0000
0010
0000
0000
0000
0020
0000
0000
0000
0030
0000
0000
,
0000
0000
0000
0000
0000
0100
0000
0000
0000
0100
0000
0000
0000
0000
0000
0000
,
0000
0001
0000
0000
0000
0001
0000
0000
0000
0002
0000
0000
0000
0000
0000
0000
,
0000
0003
0000
0000
0000
1000
0000
0000
0000
1000
0000
0000
0000
0000
0000
0000
,
0000
0100
0000
0000
0000
0100
0000
0000
0000
0200
0000
0000
0000
0300
0000
0000
,
0000
0000
0000
0000
0000
0010
0000
0000
0000
0010
0000
0000
0000
0000
0000
0000
,
0000
0100
0000
0000
0000
0100
0000
0000
0000
0200
0000
0000
0000
0300
0000
0000
,
0000
1000
0000
0000
0000
1000
0000
0000
0000
2000
0000
0000
0000
3000
0000
0000
,
0000
0001
0000
0000
0000
0001
0000
0000
0000
0002
0000
0000
0000
0003
0000
0000
,
0000
0000
0000
0000
0000
0100
0000
0000
0000
0100
0000
0000
0000
0000
0000
0000
,
0000
0010
0000
0000
0000
0010
0000
0000
0000
0020
0000
0000
0000
0000
0000
0000
,
0000
0030
0000
0000
0000
1000
0000
0000
0000
1000
0000
0000
0000
0000
0000
0000
,
0000
0001
0000
0000
0000
0001
0000
0000
0000
0002
0000
0000
0000
0003
0000
0000
,
0000
0000
0000
0000
0000
0010
0000
0000
0000
0010
0000
0000
0000
0000
0000
0000
,
0000
0100
0000
0000
0000
0100
0000
0000
0000
0200
0000
0000
0000
0300
0000
0000
,
0000
1000
0000
0000
0000
1000
0000
0000
0000
2000
0000
0000
0000
3000
0000
0000
,
0000
0001
0000
0000
0000
0001
0000
0000
0000
0001
0000
0000
0000
0000
0000
0000
,
0000
2000
0000
0000
0000
0001
0000
0000
0000
0001
0000
0000
0000
0000
0000
0000
,
0000
0004
0000
0000
0000
0000
0000
0000
0000
3003
0000
0000
0000
0000
0000
0000
,
0000
1000
0000
0000
0000
1000
0000
0000
0000
0010
0000
0000
0000
0010
0000
0000
,
0000
1000
0000
0000
0000
1000
0000
0000
0000
1000
0000
0000
0000
0000
0000
0000
,
0000
0002
0000
0000
0000
1000
0000
0000
0000
1000
0000
0000
0000
0000
0000
0000
,
0000
4000
0000
0000
0000
0000
0000
0000
0000
3003
0000
0000
0000
0000
0000
0000
,
0000
0001
0000
0000
0000
0001
0000
0000
0000
0010
0000
0000
0000
0010
0000
0000
,
0000
0100
0000
0000
0000
0100
0000
0000
0000
0100
0000
0000
0000
0000
0000
0000
,
0000
2000
0000
0000
0000
3000
0000
1000
0000
0000
0000
0000
0000
0000
0000
0000
,
0000
0010
0000
0000
0000
0000
0000
0010
0000
0000
0000
0000
0000
0000
0000
0000
,
0000
0100
0000
0000
0000
0000
0000
0000
0000
0000
0000
0000
0000
0000
0000
0000
,
0000
0001
0000
0000
0000
0001
0000
0000
0000
0004
0000
0000
0000
0000
0000
0000
,
0000
0003
0000
0000
0000
1000
0000
0000
0000
1000
0000
0000
0000
0000
0000
0000
,
0000
0010
0000
0000
0000
0010
0000
0000
0000
0020
0000
0000
0000
0030
0000
0000
,
0000
0100
0000
0000
0000
0100
0000
0000
0000
0200
0000
0000
0000
0300
0000
0000
,
0000
0001
0000
0000
0000
0001
0000
0000
0000
0001
0000
0000
0000
0000
0000
0000
,
0000
0200
0000
0000
0000
0010
0000
0000
0000
0010
0000
0000
0000
0000
0000
0000
,
0000
0040
0000
0000
0000
0000
0000
0000
0000
0330
0000
0000
0000
0000
0000
0000
,
0000
0010
0000
0000
0000
0010
0000
0000
0000
1000
0000
0000
0000
1000
0000
0000
,
0000
0001
0000
0000
0000
0001
0000
0000
0000
0001
0000
0000
0000
0000
0000
0000
,
0000
0020
0000
0000
0000
0100
0000
0000
0000
0100
0000
0000
0000
0000
0000
0000
,
0000
0400
0000
0000
0000
0000
0000
0000
0000
0330
0000
0000
0000
0000
0000
0000
,
0000
0100
0000
0000
0000
0100
0000
0000
0000
1000
0000
0000
0000
1000
0000
0000
,
0000
0001
0000
0000
0000
0001
0000
0000
0000
0002
0000
0000
0000
0003
0000
0000
,
0000
0000
0000
1000
0000
1000
0000
0000
0000
2000
0000
0000
0000
0000
0000
0000
,
0000
3000
0000
0001
0000
0001
0000
0000
0000
0010
0000
0010
0000
0020
0000
0000
,
0000
0030
0000
0001
0000
0001
0000
0000
0000
0002
0000
0000
0000
0000
0000
0000
,
0000
0003
0000
1000
0000
1000
0000
0000
0000
0100
0000
0100
0000
0200
0000
0000
,
0000
0300
0000
0010
0000
0010
0000
0000
0000
0002
0000
0000
0000
0000
0000
0000
,
0000
0003
0000
1000
0000
1000
0000
0000
0000
0010
0000
0010
0000
0020
0000
0000
,
0000
0030
0000
0100
0000
0100
0000
0000
0000
0200
0000
0000
0000
0000
0000
0300
,
0000
0001
0000
0001
0000
1000
0000
1000
0000
0040
0000
0000
0000
0000
0000
0030
,
0000
2000
0000
0000
0000
0010
0000
0000
0000
0010
0000
0000
0000
0000
0000
0000
,
0000
0040
0000
0000
0000
0000
0000
0000
0000
3030
0000
0000
0000
0000
0000
0000
,
0000
1000
0000
0000
0000
1000
0000
0000
0000
0010
0000
0000
0000
0010
0000
0000
,
0000
1000
0000
0000
0000
1000
0000
0000
0000
1000
0000
0000
0000
0000
0000
0000
,
0000
0002
0000
0000
0000
0100
0000
0000
0000
0100
0000
0000
0000
0000
0000
0000
,
0000
0400
0000
0000
0000
0000
0000
0000
0000
0303
0000
0000
0000
0000
0000
0000
,
0000
0001
0000
0000
0000
0001
0000
0000
0000
1000
0000
0000
0000
1000
0000
0000
,
0000
0100
0000
0000
0000
0100
0000
0000
0000
0100
0000
0000
0000
0000
0000
0000
,
0000
0020
0000
0000
0000
0001
0000
0000
0000
0001
0000
0000
0000
0000
0000
0000
,
0000
0004
0000
0000
0000
0000
0000
0000
0000
0033
0000
0000
0000
0000
0000
0000
,
0000
0010
0000
0000
0000
0010
0000
0000
0000
0100
0000
0000
0000
0100
0000
0000
,
0000
1000
0000
0000
0000
1000
0000
0000
0000
1000
0000
0000
0000
0000
0000
0000
,
0000
0200
0000
0000
0000
1000
0000
0000
0000
1000
0000
0000
0000
0000
0000
0000
,
0000
4000
0000
0000
0000
0000
0000
0000
0000
3300
0000
0000
0000
0000
0000
0000
,
0000
0100
0000
0000
0000
0100
0000
0000
0000
0010
0000
0000
0000
0010
0000
0000
,
0000
0002
0000
0000
0000
0003
0000
2000
0000
0002
0000
0000
0000
0000
0000
0000
,
0000
0000
0000
0000
,
0000
3003
0000
0000
0000
0000
0000
0000
0000
0001
0000
0000
0000
0001
0000
0000
,
0000
0001
0000
0000
0000
0000
0000
0000
0000
0100
0000
0000
0000
0100
0000
0000
,
0000
0200
0000
0000
0000
0300
0000
0000
0000
0010
0000
0000
0000
0010
0000
0000
,
0000
0010
0000
0000
0000
0000
0000
0000
0000
1000
0000
0000
0000
1000
0000
0000
,
0000
2000
0000
0000
0000
3000
0000
0000
0000
0001
0000
0000
0000
0001
0000
0000
,
0000
0001
0000
0000
0000
0000
0000
0000
0000
0010
0000
0000
0000
0010
0000
0000
,
0000
0020
0000
0000
0000
0030
0000
0000
0000
0100
0000
0100
0000
0100
0000
0000
,
0000
1000
0000
1000
0000
2000
0000
3000
0000
0001
0000
0001
0000
0001
0000
0000
,
0000
0100
0000
0100
0000
0200
0000
0300
0000
0010
0000
0010
0000
0010
0000
0000
,
0000
1000
0000
1000
0000
2000
0000
3000
0000
0001
0000
0001
0000
0001
0000
0000
,
0000
0010
0000
0010
0000
0020
0000
0000
0000
0000
0000
0030
0000
0000
0000
0000
;

//---------------dance-single - Ace Of Hearts (2013)----------------
#NOTES:
     dance-single:
     Ace Of Hearts (2013):
     Beginner:
     1:
     0.139,0.000,0.005,0.275,0.346:
0000
0000
0000
0000
,
0000
0000
0000
0000
,
0000
0000
0000
0000
,
0000
0000
0000
0000
,
0000
0000
0000
0000
,
0000
0001
0000
0000
0000
0000
0000
0000
0000
0001
0000
0000
0000
0000
0000
0000
,
0000
0002
0000
0000
0000
0000
0000
0003
0000
0000
0000
0000
0000
0000
0000
0000
,
0000
1000
0000
0000
0000
0000
0000
0000
0000
1000
0000
0000
0000
0000
0000
0000
,
0000
2000
0000
0000
0000
0000
0000
0000
0000
3000
0000
0000
0000
0000
0000
0000
,
0000
0010
0000
0000
0000
0000
0000
0000
0000
0010
0000
0000
0000
0000
0000
0000
,
0000
0020
0000
0000
0000
0000
0000
0000
0000
0030
0000
0000
0000
0000
0000
0000
,
0000
0100
0000
0000
0000
0000
0000
0000
0000
0100
0000
0000
0000
0000
0000
0000
,
0000
0200
0000
0000
0000
0000
0000
0000
0000
0300
0000
0000
0000
0000
0000
0000
,
0000
0001
0000
0000
0000
0000
0000
0000
0000
0001
0000
0000
0000
0000
0000
0000
,
0000
0002
0000
0000
0000
0000
0000
0000
0000
0003
0000
0000
0000
0000
0000
0000
,
0000
1000
0000
0000
0000
0000
0000
0000
0000
1000
0000
0000
0000
0000
0000
0000
,
0000
2000
0000
0000
0000
0000
0000
0000
0000
3000
0000
0000
0000
0000
0000
0000
,
0000
0000
0000
0000
0000
0000
0000
0000
0000
0100
0000
0000
0000
0000
0000
0000
,
0000
0200
0000
0000
0000
0000
0000
0000
0000
0300
0000
0000
0000
0000
0000
0000
,
0000
0000
0000
0000
0000
0000
0000
0000
0000
0010
0000
0000
0000
0000
0000
0000
,
0000
0010
0000
0000
0000
0000
0000
0000
0000
0010
0000
0000
0000
0000
0000
0000
,
0000
0000
0000
0000
0000
0000
0000
0000
0000
0001
0000
0000
0000
0000
0000
0000
,
0000
0002
0000
0000
0000
0000
0000
0000
0000
0003
0000
0000
0000
0000
0000
0000
,
0000
1000
0000
0000
0000
0000
0000
0000
0000
1000
0000
0000
0000
0000
0000
0000
,
0000
2000
0000
0000
0000
0000
0000
0000
0000
3000
0000
0000
0000
0000
0000
0000
,
0000
0000
0000
0000
0000
0000
0000
0000
0000
0100
0000
0000
0000
0000
0000
0000
,
0000
0200
0000
0000
0000
0000
0000
0000
0000
0300
0000
0000
0000
0000
0000
0000
,
0000
0000
0000
0000
0000
0000
0000
0000
0000
0010
0000
0000
0000
0000
0000
0000
,
0000
0010
0000
0000
0000
0000
0000
0000
0000
0020
0000
0000
0000
0000
0000
0000
,
0000
0030
0000
0000
0000
0000
0000
0000
0000
0001
0000
0000
0000
0000
0000
0000
,
0000
0002
0000
0000
0000
0000
0000
0000
0000
0003
0000
0000
0000
0000
0000
0000
,
0000
1000
0000
0000
0000
0000
0000
0000
0000
1000
0000
0000
0000
0000
0000
0000
,
0000
1000
0000
0000
0000
0000
0000
0000
0000
0000
0000
0000
0000
0000
0000
0000
,
0000
0002
0000
0000
0000
0000
0000
0000
0000
1000
0000
0000
0000
0000
0000
0000
,
0000
2000
0000
0000
0000
0000
0000
0000
0000
3003
0000
0000
0000
0000
0000
0000
,
0000
0001
0000
0000
0000
0000
0000
0000
0000
0001
0000
0000
0000
0000
0000
0000
,
0000
0002
0000
0000
0000
0000
0000
0000
0000
0003
0000
0000
0000
0000
0000
0000
,
0000
2000
0000
0000
0000
0000
0000
0000
0000
0001
0000
0000
0000
0000
0000
0000
,
0000
0002
0000
0000
0000
0000
0000
0000
0000
3003
0000
0000
0000
0000
0000
0000
,
0000
1000
0000
0000
0000
0000
0000
0000
0000
1000
0000
0000
0000
0000
0000
0000
,
0000
2000
0000
0000
0000
0000
0000
0000
0000
3000
0000
0000
0000
0000
0000
0000
,
0000
0020
0000
0000
0000
0000
0000
0030
0000
0000
0000
0000
0000
0000
0000
0000
,
0000
0200
0000
0000
0000
0000
0000
0300
0000
0000
0000
0000
0000
0000
0000
0000
,
0000
0001
0000
0000
0000
0000
0000
0000
0000
0000
0000
0000
0000
0000
0000
0000
,
0000
1000
0000
0000
0000
0000
0000
0000
0000
4000
0000
0000
0000
0000
0000
0000
,
0000
3000
0000
0000
0000
0000
0000
0000
0000
0010
0000
0000
0000
0000
0000
0000
,
0000
0020
0000
0000
0000
0000
0000
0000
0000
0030
0000
0000
0000
0000
0000
0000
,
0000
1000
0000
0000
0000
0000
0000
0000
0000
1000
0000
0000
0000
0000
0000
0000
,
0000
2000
0000
0000
0000
0000
0000
0000
0000
3000
0000
0000
0000
0000
0000
0000
,
0000
0020
0000
0000
0000
0000
0000
0000
0000
0100
0000
0000
0000
0000
0000
0000
,
0000
0200
0000
0000
0000
0000
0000
0000
0000
0330
0000
0000
0000
0000
0000
0000
,
0000
0010
0000
0000
0000
0000
0000
0000
0000
0010
0000
0000
0000
0000
0000
0000
,
0000
0020
0000
0000
0000
0000
0000
0000
0000
0030
0000
0000
0000
0000
0000
0000
,
0000
0200
0000
0000
0000
0000
0000
0000
0000
0010
0000
0000
0000
0000
0000
0000
,
0000
0020
0000
0000
0000
0000
0000
0000
0000
0330
0000
0000
0000
0000
0000
0000
,
0000
0100
0000
0000
0000
0000
0000
0000
0000
0100
0000
0000
0000
0000
0000
0000
,
0000
0200
0000
0000
0000
0000
0000
0000
0000
0300
0000
0000
0000
0000
0000
0000
,
0000
0000
0000
0000
0000
0001
0000
0000
0000
0002
0000
0000
0000
0003
0000
0000
,
0000
0000
0000
0000
0000
1000
0000
0000
0000
1000
0000
0000
0000
2000
0000
0000
,
0000
3000
0000
0000
0000
0010
0000
0000
0000
0020
0000
0000
0000
0030
0000
0000
,
0000
0000
0000
0000
0000
0100
0000
0000
0000
0100
0000
0000
0000
0200
0000
0000
,
0000
0300
0000
0000
0000
0001
0000
0000
0000
0002
0000
0000
0000
0003
0000
0000
,
0000
0000
0000
0000
0000
1000
0000
0000
0000
1000
0000
0000
0000
2000
0000
0000
,
0000
3000
0000
0000
0000
0001
0000
0000
0000
0002
0000
0000
0000
0003
0000
0000
,
0000
0010
0000
0000
0000
0010
0000
0000
0000
0040
0000
0000
0000
0000
0000
0030
,
0000
0002
0000
0000
0000
0000
0000
0000
0000
1000
0000
0000
0000
0000
0000
0000
,
0000
2000
0000
0000
0000
0000
0000
0000
0000
3003
0000
0000
0000
0000
0000
0000
,
0000
0001
0000
0000
0000
0000
0000
0000
0000
0001
0000
0000
0000
0000
0000
0000
,
0000
0001
0000
0000
0000
0000
0000
0000
0000
0000
0000
0000
0000
0000
0000
0000
,
0000
2000
0000
0000
0000
0000
0000
0000
0000
0001
0000
0000
0000
0000
0000
0000
,
0000
0002
0000
0000
0000
0000
0000
0000
0000
3003
0000
0000
0000
0000
0000
0000
,
0000
1000
0000
0000
0000
0000
0000
0000
0000
1000
0000
0000
0000
0000
0000
0000
,
0000
2000
0000
0000
0000
0000
0000
0000
0000
3000
0000
0000
0000
0000
0000
0000
,
0000
0200
0000
0000
0000
0000
0000
0000
0000
0010
0000
0000
0000
0000
0000
0000
,
0000
0020
0000
0000
0000
0000
0000
0000
0000
0330
0000
0000
0000
0000
0000
0000
,
0000
0100
0000
0000
0000
0000
0000
0000
0000
0100
0000
0000
0000
0000
0000
0000
,
0000
0200
0000
0000
0000
0000
0000
0000
0000
0300
0000
0000
0000
0000
0000
0000
,
0000
0020
0000
0000
0000
0000
0000
0000
0000
0100
0000
0000
0000
0000
0000
0000
,
0000
0200
0000
0000
0000
0000
0000
0000
0000
0330
0000
0000
0000
0000
0000
0000
,
0000
0010
0000
0000
0000
0000
0000
0000
0000
0010
0000
0000
0000
0000
0000
0000
,
0000
0020
0000
0000
0000
0030
0000
0000
0000
2002
0000
0000
0000
0000
0000
0000
,
0000
0000
0000
0000
,
0000
3003
0000
0000
0000
0000
0000
0000
0000
1000
0000
0000
0000
0000
0000
0000
,
0000
1000
0000
0000
0000
0000
0000
0000
0000
2000
0000
0000
0000
0000
0000
0000
,
0000
3000
0000
0000
0000
0000
0000
0000
0000
0010
0000
0000
0000
0000
0000
0000
,
0000
0010
0000
0000
0000
0000
0000
0000
0000
0020
0000
0000
0000
0000
0000
0000
,
0000
0030
0000
0000
0000
0000
0000
0000
0000
0100
0000
0000
0000
0000
0000
0000
,
0000
0100
0000
0000
0000
0000
0000
0000
0000
0200
0000
0000
0000
0000
0000
0000
,
0000
0300
0000
0000
0000
0000
0000
0000
0000
0001
0000
0000
0000
0001
0000
0000
,
0000
0002
0000
0000
0000
0003
0000
0000
0000
1000
0000
0000
0000
1000
0000
0000
,
0000
2000
0000
0000
0000
3000
0000
0000
0000
0100
0000
0000
0000
0100
0000
0000
,
0000
0200
0000
0000
0000
0300
0000
0000
0000
0010
0000
0000
0000
0010
0000
0000
,
0000
0020
0000
0000
0000
0000
0000
0000
0000
0000
0000
0030
0000
0000
0000
0000
;
