#TITLE:Tsuru Pettan;
#SUBTITLE:;
#ARTIST:Iosys;
#TITLETRANSLIT:;
#SUBTITLETRANSLIT:;
#ARTISTTRANSLIT:;
#GENRE:Silly J-Pop;
#CREDIT:Ace Of Hearts;
#BANNER:Tsuru Pettan - bn.png;
#BACKGROUND:Tsuru Pettan - bg.png;
#LYRICSPATH:;
#CDTITLE:Ace Of Hearts.png;
#MUSIC:Tsuru Pettan.ogg;
#OFFSET:1.240;
#SAMPLESTART:48.100;
#SAMPLELENGTH:12.000;
#SELECTABLE:YES;
#BPMS:0.000=180.000;
#STOPS:;
#BGCHANGES:3.500=Tsuru Pettan Video.avi=1.000=0=0=0=StretchNoLoop====,
99999=-nosongbg-=1.000=0=0=0 // don't automatically add -songbackground-
;
#KEYSOUNDS:;

//---------------dance-single - Tsuru Pettan----------------
#NOTES:
     dance-single:
     Ace Of Hearts (2013):
     Challenge:
     11:
     0.915,0.000,0.581,1.000,0.369:
0000
0000
0000
0000
,
0000
0000
0000
0000
,
0000
0000
0000
0000
,
0000
0000
0000
0000
,
0000
0000
0000
0000
,
0102
1003
2100
3001
,
1001
1000
0020
0030
0110
0000
0000
0000
,
2010
3001
0012
1003
,
1001
0000
0001
0000
0020
0000
0030
0000
0110
0000
0100
1000
0001
0000
0001
0100
,
0020
1030
2100
3001
,
0101
0100
0020
0030
1010
0000
0000
0000
,
0210
0301
0021
0130
,
1100
0000
1000
0000
0002
0000
0003
0000
0100
0001
0100
0001
1000
0100
0010
0001
,
2000
0000
3010
0100
0001
1000
0100
0010
0100
1000
0001
0100
0010
0100
0001
1000
,
0100
0010
0100
1000
0001
0000
1000
0000
0020
0000
0130
0001
0000
0000
0000
0000
,
1000
0100
1000
0000
0001
0100
0002
0000
1003
0010
0100
0010
1000
0000
0001
0000
,
0000
0010
0200
0000
1300
0002
0000
1003
0010
2000
0000
3001
0010
0000
0000
0000
,
0100
0000
1000
0200
0000
0310
0000
0002
0000
1003
0000
0010
0200
0000
0301
0000
,
0100
0001
0100
0000
0020
0000
1030
0000
0002
0000
1003
0100
0000
0000
0000
0000
,
1000
0100
0010
0001
0010
0100
1000
0000
0002
0000
0103
0000
0010
0000
1000
0000
,
0002
0000
0013
0000
0100
0000
1000
0000
0001
0100
0000
0100
0020
0000
0030
0000
,
2000
0000
0000
3002
,
0023
0000
0000
0000
0000
0000
0000
0000
0230
0000
0000
0000
0000
0300
2200
0000
,
0000
0000
0000
0300
,
3001
0000
0100
0000
0001
0000
1000
0100
0010
0000
0100
0000
1000
0000
0001
0100
,
0020
0000
0000
0230
,
0320
0000
0000
0000
2030
0000
0000
3000
,
2002
0000
0000
3003
0022
0000
0033
2200
,
0300
0000
3001
0000
0010
0000
0001
1000
0010
0000
1000
0000
0001
0000
0100
0010
,
2000
0000
0000
3002
,
2003
0000
0000
0000
3020
0000
0030
0220
,
0000
0000
0000
0030
,
0302
0000
0000
0000
1003
0000
0010
0100
0001
0000
1000
0000
0100
0000
0010
0100
,
2000
0000
0000
3200
,
0320
0000
0000
0000
0032
0000
0000
2003
,
3010
0100
0000
0100
0002
0000
0000
0000
1003
0100
0000
0100
0020
0000
0000
0000
,
0130
0000
1000
0001
1000
0000
0100
0000
0120
0000
0031
1000
0100
0010
0100
1000
,
0002
0103
0102
1003
,
1100
0100
0020
0030
0011
0000
0000
0000
,
2001
3010
2010
3001
,
0011
0000
0010
0000
0200
0000
0300
0000
1100
0000
1000
0000
0001
0000
0100
0010
,
0200
0301
2001
3100
,
0110
0010
0002
0003
1001
0000
0000
0000
,
1200
0310
0210
1300
,
1001
0000
0001
0000
0200
0000
0300
0000
0110
0000
0010
1000
0001
1000
0010
0000
,
0200
0000
0301
0000
0200
0000
0301
0000
1000
0100
0010
0000
0100
0000
0000
0000
,
2000
0000
3001
0000
2000
0000
3001
0000
0100
0010
2000
0000
3001
0000
0000
0000
,
0200
0000
0310
0000
0200
0000
0310
0000
1000
0010
0200
0000
0301
0000
0000
0000
,
2000
0000
3100
0000
2000
0000
3100
0000
0010
0100
2000
0000
3001
0000
0000
0000
,
0020
0000
0130
0000
0020
0000
0130
0000
1000
0001
2000
0000
3010
0000
0000
0000
,
0200
0000
0301
0000
0200
0000
0301
0000
1000
0010
2000
0000
3001
0000
0000
0000
,
2000
0000
3010
0000
2000
0000
3010
0000
0100
0010
0200
0000
0301
0000
0000
0000
,
2000
0000
3100
0000
2000
0000
3100
0000
0010
0001
0020
0000
0130
0000
0000
0000
,
2200
0000
0001
3300
0022
0000
1000
0033
,
2001
3100
0010
0001
2002
0000
0010
3003
,
0202
0000
1000
0303
2020
0000
0001
3030
,
1002
0013
0100
1000
2002
0000
0010
3003
,
2000
3100
0110
0000
0020
0130
2200
0000
,
0010
0010
0001
0001
0010
0010
0010
3300
,
0200
0310
0011
0000
0002
0103
0202
0000
,
0010
0010
1000
1000
0010
0010
0010
0303
,
0000
0001
1000
0100
1000
0001
0010
0100
,
0000
0010
0001
1000
0001
1000
0010
0100
,
0000
0010
1000
0010
1000
0001
0010
0100
,
0000
1000
0001
0010
0001
1000
0010
0100
,
0002
0000
1003
0100
0010
0000
0100
0010
0002
0000
1003
0010
0200
0000
0301
0000
,
1000
0001
0020
0000
0031
0010
0100
0000
2100
0000
3002
0000
0000
0000
0003
0000
,
1000
0010
0100
0010
2000
0000
3002
0000
0013
0100
1000
0100
0020
0000
0032
0000
,
1003
0100
0020
0000
0230
0000
1300
0001
2000
0000
3010
0100
0000
0000
0000
0000
,
0002
0000
0000
2003
,
3020
0000
0000
0000
0230
0000
0300
0202
,
0000
0000
0000
0300
,
1003
0000
0100
0000
0010
0000
0100
1000
0001
0000
0100
0000
0010
0000
1000
0001
,
0200
0000
0000
0320
,
2030
0000
0000
0000
3002
0000
0000
0003
,
0021
0000
0000
0000
0130
1000
0001
0202
,
0003
0000
0310
0000
1000
0000
0001
0010
0100
0000
0010
0000
0001
0000
1000
0010
,
0200
0000
0000
0302
,
2003
0000
0000
0000
3020
0000
0030
0220
,
0000
0000
0000
0030
,
0302
0000
0000
0000
1003
0000
0100
0010
0001
0000
1000
0000
0010
0000
0100
0001
,
2000
0000
0000
3200
,
0320
0000
0032
0000
,
0013
0100
0000
0100
2000
0000
3000
0000
0001
0100
0000
0100
0020
0000
0030
0000
,
1000
0000
0001
0100
0020
0000
1030
0000
0002
0000
0013
0100
1000
0100
0010
0001
,
2000
3010
0210
0301
,
1001
1000
0200
0300
0110
0000
0000
0000
,
0012
1003
2100
3001
,
0101
0100
0020
0030
1010
0000
0000
0000
,
1002
0103
0120
1030
,
1001
0001
0020
0030
0110
0000
0000
0000
,
2100
3010
0102
0013
,
0110
0000
0100
0000
2000
0000
3000
0000
1001
0000
0001
0100
0010
0000
1000
0001
,
0020
0000
0130
0000
0020
0000
0031
0000
1000
0010
0100
0000
0101
0000
0000
0000
,
0002
0000
1003
0000
0200
0000
1300
0000
0001
0100
0010
0000
1010
0000
0000
0000
,
2000
0000
3001
0000
0020
0000
0031
0000
1000
0100
0010
0000
0011
0000
0000
0000
,
0002
0000
1003
0000
0020
0000
0130
0000
0001
1000
0100
0000
0110
0000
0000
0000
,
0020
0000
0031
0000
2000
0000
3010
0000
0100
0001
1000
0000
1010
0000
0000
0000
,
0020
0000
0130
0000
0002
0000
0103
0000
0010
1000
0001
0000
0011
0000
0000
0000
,
0020
0000
0130
0000
2000
0000
3001
0000
0100
0001
1000
0000
1100
0000
0000
0000
,
0200
0000
0310
0000
0002
0000
1003
0000
0010
1000
0001
0000
1000
0010
0100
0020
,
2000
0000
0001
3030
0202
0000
1000
0303
,
1002
0013
0100
1000
2002
0000
0010
3003
,
0022
0000
1000
0033
2200
0000
0001
3300
,
2001
3010
0100
0001
2002
0000
0010
3003
,
1020
0130
0101
0000
1002
0103
0202
0000
,
0010
0010
1000
1000
0010
0010
0010
0303
,
1002
0103
0010
0000
2010
3100
2200
0000
,
0010
0010
0001
0001
0010
0010
0010
3300
,
2000
0000
3001
0000
0200
0000
0310
0000
1000
0001
0010
0000
0110
0000
0000
0000
,
0200
0000
1300
0000
0002
0000
0103
0000
0010
1000
0001
0000
0011
0000
0000
0000
,
0020
0000
0130
0000
2000
0000
3001
0000
0010
0001
1000
0000
1010
0000
0000
0000
,
0020
0000
0130
0000
0002
0000
1003
0000
0100
0010
0001
0010
0100
1000
0001
0100
,
0002
0000
1003
0000
0200
0000
0310
0000
0100
1000
0001
0000
0101
0000
0000
0000
,
0200
0000
0310
0000
1000
0001
0010
0000
0001
1000
0010
0100
0010
1000
0001
1000
,
0200
0000
0310
0000
0002
0000
1003
0000
0010
0100
0001
0000
1001
0000
0000
0000
,
1000
0100
0010
0001
0010
0100
1000
0000
0001
0100
0010
0000
1000
0000
2200
0000
,
0000
0000
0000
3300
;

//---------------dance-single - Hard----------------
#NOTES:
     dance-single:
     Ace Of Hearts (2013):
     Hard:
     9:
     0.762,0.000,0.144,1.000,0.187:
0000
0000
0000
0000
,
0000
0000
0000
0000
,
0000
0000
0000
0000
,
0000
0000
0000
0000
,
0000
0000
0000
0000
,
2000
3010
2000
3010
,
0100
0001
0200
0000
0310
0000
0000
0000
,
2000
3001
2000
3001
,
0010
0000
0100
0000
0020
0000
0000
0000
0031
0000
1000
0000
0010
0000
0100
0010
,
0200
0301
0200
0301
,
1000
0100
2000
0000
3001
0000
0000
0000
,
0200
0310
0200
0310
,
1000
0000
0010
0000
2000
0000
0000
0000
3004
0400
0000
0000
0000
0000
0303
0000
,
0001
0000
1000
0100
2000
0000
3001
0000
0100
0010
0100
0000
0001
0000
1000
0100
,
2000
0000
3001
0000
0100
0000
0010
0000
2000
0000
3001
0010
0000
0000
0000
0000
,
0100
0010
0200
0000
0310
0001
0020
0000
0130
0000
1000
0000
0001
0000
0200
0000
,
0300
0010
0100
0000
0100
0001
0000
1000
0100
2000
0000
3001
0100
0000
0000
0000
,
0001
0000
0010
0200
0000
2300
0000
3001
0000
2000
0000
3100
0020
0000
0032
0000
,
1003
0010
1000
0000
0200
0000
0301
0000
1000
0000
0010
0100
0000
0000
0000
0000
,
0001
0010
0001
0000
1000
0100
1000
0000
0002
0000
0013
0000
0100
0000
1000
0000
,
0002
0000
0103
0000
0010
0000
1000
0000
0010
1000
0000
1000
0002
0000
0003
0000
,
2000
0000
0000
3002
,
0023
0000
0000
0000
0230
0000
0300
2200
,
0000
0000
0000
3300
,
0100
0010
0002
0000
2003
0000
3010
0000
,
0200
0000
0000
0302
,
2003
0000
3200
0000
,
0320
0000
0000
0000
0032
0000
0003
2002
,
0000
0000
0000
3003
,
2000
0000
0000
3020
,
0230
0000
0000
0000
0302
0000
0003
0202
,
0000
0000
0000
0303
,
0200
0310
2000
3010
,
0200
0000
0000
0302
,
2003
0000
0000
0000
3200
0000
0000
0310
,
0001
0001
1000
0010
0100
0100
0001
1000
,
0001
0000
0001
0000
0010
0000
0100
0000
1000
0000
0004
0040
0000
0000
0033
0000
,
0020
0130
0020
0130
,
1000
0100
2000
0000
3001
0000
0000
0000
,
0200
0301
0200
0301
,
1000
0010
2000
0000
3001
0000
0000
0000
,
0020
0130
0020
0130
,
1000
0001
2000
0000
3010
0000
0000
0000
,
0200
0301
0200
0301
,
1000
0010
2000
0000
3001
0000
0000
0000
,
0020
0000
0130
0000
0020
0000
0130
0000
1000
0100
2000
0000
3001
0000
0000
0000
,
2000
0000
3010
0000
2000
0000
3010
0000
0100
0001
0200
0000
0310
0000
0000
0000
,
0200
0000
0301
0000
0200
0000
0301
0000
1000
0010
2000
0000
3001
0000
0000
0000
,
0020
0000
0130
0000
0020
0000
0130
0000
1000
0100
2000
0000
3001
0000
0000
0000
,
0200
0000
0310
0000
0200
0000
0310
0000
1000
0010
2000
0000
3001
0000
0000
0000
,
0200
0000
0310
0000
0200
0000
0310
0000
1000
0001
2000
0000
3010
0000
0000
0000
,
0200
0000
0301
0000
0200
0000
0301
0000
1000
0001
2000
0000
3100
0000
0000
0000
,
0020
0000
0130
0000
0020
0000
0130
0000
1000
0100
2000
0000
3001
0000
0000
0000
,
2000
3000
1010
0000
2000
3000
1010
0000
,
0010
0100
0010
0100
0002
0003
1001
0000
,
2000
3000
1100
0000
2000
3000
1100
0000
,
0100
0010
0100
0010
0002
0003
1001
0000
,
0002
0103
0001
0000
0002
0103
0001
0000
,
1000
0010
1000
0010
0200
0301
1001
0000
,
2000
3100
1000
0000
2000
3100
1000
0000
,
0001
0100
0001
0100
0020
1030
1001
0000
,
0000
0001
0010
0100
1000
0100
0010
0001
,
0000
1000
0010
0100
0001
0100
0010
1000
,
0000
0001
0010
0100
1000
0100
0010
0001
,
0000
1000
0010
0100
0001
0100
0010
1000
,
0002
0000
0013
0100
0010
0000
0001
1000
0001
0000
1000
0010
1000
0000
0002
0000
,
1003
0100
1000
0000
0001
0010
0001
0000
2000
0000
3020
0000
0000
0000
0030
0000
,
0100
0010
0200
0000
0301
0000
1000
0000
0001
0100
0002
0000
2003
0000
3200
0000
,
0310
0001
0020
0000
0230
0000
0000
1300
0001
0000
0001
0100
0000
0000
0000
0000
,
0020
0000
0000
2030
,
3002
0000
0000
0000
0023
0000
0030
0220
,
0000
0000
0000
0330
,
0100
1000
0200
0000
0320
0000
0031
0000
,
2000
0000
0000
3020
,
0230
0000
0000
0000
0302
0000
0000
0003
,
2002
0000
0003
0000
3200
0000
0300
0022
,
0000
0000
0000
0033
,
0002
0000
0000
2003
,
3020
0000
0000
0000
0230
0000
0300
0202
,
0000
0000
0000
0303
,
0002
1003
0200
1300
,
0002
0000
0000
0203
,
0320
0000
0000
0000
2030
0000
0000
3001
,
0010
0010
0100
1000
0001
0001
1000
0010
,
0100
0000
0100
0000
0001
0000
1000
0000
0100
0000
0040
0400
0000
0000
0330
0000
,
0200
1300
0200
0310
,
0001
1000
0002
0000
0103
0000
0000
0000
,
0020
0130
0020
1030
,
0001
0010
0002
0000
1003
0000
0000
0000
,
0002
0013
0002
1003
,
0010
0100
0020
0000
1030
0000
0000
0000
,
0002
0013
0002
1003
,
0100
0010
0200
0000
1300
0000
0000
0000
,
0002
0000
0103
0000
0002
0000
1003
0000
0010
0100
0020
0000
1030
0000
0000
0000
,
0002
0000
0013
0000
0002
0000
1003
0000
0100
1000
0200
0000
0310
0000
0000
0000
,
0002
0000
1003
0000
0002
0000
0013
0000
0100
0010
0200
0000
1300
0000
0000
0000
,
0002
0000
0103
0000
0002
0000
1003
0000
0010
0100
0020
0000
1030
0000
0000
0000
,
0020
0000
0130
0000
0020
0000
1030
0000
0001
0010
0002
0000
1003
0000
0000
0000
,
0200
0000
0310
0000
0200
0000
1300
0000
0001
0100
0002
0000
1003
0000
0000
0000
,
0002
0000
0103
0000
0002
0000
1003
0000
0100
0010
0200
0000
1300
0000
0000
0000
,
0002
0000
0103
0000
0002
0000
1003
0000
0100
0010
0200
0000
1300
0000
0000
0000
,
0002
0003
0011
0000
0002
0003
0011
0000
,
0010
0100
0010
0100
2000
3000
1001
0000
,
0002
0003
0011
0000
0002
0003
0011
0000
,
0010
0100
0010
0100
2000
3000
1001
0000
,
0002
0103
0001
0000
0002
0103
0001
0000
,
1000
0100
1000
0100
2000
3001
0101
0000
,
0002
0103
0001
0000
0002
0103
0001
0000
,
1000
0100
1000
0100
2000
3001
0101
0000
,
0200
0000
0310
0000
2000
0000
3001
0000
0010
0100
2000
0000
3001
0000
0000
0000
,
2000
0000
3010
0000
0200
0000
0310
0000
1000
0010
0200
0000
0301
0000
0000
0000
,
2000
0000
3001
0000
0020
0000
0130
0000
1000
0100
0020
0000
0031
0000
0000
0000
,
2000
0000
3001
0000
0200
0000
0310
0000
1000
0010
0200
0000
0301
0000
0000
0000
,
2000
0000
3100
0000
0020
0000
0031
0000
1000
0001
0200
0000
0310
0000
0000
0000
,
2000
0000
3001
0000
0200
0000
0310
0000
1000
0001
0020
0000
0130
0000
0000
0000
,
2000
0000
3100
0000
0020
0000
0130
0000
1000
0001
0200
0000
0310
0000
0000
0000
,
2000
0000
3010
0000
0200
0000
0301
0000
1000
0001
1000
0000
0002
0000
0200
0000
,
0000
0000
0000
0303
;

//---------------dance-single - Medium----------------
#NOTES:
     dance-single:
     Ace Of Hearts (2013):
     Medium:
     7:
     0.521,0.000,0.000,0.600,0.000:
0000
0000
0000
0000
,
0000
0000
0000
0000
,
0000
0000
0000
0000
,
0000
0000
0000
0000
,
0000
0000
0000
0000
,
0002
0103
0002
0103
,
0001
1000
0002
0000
0013
0000
0000
0000
,
0200
1300
0200
1300
,
0001
0010
0002
0000
1003
0000
0000
0000
,
0020
1030
0020
1030
,
0001
1000
0002
0000
0013
0000
0000
0000
,
0200
1300
0200
1300
,
0001
1000
0002
0000
0103
0000
0000
0000
,
0000
0001
1000
0001
2000
0000
3010
0000
,
0100
0010
0100
0010
2000
0000
3000
0000
,
0001
0010
0001
0000
1000
0100
1000
0000
,
0000
0001
0100
0010
0100
0001
0000
0000
,
1000
0010
1000
0000
0001
0100
0001
0000
,
1000
0001
1000
0000
0010
0100
0010
0000
,
1000
0001
1000
0000
0001
0010
0001
0000
,
1000
0100
0010
0100
1000
0000
0000
0000
,
0002
0000
0000
2003
,
3020
0000
0000
0000
0230
0000
0000
0302
,
0000
0000
0000
0000
,
0003
0000
0000
0000
,
2000
0000
0000
3001
,
0200
0000
0320
0000
,
2030
0000
0000
0000
3002
0000
0000
0020
,
0000
0000
0000
0033
,
0002
0000
0000
2003
,
3200
0000
0000
0000
0320
0000
0000
0230
,
0000
0000
0000
0000
,
0300
0000
0000
0000
,
2000
0000
0000
3002
,
0203
0000
0000
0000
0320
0000
0000
2000
,
0000
0000
0000
0000
,
0000
0000
3030
0000
,
0020
0130
0020
0130
,
0001
0100
0002
0000
1003
0000
0000
0000
,
0002
0013
0002
0013
,
0100
1000
0200
0000
0310
0000
0000
0000
,
0002
1003
0002
1003
,
0100
0010
0200
0000
1300
0000
0000
0000
,
0002
0103
0002
0103
,
0010
0100
0020
0000
1030
0000
0000
0000
,
0001
0010
0001
0010
0001
1000
0001
0000
,
1000
0010
1000
0010
1000
0001
1000
0000
,
0010
0100
0010
0100
0001
1000
0001
0000
,
0010
0001
0010
0001
1000
0010
1000
0000
,
0001
0100
0001
0100
0010
1000
0010
0000
,
0100
0010
0100
0010
1000
0001
1000
0000
,
0001
0010
0001
0010
0100
1000
0100
0000
,
0010
0100
0010
0100
1000
0001
1000
0000
,
0002
0013
0002
0013
,
0001
0010
0100
0010
0002
0000
1003
0000
,
0020
1030
0020
1030
,
0001
0100
0010
0100
0002
0000
1003
0000
,
0001
0010
0001
0000
0010
0001
0010
0000
,
0001
0010
0100
1000
0100
0010
0001
0000
,
1000
0010
1000
0000
0010
1000
0010
0000
,
1000
0010
0100
0001
0100
0010
1000
0000
,
0000
0001
0010
0000
0001
0000
1000
0100
,
0000
0010
0100
0000
1000
0000
0001
0100
,
0000
0010
0100
0000
0001
0000
1000
0100
,
0000
0010
0100
0000
1000
0000
0001
0100
,
0010
0100
0010
0000
1000
0000
1000
0000
,
0001
0010
0100
0010
0002
0000
0003
0000
,
1000
0010
1000
0000
0001
0010
0001
0000
,
1000
0001
1000
0001
0010
0100
0010
0000
,
0200
0000
0000
0320
,
0032
0000
0000
0000
2003
0000
0000
0200
,
0000
0000
0000
0000
,
3300
0000
0000
0000
,
2000
0000
0000
3002
,
0203
0000
0320
0000
,
2030
0000
0000
0000
3002
0000
0000
0020
,
0000
0000
0000
0033
,
0002
0000
0000
2003
,
3020
0000
0000
0000
2030
0000
0000
0002
,
0000
0000
0000
0000
,
3003
0000
0000
0000
,
2000
0000
0000
3002
,
0203
0000
0000
0000
0320
0000
0000
0200
,
0000
0000
0000
0000
,
0000
0000
0330
0000
,
0020
1030
0020
1030
,
0001
1000
0002
0000
0013
0000
0000
0000
,
0200
1300
0200
1300
,
0001
1000
0002
0000
0103
0000
0000
0000
,
0020
0130
0020
0130
,
0001
0100
0002
0000
1003
0000
0000
0000
,
0002
0013
0002
0013
,
0100
1000
0200
0000
0310
0000
0000
0000
,
0001
0010
0100
1000
0100
0010
0001
0000
,
1000
0010
0100
0001
0100
0010
1000
0000
,
0001
0100
0010
1000
0010
0100
0001
0000
,
1000
0100
0010
0001
0010
0100
1000
0000
,
0001
1000
0001
1000
0100
0010
0100
0000
,
1000
0100
1000
0100
0010
0001
0010
0000
,
0001
1000
0001
1000
0010
0100
0010
0000
,
0100
0001
0100
0001
1000
0010
1000
0000
,
0002
0103
0002
0103
,
0010
0100
0010
0100
0002
0000
1003
0000
,
0002
0013
0002
0013
,
0100
1000
0100
1000
0002
0000
0103
0000
,
0010
0100
0010
0000
0100
0010
0100
0000
,
0001
0100
0010
1000
0001
0010
0100
0000
,
1000
0100
1000
0000
0100
1000
0100
0000
,
0010
0001
0010
0100
1000
0001
1000
0000
,
0001
0100
0001
0100
0010
1000
0010
0000
,
1000
0001
1000
0001
0010
0100
0010
0000
,
0001
0010
0001
0010
0100
1000
0100
0000
,
1000
0001
1000
0001
0100
0010
0100
0000
,
0001
0100
0010
1000
0010
0100
0001
0000
,
1000
0100
0010
0001
0010
0100
1000
0000
,
0001
1000
0100
1000
0001
0100
0001
0000
,
1000
0010
1000
0001
0010
0001
2000
0002
,
0000
0000
0000
3003
;

//---------------dance-single - Easy----------------
#NOTES:
     dance-single:
     Ace Of Hearts (2013):
     Easy:
     5:
     0.261,0.000,0.006,0.425,0.000: // measure 1
0000
0000
0000
0000
,  // measure 2
0000
0000
0000
0000
,  // measure 3
0000
0000
0000
0000
,  // measure 4
0000
0000
0000
0000
,  // measure 5
0000
0000
0000
0000
,  // measure 6
1000
0000
1000
0000
,  // measure 7
0001
0001
0001
0000
,  // measure 8
0010
0000
0010
0000
,  // measure 9
0100
0100
0100
0000
,  // measure 10
0010
0000
0010
0000
,  // measure 11
0001
0001
0001
0000
,  // measure 12
1000
0000
1000
0000
,  // measure 13
0010
0010
0010
0000
,  // measure 14
1000
1000
1000
0000
,  // measure 15
2000
0000
3000
0000
,  // measure 16
0001
0001
0001
0000
,  // measure 17
0002
0000
0003
0000
,  // measure 18
0010
0010
0010
0000
,  // measure 19
0020
0000
0030
0000
,  // measure 20
0100
0100
0100
0000
,  // measure 21
0200
0000
0300
0000
,  // measure 22
2000
0000
3000
0000
,  // measure 23
0001
0000
0001
0000
,  // measure 24
0002
0000
0000
0000
,  // measure 25
0003
0000
0000
0000
,  // measure 26
2000
0000
3000
0000
,  // measure 27
0200
0000
0300
0000
,  // measure 28
0010
0000
0010
0000
,  // measure 29
0020
0000
0030
0000
,  // measure 30
0200
0000
0300
0000
,  // measure 31
1000
0000
1000
0000
,  // measure 32
2000
0000
0000
0000
,  // measure 33
3000
0000
0000
0000
,  // measure 34
0002
0000
0003
0000
,  // measure 35
1000
0000
1000
0000
,  // measure 36
2000
0000
0000
0000
,  // measure 37
0000
0000
3000
0000
,  // measure 38
0010
0000
0010
0000
,  // measure 39
0100
0100
0100
0000
,  // measure 40
0001
0000
0001
0000
,  // measure 41
1000
1000
1000
0000
,  // measure 42
0100
0000
0100
0000
,  // measure 43
0010
0010
0010
0000
,  // measure 44
0100
0000
0100
0000
,  // measure 45
1000
1000
1000
0000
,  // measure 46
0001
0001
0002
0003
,  // measure 47
0100
0100
0200
0300
,  // measure 48
0010
0010
0020
0030
,  // measure 49
1000
1000
2000
3000
,  // measure 50
0001
0001
0002
0003
,  // measure 51
0010
0010
0020
0030
,  // measure 52
0100
0100
0200
0300
,  // measure 53
1000
1000
2000
3000
,  // measure 54
0002
0003
0002
0003
,  // measure 55
0004
0000
0003
0000
,  // measure 56
2000
3000
2000
3000
,  // measure 57
4000
0000
3000
0000
,  // measure 58
0020
0030
0020
0030
,  // measure 59
0040
0000
0030
0000
,  // measure 60
0200
0300
0200
0300
,  // measure 61
0400
0000
0300
0000
,  // measure 62
0000
0002
0000
0003
,  // measure 63
0000
0002
0000
0003
,  // measure 64
0000
2000
0000
3000
,  // measure 65
0000
2000
0000
3000
,  // measure 66
0010
0010
0010
0000
,  // measure 67
0100
0100
0100
0000
,  // measure 68
0001
0001
0001
0000
,  // measure 69
1000
1000
1000
0000
,  // measure 70
0002
0000
0003
0000
,  // measure 71
0010
0000
0010
0000
,  // measure 72
0020
0000
0000
0000
,  // measure 73
0030
0000
0000
0000
,  // measure 74
0200
0000
0300
0000
,  // measure 75
2000
0000
3000
0000
,  // measure 76
0001
0000
0001
0000
,  // measure 77
0002
0000
0003
0000
,  // measure 78
2000
0000
3000
0000
,  // measure 79
0100
0000
0100
0000
,  // measure 80
0200
0000
0000
0000
,  // measure 81
0300
0000
0000
0000
,  // measure 82
0020
0000
0030
0000
,  // measure 83
0001
0000
0001
0000
,  // measure 84
0002
0000
0000
0000
,  // measure 85
0000
0000
0003
0000
,  // measure 86
1000
0000
1000
0000
,  // measure 87
0100
0100
0100
0000
,  // measure 88
0010
0000
0010
0000
,  // measure 89
0001
0001
0001
0000
,  // measure 90
1000
0000
1000
0000
,  // measure 91
0010
0010
0010
0000
,  // measure 92
0100
0000
0100
0000
,  // measure 93
0001
0001
0001
0000
,  // measure 94
1000
1000
2000
3000
,  // measure 95
0010
0010
0020
0030
,  // measure 96
0100
0100
0200
0300
,  // measure 97
0001
0001
0002
0003
,  // measure 98
1000
1000
2000
3000
,  // measure 99
0001
0001
0002
0003
,  // measure 100
0010
0010
0020
0030
,  // measure 101
0100
0100
0200
0300
,  // measure 102
2000
3000
2000
3000
,  // measure 103
4000
0000
3000
0000
,  // measure 104
0002
0003
0002
0003
,  // measure 105
0004
0000
0003
0000
,  // measure 106
0200
0300
0200
0300
,  // measure 107
0400
0000
0300
0000
,  // measure 108
0020
0030
0020
0030
,  // measure 109
0040
0000
0030
0000
,  // measure 110
0100
0100
0200
0300
,  // measure 111
0001
0001
0002
0003
,  // measure 112
1000
1000
2000
3000
,  // measure 113
0100
0100
0200
0300
,  // measure 114
0010
0010
0020
0030
,  // measure 115
0001
0001
0002
0003
,  // measure 116
1000
1000
2000
3000
,  // measure 117
0001
0001
0002
0003
,  // measure 118
2002
0000
0000
3003
;

//---------------dance-single - Novice----------------
#NOTES:
     dance-single:
     Ace Of Hearts (2013):
     Beginner:
     3:
     0.153,0.000,0.006,0.250,0.000: // measure 1
0000
0000
0000
0000
,  // measure 2
0000
0000
0000
0000
,  // measure 3
0000
0000
0000
0000
,  // measure 4
0000
0000
0000
0000
,  // measure 5
0000
0000
0000
0000
,  // measure 6
0001
0000
0001
0000
,  // measure 7
0002
0000
0003
0000
,  // measure 8
1000
0000
1000
0000
,  // measure 9
2000
0000
3000
0000
,  // measure 10
0100
0000
0100
0000
,  // measure 11
0200
0000
0300
0000
,  // measure 12
0010
0000
0010
0000
,  // measure 13
0020
0000
0030
0000
,  // measure 14
0001
0000
0001
0000
,  // measure 15
0002
0000
0003
0000
,  // measure 16
1000
0000
1000
0000
,  // measure 17
2000
0000
3000
0000
,  // measure 18
0100
0000
0100
0000
,  // measure 19
0200
0000
0300
0000
,  // measure 20
0010
0000
0010
0000
,  // measure 21
0020
0000
0030
0000
,  // measure 22
0001
0000
0000
0000
,  // measure 23
0001
0000
0000
0000
,  // measure 24
0002
0000
0000
0000
,  // measure 25
0003
0000
0000
0000
,  // measure 26
1000
0000
0000
0000
,  // measure 27
1000
0000
0000
0000
,  // measure 28
2000
0000
0000
0000
,  // measure 29
3000
0000
0000
0000
,  // measure 30
0100
0000
0000
0000
,  // measure 31
0100
0000
0000
0000
,  // measure 32
0200
0000
0000
0000
,  // measure 33
0300
0000
0000
0000
,  // measure 34
0010
0000
0000
0000
,  // measure 35
0010
0000
0000
0000
,  // measure 36
0020
0000
0000
0000
,  // measure 37
0000
0000
0030
0000
,  // measure 38
0001
0000
0001
0000
,  // measure 39
0002
0000
0003
0000
,  // measure 40
1000
0000
1000
0000
,  // measure 41
2000
0000
3000
0000
,  // measure 42
0010
0000
0010
0000
,  // measure 43
0020
0000
0030
0000
,  // measure 44
0100
0000
0100
0000
,  // measure 45
0200
0000
0300
0000
,  // measure 46
0004
0000
0003
0000
,  // measure 47
0004
0000
0003
0000
,  // measure 48
4000
0000
3000
0000
,  // measure 49
4000
0000
3000
0000
,  // measure 50
0040
0000
0030
0000
,  // measure 51
0040
0000
0030
0000
,  // measure 52
0400
0000
0300
0000
,  // measure 53
0400
0000
0300
0000
,  // measure 54
0001
0000
0001
0000
,  // measure 55
0002
0000
0003
0000
,  // measure 56
1000
0000
1000
0000
,  // measure 57
2000
0000
3000
0000
,  // measure 58
0010
0000
0010
0000
,  // measure 59
0020
0000
0030
0000
,  // measure 60
0100
0000
0100
0000
,  // measure 61
0200
0000
0300
0000
,  // measure 62
0002
0000
0003
0000
,  // measure 63
0002
0000
0003
0000
,  // measure 64
2000
0000
3000
0000
,  // measure 65
2000
0000
3000
0000
,  // measure 66
0010
0000
0010
0000
,  // measure 67
0020
0000
0030
0000
,  // measure 68
1000
0000
1000
0000
,  // measure 69
2000
0000
3000
0000
,  // measure 70
0001
0000
0000
0000
,  // measure 71
0001
0000
0000
0000
,  // measure 72
0002
0000
0000
0000
,  // measure 73
0003
0000
0000
0000
,  // measure 74
0010
0000
0000
0000
,  // measure 75
0010
0000
0000
0000
,  // measure 76
0020
0000
0000
0000
,  // measure 77
0030
0000
0000
0000
,  // measure 78
0100
0000
0000
0000
,  // measure 79
0100
0000
0000
0000
,  // measure 80
0200
0000
0000
0000
,  // measure 81
0300
0000
0000
0000
,  // measure 82
1000
0000
0000
0000
,  // measure 83
1000
0000
0000
0000
,  // measure 84
2000
0000
0000
0000
,  // measure 85
0000
0000
3000
0000
,  // measure 86
0001
0000
0001
0000
,  // measure 87
0002
0000
0003
0000
,  // measure 88
0100
0000
0100
0000
,  // measure 89
0200
0000
0300
0000
,  // measure 90
0010
0000
0010
0000
,  // measure 91
0020
0000
0030
0000
,  // measure 92
1000
0000
1000
0000
,  // measure 93
2000
0000
3000
0000
,  // measure 94
0040
0000
0030
0000
,  // measure 95
0040
0000
0030
0000
,  // measure 96
0400
0000
0300
0000
,  // measure 97
0400
0000
0300
0000
,  // measure 98
0004
0000
0003
0000
,  // measure 99
0004
0000
0003
0000
,  // measure 100
4000
0000
3000
0000
,  // measure 101
4000
0000
3000
0000
,  // measure 102
0010
0000
0010
0000
,  // measure 103
0020
0000
0030
0000
,  // measure 104
0100
0000
0100
0000
,  // measure 105
0200
0000
0300
0000
,  // measure 106
0001
0000
0001
0000
,  // measure 107
0002
0000
0003
0000
,  // measure 108
1000
0000
1000
0000
,  // measure 109
2000
0000
3000
0000
,  // measure 110
0400
0000
0300
0000
,  // measure 111
0400
0000
0300
0000
,  // measure 112
0040
0000
0030
0000
,  // measure 113
0040
0000
0030
0000
,  // measure 114
0004
0000
0003
0000
,  // measure 115
0004
0000
0003
0000
,  // measure 116
4000
0000
3000
0000
,  // measure 117
4000
0000
3000
0000
,  // measure 118
2002
0000
0000
3003
;
