#TITLE:This Will Be The Day;
#SUBTITLE:;
#ARTIST:Jeff Williams feat. Casey Lee Williams;
#TITLETRANSLIT:;
#SUBTITLETRANSLIT:;
#ARTISTTRANSLIT:;
#GENRE:Rock;
#CREDIT:Ace Of Hearts;
#BANNER:This Will Be The Banner.png;
#BACKGROUND:This Will Be The Background.png;
#LYRICSPATH:These Will Be The Lyrics.lrc;
#CDTITLE:Ace Of Hearts.png;
#MUSIC:This Will Be The Day.ogg;
#OFFSET:1.340;
#SAMPLESTART:39.000;
#SAMPLELENGTH:12.000;
#SELECTABLE:YES;
#BPMS:0.000=95.000,32.000=190.000,64.000=95.000,71.000=190.000;
#STOPS:;
#BGCHANGES:0.000=This Will Be The Background.jpg=1.000=0=0=1=StretchNormal====,
2.000=RWBY Opening.avi=1.000=1=0=1===CrossFade==,
99999=-nosongbg-=1.000=0=0=0 // don't automatically add -songbackground-
;
#KEYSOUNDS:;

//---------------dance-single - Ruby----------------
#NOTES:
     dance-single:
     Ace Of Hearts (2013):
     Hard:
     9:
     0.721,0.497,0.276,1.000,0.247: // measure 1
0000
0000
0000
0000
,  // measure 2
0M01
0010
0001
0M20
0000
0031
2000
0000
30M1
0100
0001
02M0
0000
0310
2000
0000
,  // measure 3
3M01
0010
0001
0M20
0000
0130
2000
0000
30M1
0100
0001
02M0
0000
0310
2000
0000
,  // measure 4
3M01
1000
0001
0M20
0000
0130
2000
0000
310M
0010
0100
002M
0000
0031
1000
0001
,  // measure 5
2000
0000
3001
0020
0000
0230
0000
1300
0002
0000
0203
0000
0320
0000
2030
0000
,  // measure 6
3000
0000
0001
0020
0000
0230
0000
0310
0002
0000
2003
0000
3040
0000
0000
0030
,  // measure 7
0000
0000
1000
0002
0000
0023
0000
0130
2000
0000
3002
0000
0203
0000
0320
0030
,  // measure 8
2010
0000
3001
0200
0000
0000
0301
2000
0000
3002
0000
0003
0022
0000
0000
0033
,  // measure 9
M220
0000
0000
0030
130M
0000
00M2
0000
0000
0000
0000
0000
0103
0000
0010
0000
,  // measure 10
200M
0000
0000
0000
31M0
0000
0000
M000
0020
0000
0000
0030
0M11
0000
0000
0000
,  // measure 11
0000
0000
0M01
20M0
0000
0000
3010
0100
,  // measure 12
M002
0000
1M03
0000
202M
0000
0000
3030
,  // measure 13
20M2
3000
0M13
0200
0000
2300
0000
3M01
,  // measure 14
02M0
230M
32M0
M302
,  // measure 15
1003
0200
0000
M320
0000
2M30
0000
302M
,  // measure 16
0000
M031
1000
0010
1000
0001
1000
0010
,  // measure 17
M120
0000
M000
0000
2M30
0000
0M00
3004
,  // measure 18
02M3
0000
00M0
0300
002M
0000
000M
0030
,  // measure 19
0000
2M10
0000
30M2
0000
M023
0000
2M30
,  // measure 20
0000
3000
102M
0000
0000
0000
0M32
0000
0000
0000
M203
0000
0000
0000
0300
0000
,  // measure 21
0000
012M
0000
2M30
0000
30M1
0010
010M
,  // measure 22
1000
01M0
0010
0M01
4000
0000
3001
0400
,  // measure 23
0000
0000
0301
0010
1000
0010
0002
0000
,  // measure 24
1003
0002
0000
1003
0000
2020
0000
0000
,  // measure 25
3030
0000
0010
0100
1000
0100
0002
0000
,  // measure 26
1003
0200
0000
0320
0000
0031
0000
1000
,  // measure 27
0000
2200
0000
3000
031M
0001
1M00
0010
,  // measure 28
010M
0001
2M01
0000
3010
020M
0000
0020
,  // measure 29
0000
0000
0000
0000
0000
0000
0300
0000
1030
0000
0001
0000
0100
M00M
0100
0000
,  // measure 30
1000
0001
0022
0003
0130
2000
0000
0002
,  // measure 31
0000
3000
0103
0010
0001
0010
2000
0000
,  // measure 32
3001
0010
0000
0100
0000
2100
0000
0020
,  // measure 33
0000
3000
0130
0001
0100
1000
0200
0000
,  // measure 34
0301
20M1
0000
020M
3000
00M2
0300
2M00
,  // measure 35
0003
002M
3000
0000
M002
0030
0000
2003
,  // measure 36
3000
2200
0000
0000
0000
0000
3300
0000
,  // measure 37
0000
0100
0020
0000
0031
2000
0000
0002
,  // measure 38
0000
0020
0000
0000
0000
0000
3033
0000
,  // measure 39
0000
0001
0200
0000
0310
2000
0000
3001
,  // measure 40
0000
0202
0000
0000
0000
0000
0303
0000
,  // measure 41
0000
0100
002M
1030
0M10
020M
0000
03M1
,  // measure 42
1000
0000
002M
0000
0000
0000
4M30
0004
0000
0000
00M0
0000
0000
0000
3M03
0000
,  // measure 43
0000
2022
0000
0030
0000
0000
3003
0000
;

//---------------dance-single - RWBY----------------
#NOTES:
     dance-single:
     Ace Of Hearts (2013):
     Challenge:
     11:
     0.997,0.622,0.814,1.000,0.393: // measure 1
0000
0000
0000
0000
,  // measure 2
1M00
0010
1000
002M
0130
0001
0200
0310
M100
0010
1000
0M02
0013
0001
0020
0130
,  // measure 3
100M
0100
1000
00M2
0103
0010
2000
3001
M010
0100
1000
00M2
0103
0010
0200
0301
,  // measure 4
1M00
0001
0100
M020
0130
0001
2000
3100
001M
0100
1000
0M02
0013
0100
0020
0031
,  // measure 5
2000
0000
3010
0200
0300
0102
0000
1003
1200
0000
0310
0000
0012
0000
0200
0000
,  // measure 6
0303
0000
0100
0020
0030
2010
0000
3001
0200
0000
0002
0000
0010
0000
0000
0303
,  // measure 7
0000
0000
0001
2001
0000
3020
0000
0130
0102
0000
2003
0000
3200
0000
0320
0030
,  // measure 8
0012
0000
1003
0020
0000
0000
0130
0102
0000
2003
0000
3000
2020
0000
0000
3030
,  // measure 9
0220
0030
03M1
2M01
0000
0000
31M0
0M01
,  // measure 10
02M0
130M
20M2
0M10
,  // measure 11
30M3
0000
M001
020M
0000
0000
M310
100M
,  // measure 12
02M0
0000
M310
0000
0M22
0000
M000
0033
,  // measure 13
022M
0000
0030
0000
23M0
0000
0M02
0000
0000
3000
M200
0000
0000
0003
20M0
0300
,  // measure 14
0M02
0000
0000
3000
M020
0000
0000
0003
200M
0000
0000
0030
00M2
0000
3000
0000
,  // measure 15
1M03
002M
0030
M220
0030
03M2
0003
2M02
,  // measure 16
0003
3100
0010
1000
0010
0001
1000
0010
,  // measure 17
M400
0000
0000
0000
00M0
0000
0000
0000
M000
0000
0000
0000
00M0
0000
0000
0000
M304
0000
0000
0000
00M0
0000
0000
0000
0M00
0000
0000
0000
10M3
0100
0010
0100
,  // measure 18
400M
00M0
0M00
00M0
3M04
00M0
0M00
0000
,  // measure 19
1003
0000
102M
0000
0000
0000
M230
0000
0000
0300
01M2
0000
0000
0000
0M23
0000
,  // measure 20
0000
0030
021M
0000
0000
0000
13M0
0000
0M01
0000
M201
0000
0310
0000
1000
0000
,  // measure 21
0001
M021
0130
20M0
3001
M200
0310
200M
,  // measure 22
3001
0000
0M20
0000
0130
0000
20M0
0000
3001
0100
0010
0100
0002
0000
1003
0100
,  // measure 23
0010
0001
0010
0100
2000
0000
3001
0000
0100
0000
0010
0000
2010
0000
3001
0000
,  // measure 24
0010
0210
1300
0001
1000
2020
3000
0130
,  // measure 25
0001
1000
1002
0013
0100
1000
1002
0103
,  // measure 26
0010
2010
3001
0010
0001
2001
3010
0100
,  // measure 27
0001
0202
0300
1003
010M
0M10
100M
0M10
,  // measure 28
M001
1M00
102M
M130
00M1
2M00
0000
310M
,  // measure 29
0010
0000
0001
0000
2001
0000
0000
0000
3010
M00M
0010
0000
0001
M0M0
0001
0000
,  // measure 30
0100
M00M
0100
0000
0120
0000
1030
0000
M100
0000
021M
0000
0000
0000
13M0
0000
,  // measure 31
0001
0010
0100
0000
2100
0000
3001
0000
0100
0000
0001
0000
0021
0000
0130
0000
,  // measure 32
1000
1002
0000
1100
0000
1010
0000
1100
,  // measure 33
0000
0000
1003
0100
0010
0001
2001
3010
,  // measure 34
0100
01M2
0000
2M03
0000
30M2
0003
0M22
,  // measure 35
0033
0000
M222
0000
0000
0000
0333
0000
2222
0003
0030
030M
0000
0000
3001
0000
,  // measure 36
0000
0202
0003
0310
1000
0001
0010
0100
,  // measure 37
1000
0001
0201
0310
1000
2010
0000
0011
,  // measure 38
0000
0202
0303
3001
0010
0100
1000
0001
,  // measure 39
0100
0010
2010
3001
0010
0210
0000
1300
,  // measure 40
0001
0202
0003
0310
1000
0001
0010
0100
,  // measure 41
1000
0001
M021
0130
100M
10M2
0103
M010
,  // measure 42
1000
0000
120M
0000
0310
0001
M010
0100
1000
0001
1M00
0010
0100
0001
10M0
0000
,  // measure 43
0010
2220
0000
0030
0000
0000
3300
0000
;

//---------------dance-single - Yang----------------
#NOTES:
     dance-single:
     Ace Of Hearts (2013):
     Medium:
     7:
     0.557,0.249,0.044,1.000,0.153:
0000
0000
0000
0000
,
1000
0000
0000
0000
00M0
0000
0000
0000
0000
2000
0000
0000
0000
0000
0000
0000
0000
0000
3001
0000
0000
0000
0000
0000
0010
0000
0000
0000
0M00
0000
0000
0000
0000
0020
0000
0000
0000
0000
0000
0000
0000
0000
0130
0000
0000
0000
0000
0000
,
1000
0000
0000
0000
000M
0000
0000
0000
0000
2000
0000
0000
0000
0000
0000
0000
0000
0000
3001
0000
0000
0000
0000
0000
0100
0000
0000
0000
00M0
0000
0000
0000
0000
0200
0000
0000
0000
0000
0000
0000
0000
0000
0310
0000
0000
0000
0000
0000
,
1000
0000
0000
0000
0M00
0000
0000
0000
0000
2000
0000
0000
0000
0000
0000
0000
0000
0000
3001
0000
0000
0000
0000
0000
0010
0000
0000
0000
M000
0000
0000
0000
0000
0020
0000
0000
0000
0000
0000
0000
0000
0000
0130
0000
0000
0000
0000
0000
,
1000
0000
0000
0020
0000
0230
0000
0000
0302
0000
2003
0000
3020
0000
0200
0000
,
0030
0000
0000
0302
0000
0023
0000
0000
0230
0000
2300
0000
0002
0000
0000
0000
,
3000
0000
0000
2003
0000
3020
0000
0000
0230
0000
0302
0000
2003
0000
3200
0000
,
0320
0000
0031
2000
0000
0000
3001
0020
0000
0230
0000
0000
2000
0000
0000
0000
,
3300
0000
1000
00M2
0000
0000
2M03
0000
,
302M
M230
03M2
1M03
,
0000
0000
0001
M200
0000
0000
031M
0000
,
1M00
00M2
M020
0000
,
0033
0000
0001
2M00
0000
302M
0000
1030
,
00M2
0M23
M230
230M
,
3001
02M0
0000
032M
0000
2M30
0000
30M2
,
0000
0M23
0000
M230
0000
230M
0000
0000
,
3002
0M00
0000
0000
0023
M000
0000
0000
,
0230
000M
0000
0000
2300
00M0
0000
0000
,
0000
3M02
0000
0013
0000
010M
0000
0010
,
0000
M001
0000
1000
0000
02M0
0000
0000
,
0300
0020
0000
0031
0000
1000
0000
0010
,
0000
1000
0000
0002
0000
0000
0013
0200
,
0000
0000
1300
0000
0001
1000
0002
0000
,
1003
0200
0000
0310
0000
0002
0000
0000
,
0003
0000
1000
0000
0010
0100
0020
0000
,
1030
0002
0000
0013
0000
0100
0000
1000
,
0000
0200
0000
0000
M310
0000
0M01
1000
,
00M1
0000
002M
0000
0130
2000
0000
3002
,
0000
0000
0003
0000
1M00
0010
100M
0000
,
00M1
0000
0M20
0000
0130
1000
0000
0002
,
0000
0000
1003
0100
1000
0000
0002
0000
,
1003
0020
0000
0130
0000
0002
0000
2003
,
0000
0000
3100
0010
0100
0000
2000
0000
,
3001
0200
0000
0320
0000
2030
0000
3002
,
0000
0023
0000
0000
0200
0030
0000
2300
,
0000
0002
0000
0000
0000
0000
3003
0000
,
0000
1000
0020
0000
0130
0002
0000
1003
,
0000
2200
0000
0000
0000
0000
3300
0000
,
0000
0100
0020
0000
0130
2000
0000
3001
,
0000
0202
0000
0000
0000
0000
0303
0000
,
0000
0001
2000
0000
3100
0020
0000
0130
,
0000
2000
0000
3001
0000
0200
0000
0310
,
0000
2020
0000
0000
0000
0000
3030
0000
;

//---------------dance-single - Blake----------------
#NOTES:
     dance-single:
     Ace Of Hearts (2013):
     Easy:
     5:
     0.305,0.124,0.015,0.669,0.022:
0000
0000
0000
0000
,
2000
0000
0000
3000
0000
000M
0000
0000
2000
0000
0000
3000
0000
0000
0000
0000
,
0020
0000
0000
0030
0000
0M00
0000
0000
0020
0000
0000
0030
0000
0000
0000
0000
,
0200
0000
0000
0300
0000
000M
0000
0000
0200
0000
0000
0300
0000
0000
0000
0000
,
0000
0001
0000
0000
0001
0000
0002
0000
,
0003
1000
0000
0000
1000
0000
2000
0000
,
3000
0010
0000
0000
0010
0000
0010
0000
,
0200
0300
0001
0002
,
0003
0000
1000
000M
,
1000
0000
0000
0000
1000
0M00
1000
0000
,
0000
0000
0010
M000
,
0010
001M
0020
0030
,
0000
0000
0100
00M0
,
0100
M100
0100
0000
,
0002
0000
0M00
0000
0003
0000
0000
1000
,
0000
10M0
0000
2000
0000
3000
0000
0000
,
0M02
0003
M020
0030
,
020M
0300
20M0
3000
,
0000
0001
0000
0M01
0000
0001
0000
0000
,
0000
0100
0000
010M
0000
0200
0000
0300
,
0000
0010
0000
0010
0000
0010
0000
0000
,
0000
1000
0000
2000
0000
0000
3001
0000
,
0000
0100
0100
0200
,
0000
0310
0000
0010
0000
0020
0000
0000
,
0030
1000
1000
2000
,
0000
3001
0000
0001
0000
0001
0000
0000
,
0000
0002
0000
0000
0103
00M0
0100
0000
,
0000
0200
M000
0300
,
0000
0000
0000
0000
0010
0M00
0010
0000
,
0000
0020
000M
0030
,
0000
1000
1000
2000
,
0000
3001
0000
0001
0000
0002
0000
0003
,
0000
0010
0010
0020
,
0000
0M32
0000
0M03
0000
10M0
0000
10M0
,
0000
002M
0000
0000
M230
0000
0000
0302
,
0000
2000
0000
0000
0000
0000
3003
0000
,
0000
0000
0001
0000
0000
0002
0000
0000
,
0000
0200
0000
0000
0000
0000
0303
0000
,
0000
0000
0200
0000
0000
0010
0000
0010
,
0000
0020
0000
0000
0000
0000
0330
0000
,
0000
0000
020M
0000
0000
M302
0000
2003
,
0000
32M0
0000
M320
0000
023M
0000
23M0
,
3000
2200
0000
0000
0000
0000
3300
0000
;

//---------------dance-single - Weiss----------------
#NOTES:
     dance-single:
     Ace Of Hearts (2013):
     Beginner:
     3:
     0.193,0.062,0.015,0.378,0.000:
0000
0000
0000
0000
,
0002
0000
0003
0000
,
2000
0000
3000
0000
,
0002
0000
0003
0000
,
0000
1000
1000
1000
,
0000
0001
0001
0001
,
0000
0010
0010
0010
,
0020
0030
0200
0300
,
0000
0000
1000
0000
,
1000
0000
1000
0000
,
0000
0000
0001
0000
,
0001
0000
0002
0000
,
0003
0000
0100
0000
,
0100
0000
0100
0000
,
0010
0000
0010
0000
,
0020
0000
0030
0000
,
2000
3000
2000
3000
,
0002
0003
0002
0003
,
0000
0010
0000
0010
,
0000
0020
0000
0030
,
0000
0100
0000
0100
,
0000
0200
0000
0300
,
0000
1000
0000
1000
,
0000
2000
0000
3000
,
0000
0001
0000
0001
,
0000
0002
0000
0000
,
0000
0003
0000
0000
0000
0000
1000
0000
,
0000
2000
0000
3000
,
0000
0000
0000
0010
,
0000
0020
0000
0030
,
0000
0100
0000
0100
,
0000
0200
0000
0300
,
0000
0001
0000
0001
,
0000
0002
0000
2003
,
0000
3002
0000
0000
,
0003
2000
0000
0000
,
3000
0010
0000
0010
,
0000
0020
0000
0030
,
0000
1000
0000
1000
,
0000
2000
0000
3000
,
0000
0001
0000
0001
,
0000
1000
0000
1000
,
0000
2020
0000
3030
;
