#TITLE:Moshi Moshi;
#SUBTITLE:;
#ARTIST:Smile.DK;
#TITLETRANSLIT:;
#SUBTITLETRANSLIT:;
#ARTISTTRANSLIT:;
#GENRE:Pop;
#CREDIT:Ace Of Hearts;
#BANNER:Moshi Moshi - Bn.png;
#BACKGROUND:Moshi Moshi - BG 2.png;
#LYRICSPATH:;
#CDTITLE:Ace Of Hearts.png;
#MUSIC:Moshi Moshi.ogg;
#OFFSET:2.702;
#SAMPLESTART:97.100;
#SAMPLELENGTH:12.000;
#SELECTABLE:YES;
#BPMS:0.000=69.700,16.000=139.400,32.000=69.700,34.000=139.400,102.000=69.700,104.000=139.400,168.000=69.700,178.000=139.400,198.000=69.700,200.000=139.400,264.000=69.700,277.000=139.400,277.750=69.700,280.000=34.850,281.000=139.400,345.000=69.700,346.000=139.400;
#STOPS:277.000=0.108
,277.250=0.108
,277.500=0.108
;
#BGCHANGES:3.000=Moshi Moshi Music Video.avi=1.000=1=0=1===CrossFade==,
99999=-nosongbg-=1.000=0=0=0 // don't automatically add -songbackground-
;
#FGCHANGES:;
#KEYSOUNDS:;

//---------------dance-single - Moshi-Moshi?----------------
#NOTES:
     dance-single:
     Ace Of Hearts (2013):
     Challenge:
     10:
     0.713,0.000,0.483,1.000,0.314: // measure 1
0000
0000
0000
0000
,  // measure 2
0000
0000
0000
0000
,  // measure 3
0001
0010
0001
0010
0220
0000
0330
0000
0200
0000
0000
0000
0000
0000
0300
0000
,  // measure 4
1000
0000
0100
0000
1000
0000
0100
0000
0220
0000
0000
0000
0300
0000
0032
0000
0000
0000
0003
0000
0000
0000
0000
0000
1000
0100
1000
0000
0001
0010
0001
0000
,  // measure 5
2000
3010
2000
3001
0022
0003
0230
1300
,  // measure 6
0002
0103
0220
0300
1030
0001
0010
0200
,  // measure 7
2000
0000
0010
0001
0000
0010
0000
0011
,  // measure 8
0000
0000
3300
0000
0000
0000
1000
0100
0010
0100
1000
0000
0001
0010
0100
0010
,  // measure 9
0002
0000
0000
0000
0003
0000
0000
0000
1000
0100
0010
0100
2000
0000
0000
0000
3002
0000
0000
0000
0103
0000
0000
0000
0010
0000
0000
0000
2000
0000
0000
0000
,  // measure 10
0000
3200
0000
0340
0000
0000
0000
0000
,  // measure 11
0000
0030
0000
0000
0012
0000
1003
0020
,  // measure 12
0000
0000
0130
0000
0000
0000
0002
0000
1003
0100
1000
0100
0010
0001
0010
0001
,  // measure 13
1000
0001
1000
0001
1000
0010
0200
0000
0301
0000
1000
0000
0010
0000
0020
0000
,  // measure 14
0000
0130
0000
0202
0000
0000
0000
0000
,  // measure 15
0303
0000
0000
0100
0020
0000
1030
0002
,  // measure 16
0000
0000
0013
0000
0000
0000
0220
0000
0000
0000
0030
0000
1300
0001
1000
0001
,  // measure 17
0100
0001
0100
0001
1000
0010
1000
0010
2000
0000
3001
0000
0010
0000
0200
0000
,  // measure 18
0000
1300
0000
2002
0000
0000
0000
3003
,  // measure 19
0000
0000
0000
0000
0002
0000
0103
0020
,  // measure 20
0000
0000
1030
0000
0000
0000
1200
0000
0310
0001
0010
0001
1000
0001
1000
0001
,  // measure 21
0200
0000
0320
0000
2030
3001
0010
0200
,  // measure 22
0000
1300
0000
2002
0000
0000
0000
0000
,  // measure 23
3003
0000
0000
0000
0002
0000
0000
0103
,  // measure 24
0000
0000
0010
0000
0000
0000
2010
0000
3001
0100
0001
0100
0010
1000
0010
1000
,  // measure 25
0001
0010
0001
0010
0100
1000
0100
0000
0020
0000
0130
0000
1000
0000
0001
0000
,  // measure 26
1000
0000
0010
0000
0400
0000
0300
0000
0400
0301
1000
0001
0020
0000
0200
0330
,  // measure 27
2100
3001
0102
1003
2200
3000
0310
0001
,  // measure 28
1001
1000
0020
0000
0230
0301
1000
0001
,  // measure 29
0202
0000
0010
1000
0000
0010
0000
2020
,  // measure 30
0030
3010
0000
0000
0303
0000
0000
0000
,  // measure 31
2001
3100
2100
3001
0202
0003
0310
1000
,  // measure 32
1001
0001
0020
0000
0130
1000
0001
1000
,  // measure 33
2200
0000
0010
0001
0000
0010
0000
0022
,  // measure 34
0030
0013
0000
3300
1000
0001
0100
0010
,  // measure 35
2010
3001
0012
1003
2002
0000
3003
0000
,  // measure 36
0000
1000
0200
0310
0100
1000
0001
0010
,  // measure 37
0200
1300
0002
0103
0220
0000
0330
0020
,  // measure 38
0000
0000
0130
0000
0000
0000
0000
0000
0001
0100
0001
0000
1000
0100
1000
0000
,  // measure 39
0002
1003
0002
0013
0220
0000
0330
0000
,  // measure 40
0000
0100
1000
0001
0020
0031
1000
0001
,  // measure 41
0200
0310
2000
3010
0220
0000
0330
0200
,  // measure 42
0000
0000
0310
0000
1000
0000
0001
0000
0010
0100
1000
0000
0001
0010
0100
0000
,  // measure 43
2000
0000
0000
0000
0000
0000
3000
0000
0000
0000
0000
0000
0000
0000
0000
0000
0000
0000
0002
0000
0000
0000
0000
0000
1003
0000
0000
0000
0100
0000
0000
0000
0010
0000
0000
0000
0002
0000
0000
0000
0000
0000
1003
0000
0000
0020
0000
0000
,  // measure 44
0000
0000
0000
0000
0000
0030
0000
1000
0002
0000
0000
0023
0000
0230
0000
2300
,  // measure 45
3001
0010
0001
0010
0100
1000
0100
1000
0001
0010
0001
0010
0002
0000
0000
0000
2003
0000
0000
0000
3010
0000
0000
0000
0100
0000
0000
0000
0002
0000
0000
0000
,  // measure 46
0000
1003
0000
4200
0000
0000
0000
0000
,  // measure 47
3300
0000
0100
0010
0012
0000
0000
1003
,  // measure 48
0000
0000
0010
0000
0000
0000
0210
0000
0301
1000
0001
1000
0100
0010
0100
0010
,  // measure 49
0001
0010
0001
0010
0100
1000
0001
0000
0200
0000
0310
0000
1000
0000
0001
0000
,  // measure 50
0010
0000
0100
0000
4000
0000
3001
0000
4000
3001
0010
0001
0020
0000
0200
0330
,  // measure 51
0012
1003
2010
3001
0022
0003
0130
1000
,  // measure 52
1001
0001
0200
0000
0310
1000
0001
1000
,  // measure 53
2200
0000
0010
0001
0000
0010
0000
0022
,  // measure 54
0030
0013
3300
1000
0100
1000
0001
1000
,  // measure 55
2100
3001
0102
1003
2200
3000
0310
0001
,  // measure 56
1001
1000
0020
0000
1030
0001
0010
0001
,  // measure 57
0202
0000
0010
1000
0000
0010
0000
2020
,  // measure 58
0030
3010
0000
0300
1003
0100
0010
0001
,  // measure 59
2001
3100
2100
3001
0202
0003
0310
1000
,  // measure 60
1001
0001
0020
0000
0130
1000
0001
0010
,  // measure 61
0220
0000
0001
1000
0000
0001
0000
2002
,  // measure 62
0003
3001
0330
0100
1000
0001
1000
0001
,  // measure 63
0012
1003
2010
3001
0022
0003
0130
1000
,  // measure 64
1001
0001
0200
0000
0310
0100
0001
1000
,  // measure 65
2002
0000
0010
0100
0000
0010
0000
0220
,  // measure 66
0030
0310
0000
3003
0001
0100
0010
1000
,  // measure 67
0002
0013
0002
0013
0200
0000
0300
0000
2000
0000
0000
0000
0000
0000
3000
0000
,  // measure 68
0002
0000
0103
0000
0002
0000
0103
0000
0020
0000
0000
0000
1030
0000
0001
0000
0010
0100
0010
0100
1000
0100
1000
0100
0010
0001
0010
0001
1000
0001
1000
0001
,  // measure 69
2000
3100
2000
3100
0020
0000
0030
0200
0000
2300
0000
3002
0000
0003
0000
0000
,  // measure 70
0020
0000
0130
0000
0020
0000
0130
0000
1000
0000
1000
0000
1000
0000
0002
0000
0000
0000
0103
0000
0010
0000
1000
0000
0001
0010
0001
0000
1000
0100
1000
0000
,  // measure 71
0002
0000
0000
0003
2001
0000
3010
0000
0210
0000
0301
0000
2002
0000
0003
0000
,  // measure 72
3100
0010
0011
0001
2002
0003
3010
0100
,  // measure 73
0001
1000
2200
0000
0010
0001
0000
0010
,  // measure 74
0000
0022
0030
0013
3300
1000
0001
0100
,  // measure 75
0010
1000
1002
0013
0210
1300
2002
3000
,  // measure 76
0103
0010
1010
1000
0002
0000
0013
0100
,  // measure 77
1000
0001
0202
0000
0010
1000
0000
0010
,  // measure 78
0000
0000
2020
0000
0000
0000
3030
0000
0303
0000
0001
0000
1000
0010
0100
0000
,  // measure 79
0010
0100
0001
0000
2001
0000
3100
0000
0120
0000
0031
0000
0202
0000
0003
0000
,  // measure 80
0310
1000
1200
0310
0022
0030
1003
0010
,  // measure 81
0100
0001
2002
0000
0100
0010
0000
0100
,  // measure 82
0000
0220
0030
0310
3003
1000
0100
0010
,  // measure 83
0100
1000
1002
0103
0120
1030
2200
3000
,  // measure 84
0310
0001
1001
1000
0020
0000
0130
0001
,  // measure 85
1000
0100
0220
0000
0001
1000
0000
0001
,  // measure 86
0000
0000
2002
0000
0000
0000
3003
0000
0000
0000
0330
0000
0100
1000
0001
0000
,  // measure 87
1000
0010
0100
0000
0001
1000
0001
1000
0020
0000
0000
0000
1030
0000
1001
0000
;

//---------------dance-single - Hard----------------
#NOTES:
     dance-single:
     Ace Of Hearts (2013):
     Hard:
     8:
     0.503,0.000,0.086,0.748,0.104:
0000
0000
0000
0000
,
0000
0000
0000
0000
,
1000
0001
1000
0001
0020
0000
0030
0000
0002
0000
0000
0000
0000
0000
0003
0000
,
0010
0100
0010
0100
2000
0000
0000
3002
0000
0003
0000
0000
1000
0100
1000
0100
,
0020
0031
0020
0031
2000
0000
3001
0100
,
0001
0100
0020
0000
1030
0001
1000
0001
,
0020
0000
0001
0100
0000
0001
0000
0002
,
0000
0033
0000
0001
0010
0100
1000
0001
,
2000
0000
3000
0000
0001
0010
0001
0000
1000
0000
0010
0000
1000
0000
0002
0000
,
0000
1003
0000
0040
0000
0000
0000
0000
,
0000
0030
0000
0000
0200
0000
0301
1000
,
0000
0001
0000
2000
0000
0000
0000
0000
,
3000
0000
0000
0001
0010
0001
0010
0200
,
0000
1300
0000
0002
0000
0000
0000
0000
,
0003
0000
0000
1000
0020
0000
0130
0001
,
0000
1000
0000
0200
0000
0000
0000
0300
,
0000
0000
0000
0000
0010
0100
0010
0002
,
0000
1003
0000
0020
0000
0000
0000
0030
,
0000
0000
0000
0000
0200
0000
0301
1000
,
0000
0001
0000
0020
0000
0000
0000
0030
,
0002
0000
2003
0000
3010
0100
0010
2000
,
0000
3001
0000
0020
0000
0000
0000
0000
,
0030
0000
0000
0000
0002
0000
0000
1003
,
0000
0010
0000
0200
0000
0000
0000
0000
,
0300
0000
0000
0001
0100
0001
0100
0010
,
1000
0000
0010
0000
1000
0000
0000
0000
0000
0001
1000
0001
0020
0000
0230
0000
,
2300
3001
2000
3001
0201
0000
0310
1000
,
0010
0100
0002
0000
1003
0010
0100
0010
,
2000
0000
0001
0010
0000
0001
0000
0020
,
0000
3030
0000
0000
0000
0000
0000
0000
,
0020
0130
0020
1030
1002
0000
0013
0100
,
0010
0001
2000
0000
3010
1000
0010
0100
,
0002
0000
1000
0010
0000
1000
0000
0020
,
0000
0033
0000
0000
0010
0100
0010
0001
,
2000
3010
2000
3010
0220
0000
0330
0000
,
0000
0100
0001
0100
0010
1000
0010
0100
,
0001
1000
0001
0010
0220
0000
0330
0200
,
0000
0300
0000
1000
0001
1000
0010
1000
,
0002
1003
0002
1003
2020
0000
3030
0000
,
0000
0010
1000
0010
0100
0001
0100
0001
,
1000
0001
1000
0001
0022
0000
0033
0020
,
0000
0030
0000
0100
0010
0100
1000
0001
,
2000
0000
0000
0000
0000
0000
0000
0000
0000
0000
0000
0000
3000
0000
0000
0000
0000
0000
2000
0000
0000
0000
0000
0000
3001
0000
0000
0000
0010
0000
0000
0000
0100
0000
0000
0000
2000
0000
0000
0000
0000
0000
3001
0000
0000
0020
0000
0000
,
0000
0000
0000
0000
0000
0030
0000
0001
2000
0000
0000
3002
0000
0023
0000
0230
,
0000
0000
0300
0020
0031
1000
0001
0020
,
0000
0130
0000
4000
0000
0000
0000
0000
,
3000
0000
0001
0100
0002
0000
0000
1003
,
0000
0010
0000
0040
0000
0000
0000
0000
,
0000
0030
0000
1000
0010
0100
0010
1000
,
0010
0000
1000
0000
0001
0000
1000
0000
0001
0100
0001
0100
0020
0000
2030
0000
,
3002
0013
0002
0013
0210
0000
1300
0100
,
0010
0100
2000
0000
3001
0100
0010
0100
,
0002
0000
1000
0100
0000
1000
0000
0020
,
0000
0033
0000
0001
1000
0010
1000
0001
,
2000
3100
2000
3100
0120
0000
0031
1000
,
0010
1000
0002
0000
1003
0100
0010
0100
,
2000
0000
0001
0100
0000
0001
0000
0020
,
0000
3030
0000
1000
0001
0100
0001
1000
,
0020
0130
0020
0130
0102
0000
1003
0100
,
0010
0100
2000
0000
3001
0010
0100
0010
,
0200
0000
0010
1000
0000
0010
0000
0020
,
0000
0330
0000
0100
1000
0001
1000
0001
,
2000
3100
2000
3100
1200
0000
0310
0001
,
1000
0001
0020
0000
0130
1000
0001
1000
,
0020
0000
1000
0100
0000
1000
0000
2000
,
0000
3030
0000
0010
1000
0001
1000
0010
,
0100
0001
0100
0001
2000
0000
3000
0000
0002
0000
0000
0000
0003
0000
0000
0000
,
0010
0001
0010
0001
2000
0000
3001
0010
0200
0000
0310
0002
0000
0000
0003
0000
,
1000
0010
1000
0010
0200
0000
0300
0000
0000
0000
0000
0000
0000
0000
0000
0000
,
0001
0100
0001
0100
0001
1000
0001
2000
0000
3000
0000
0001
0010
0100
0010
0001
,
2000
0000
0000
3000
0002
0000
0103
0000
0002
0000
0103
0000
0220
0000
0300
0000
,
1030
0010
0100
0001
2000
0000
3001
0010
,
0100
1000
0002
0000
1000
0100
0000
1000
,
0000
0020
0000
0033
0000
0001
1000
0010
,
1000
0001
0020
0130
0020
0130
2200
0300
,
3001
0100
0010
1000
0002
0000
0013
0100
,
0010
0001
2000
0000
0001
0100
0000
0001
,
0000
0020
0000
3030
0000
1000
0100
0010
,
0001
0010
0200
1300
0200
1300
2002
3000
,
0103
0010
1000
0010
0200
0000
0301
1000
,
0001
0010
0200
0000
0010
1000
0000
0010
,
0000
0020
0000
0330
0000
0010
0001
1000
,
0001
1000
0020
0130
0020
0130
0202
0300
,
1003
0100
1000
0001
0200
0000
0310
1000
,
0001
0100
0020
0000
1000
0100
0000
1000
,
0000
2000
0000
3030
0000
0010
1000
0001
,
0010
0000
0100
0000
1000
0100
0010
0001
0020
0000
0000
0000
0031
0000
1001
0000
;

//---------------dance-single - Medium----------------
#NOTES:
     dance-single:
     Ace Of Hearts (2013):
     Medium:
     6:
     0.358,0.000,0.000,0.587,0.012:
0000
0000
0000
0000
,
0000
0000
0000
0000
,
0001
0010
0002
0000
0003
0000
0000
0000
,
1000
0000
0100
0000
2000
0000
0000
3000
0000
0000
0000
0000
0000
0000
0000
0000
,
0001
0010
0001
0000
2000
0000
3001
0100
,
0001
0000
2000
0000
3010
0100
0010
0000
,
0200
0000
0000
0001
0000
0000
0000
0002
,
0000
0303
0000
0000
0000
0000
0000
0000
,
0002
0000
0003
0000
1000
0000
0001
0020
,
0000
0031
0000
4000
0000
0000
0000
0000
,
0000
3000
0000
0000
0002
0000
1003
0010
,
0000
1000
0000
0002
0000
0000
0000
0000
,
0003
0000
0000
1000
0200
0000
1300
0001
,
0000
1000
0000
0020
0000
0000
0000
0000
,
0030
0000
0000
1000
0002
0000
1003
0100
,
0000
0010
0000
0200
0000
0000
0000
0300
,
0000
0000
0000
0000
0020
0000
0130
2000
,
0000
3001
0000
2000
0000
0000
0000
3000
,
0000
0000
0000
0000
0002
0000
0013
0100
,
0000
1000
0000
0002
0000
0000
0000
0003
,
2000
0000
3002
0000
0023
0000
0130
2000
,
0000
3001
0000
0020
0000
0000
0000
0000
,
0030
0000
0000
0000
0002
0000
0000
1003
,
0000
0001
0000
0200
0000
0000
0000
0000
,
0300
0000
0000
0000
0010
1000
0010
0000
,
1000
0001
1000
0000
0000
0001
0002
0003
,
1000
0100
1000
0000
0002
0000
0013
0100
,
0010
0000
0002
0000
1003
0010
1000
0000
,
0002
0000
0000
1000
0000
1000
0000
2000
,
0000
3003
0000
0000
0000
0000
0000
0000
,
0001
0010
0001
0000
2000
0000
3001
0100
,
0001
0000
2000
0000
3001
0010
0001
0000
,
2000
0000
0000
0001
0000
0001
0000
0002
,
0000
3003
0000
0000
1000
0100
2000
0000
,
3001
0010
0001
0000
0020
0000
0030
0000
,
0000
0001
1000
0000
0001
0100
0001
0000
,
1000
0001
1000
0000
0020
0000
0000
0030
,
0000
0000
0000
0000
1000
0001
1000
0000
,
0010
0100
0010
0000
2000
0000
3000
0000
,
0000
0001
0010
0000
0001
1000
0001
0000
,
1000
0010
1000
0000
0002
0000
0000
0003
,
0000
0000
0000
0000
0010
0100
0010
0000
,
0002
0000
0000
0000
0003
0000
1000
0000
2000
0000
0000
0000
3001
0000
0000
0002
,
0000
0000
0000
0000
0000
0003
0000
0000
0020
0000
0000
0032
0000
2003
0000
3002
,
0000
0000
0003
2000
3002
0000
1003
0100
,
0000
0010
0000
0004
0000
0000
0000
0000
,
0003
0000
2000
0000
3020
0000
0000
1030
,
0000
0001
0000
0400
0000
0000
0000
0000
,
0000
0300
0000
0000
0010
0100
0010
0000
,
1000
0010
1000
0000
0010
0010
0020
0030
,
0100
0001
0100
0000
0020
0000
1030
0001
,
1000
0000
0020
0000
1030
0001
1000
0000
,
0002
0000
0000
1000
0000
0010
0000
0020
,
0000
0033
0000
0000
0010
0100
0010
0000
,
0001
1000
0001
0000
2000
0000
3100
0010
,
0100
0000
2000
0000
3001
0100
0001
0000
,
2000
0000
0000
0001
0000
0010
0000
0020
,
0000
3030
0000
0000
0010
0100
0010
0000
,
1000
0001
1000
0000
0020
0000
0130
0001
,
0100
0000
0020
0000
1030
0001
1000
0000
,
0020
0000
0000
0100
0000
1000
0000
2000
,
0000
3030
0000
0000
1000
0001
1000
0000
,
0010
1000
0010
0000
2000
0000
3001
0010
,
0001
0000
2000
0000
3010
0100
0010
0000
,
0200
0000
0000
0001
0000
0010
0000
0020
,
0000
0330
0000
0000
0010
1000
0010
0000
,
0100
0010
0200
0300
0000
0000
0000
0000
,
0001
0000
0100
0000
0002
0000
0003
0000
2000
0000
0000
3000
0000
0000
0000
0000
,
0001
0010
0002
0003
0000
0000
0000
0000
,
1000
0010
4000
0000
3000
0000
0001
0010
,
0002
0000
0000
0003
1000
0000
0010
0000
2000
0000
0000
0000
3002
0000
0000
0000
,
0013
0100
0020
0000
0032
0000
1003
0010
,
2000
0000
3002
0000
1000
1000
0000
0010
,
0000
0020
0000
0033
0000
0000
0010
0100
,
0010
0000
0001
1000
0002
0000
2003
0000
,
3010
0100
0020
0000
2030
0000
3001
0010
,
0002
0000
2003
0000
0001
0001
0000
0010
,
0000
0020
0000
3030
0000
0000
0010
0100
,
0010
0000
1000
0001
2000
0000
3020
0000
,
0130
0001
0200
0000
0320
0000
1030
0001
,
2000
0000
3020
0000
0100
0100
0000
1000
,
0000
2000
0000
3030
0000
0000
1000
0001
,
1000
0000
0001
0010
0002
0000
2003
0000
,
3100
0010
0200
0000
2300
0000
3001
0100
,
0002
0000
0203
0000
0001
0001
0000
0010
,
0000
0020
0000
0330
0000
0000
0010
1000
,
0010
0000
0200
0000
0300
0000
0001
1000
;

//---------------dance-single - Easy----------------
#NOTES:
     dance-single:
     Ace Of Hearts (2013):
     Easy:
     4:
     0.214,0.000,0.006,0.374,0.000:
0000
0000
0000
0000
,
0000
0000
0000
0000
,
0000
0000
0000
0000
,
0000
0000
0000
0000
,
1000
1000
2000
3000
,
0001
0002
0003
0010
,
0020
0000
0000
0000
0000
0000
0000
0030
,
0000
0000
0000
0000
,
0200
0300
1000
1000
,
1000
0000
0004
0000
,
0000
0003
0100
0100
,
0100
0000
0020
0000
,
0030
0000
1000
1000
,
1000
0000
0002
0000
,
0003
0000
0010
0010
,
0010
0000
0200
0000
,
0300
0000
0010
0010
,
0010
0000
0002
0000
,
0003
0000
1000
1000
,
1000
0000
0020
0000
,
0030
0000
0100
0100
,
0100
0000
0002
0000
,
0003
0000
1000
0000
,
1000
0000
2000
0000
,
3000
0000
0010
0010
,
0010
0000
0000
0000
0200
0000
0000
0300
,
0001
0001
0002
0003
,
1000
2000
3000
0001
,
0002
0000
0000
0000
0000
0000
0000
2000
,
0000
3003
0000
0000
0000
0000
0000
0000
,
1000
1000
2000
3000
,
0010
0020
0030
1000
,
2000
0000
0000
0000
0000
0000
0000
0002
,
0000
3003
0000
0000
0000
0000
0000
0000
,
0001
0001
0002
0003
,
0000
1000
1000
0000
,
0010
0010
0010
0000
,
0200
0300
0000
0000
,
0010
0010
0020
0030
,
0000
1000
1000
0000
,
0001
0001
0001
0000
,
0020
0030
0000
0000
,
0200
0300
0010
0010
,
0020
0030
0001
0001
,
0002
0003
1000
1000
,
1000
0000
0040
0000
,
0030
0100
0200
0000
,
0301
0001
0004
0000
,
0000
0003
0000
0000
1000
0000
1000
0000
,
1000
0000
0000
0000
0200
0000
0000
0300
,
0010
0010
0020
0030
,
0001
0002
0003
1000
,
2000
0000
0000
0001
0000
0000
0000
0002
,
0000
3003
0000
0000
1000
0000
0000
0000
,
0001
0001
0002
0003
,
0010
0020
0030
0001
,
0002
0000
0000
1000
0000
0000
0000
2000
,
0000
3003
0000
0000
0000
0000
0000
0000
,
1000
1000
2000
3000
,
0010
0020
0030
0100
,
0200
0000
0000
0010
0000
0000
0000
0020
,
0000
0330
0000
0000
0020
0000
0030
0000
,
1000
1000
2000
3000
,
0001
0002
0003
0010
,
0020
0000
0000
0100
0000
0000
0000
0200
,
0000
0330
0000
0000
0000
0000
0000
0000
,
0200
0300
0000
0000
,
0001
0001
0001
0000
0000
0000
0000
0000
,
1000
1000
1000
0000
0000
0000
0000
0000
,
0010
0010
0040
0000
0030
0000
1000
0000
,
2000
0000
0000
3000
0001
0000
0000
0000
0001
0000
0000
0000
0002
0000
0000
0000
,
0003
0010
0020
0030
,
0001
0000
0002
0000
0000
1000
0000
1000
,
0000
2000
0000
3003
0000
0000
0001
0000
,
0000
0010
0010
0020
,
0030
0001
0002
0003
,
1000
0000
2000
0000
0000
0001
0000
0001
,
0000
0002
0000
3003
0000
0000
1000
0000
,
0000
0010
0010
0020
,
0030
1000
2000
3000
,
0010
0000
0020
0000
0000
0100
0000
0100
,
0000
0200
0000
0330
0000
0000
0010
0000
,
0000
1000
1000
2000
,
3000
0001
0002
0003
,
0010
0000
0020
0000
0000
0100
0000
0100
,
0000
0200
0000
0330
0000
0000
0100
0000
,
0100
0000
0200
0000
0300
0000
0000
1001
;

//---------------dance-single - Novice----------------
#NOTES:
     dance-single:
     Ace Of Hearts (2013):
     Beginner:
     2:
     0.136,0.000,0.006,0.236,0.000:
0000
0000
0000
0000
,
0000
0000
0000
0000
,
0000
0000
0000
0000
,
0000
0000
0000
0000
,
0002
0000
0003
0000
,
0002
0003
0000
0000
,
2000
0000
0000
0000
,
3000
0000
0000
0000
,
0020
0030
1000
0000
,
1000
0000
2000
0000
,
3000
0000
0010
0000
,
0010
0000
0020
0000
,
0030
0000
0100
0000
,
0100
0000
0200
0000
,
0300
0000
0001
0000
,
0001
0000
0002
0000
,
0003
0000
1000
0000
,
1000
0000
2000
0000
,
3000
0000
0001
0000
,
0001
0000
0002
0000
,
0003
0000
0010
0000
,
0010
0000
0020
0000
,
0030
0000
0100
0000
,
0100
0000
0200
0000
,
0300
0000
1000
0000
,
1000
0000
0000
0000
2000
0000
0000
3000
,
0001
0000
0001
0000
,
0010
0000
0010
0000
,
0020
0000
0000
0000
,
0030
0000
0000
0000
,
0100
0000
0100
0000
,
1000
0000
1000
0000
,
2000
0000
0000
0000
,
3000
0000
0000
0000
,
0010
0000
0010
0000
,
0000
0000
0000
0000
,
1000
0000
1000
0000
,
0000
0000
0000
0000
,
0001
0000
0001
0000
,
0000
0000
0000
0000
,
0010
0000
0010
0000
,
0000
0000
0000
0000
,
0002
0003
1000
1000
,
2000
3000
0001
0001
,
0002
0003
0010
0000
,
0010
0000
0020
0000
,
0030
0000
0100
0000
,
0100
0000
0200
0000
,
0300
0000
0010
0000
,
0010
0000
0000
0000
0020
0000
0000
0030
,
0100
0000
0100
0000
,
1000
0000
1000
0000
,
2000
0000
0000
0000
,
3000
0000
0000
0000
,
1000
0000
1000
0000
,
0010
0000
0010
0000
,
0020
0000
0000
0000
,
0030
0000
0000
0000
,
0010
0000
0010
0000
,
0100
0000
0100
0000
,
0200
0000
0000
0000
,
0300
0000
0000
0000
,
0100
0000
0100
0000
,
0001
0000
0001
0000
,
0002
0000
0000
0000
,
0003
0000
0000
0000
,
2000
3000
0000
0000
,
0010
0010
0000
0000
,
0100
0100
0000
0000
,
0001
0002
0003
0000
,
2000
0000
0000
3000
0010
0000
0000
0000
0010
0000
0000
0000
0020
0000
0000
0000
,
0030
1000
0000
1000
,
0000
2000
0000
0000
,
0000
0002
0000
3003
0000
0000
0000
0000
,
0000
1000
1000
2000
,
3000
0010
0000
0010
,
0000
0020
0000
0000
,
0000
0200
0000
0330
0000
0000
0000
0000
,
0000
0100
0100
0200
,
0300
0001
0000
0001
,
0000
0002
0000
0000
,
0000
2000
0000
3003
0000
0000
0000
0000
,
0000
1000
1000
2000
,
3000
0100
0000
0100
,
0000
0200
0000
0000
,
0000
0020
0000
0330
0000
0000
0010
0000
,
0000
0000
0020
0000
0030
0000
0000
1001
;
