#TITLE:Masara Blue Jeans;
#SUBTITLE:;
#ARTIST:C-ute;
#TITLETRANSLIT:;
#SUBTITLETRANSLIT:;
#ARTISTTRANSLIT:;
#GENRE:;
#CREDIT:Ace Of Hearts;
#BANNER:Masara Blue Jeans - bn.png;
#BACKGROUND:Masara Blue Jeans - bg.png;
#LYRICSPATH:;
#CDTITLE:Ace Of Hearts.png;
#MUSIC:Masara Blue Jeans.ogg;
#OFFSET:13.340;
#SAMPLESTART:59.000;
#SAMPLELENGTH:12.000;
#SELECTABLE:YES;
#BPMS:0.000=155.000,484.000=77.500,500.000=155.000;
#STOPS:;
#BGCHANGES:2.875=Masara Blue Jeans Video.avi=1.000=1=0=1===CrossFade==,
99999=-nosongbg-=1.000=0=0=0 // don't automatically add -songbackground-
;
#KEYSOUNDS:;

//---------------dance-single - Ace Of Hearts (2013)----------------
#NOTES:
     dance-single:
     Ace Of Hearts (2013):
     Hard:
     9:
     0.729,0.000,0.437,1.000,0.157: // measure 1
0000
0000
0000
0000
,  // measure 2
0000
0000
0000
0000
,  // measure 3
0000
0000
0000
0000
,  // measure 4
0000
0000
0000
0000
,  // measure 5
0000
0000
0000
0000
,  // measure 6
0000
0000
0000
0000
,  // measure 7
0000
0000
0000
0000
,  // measure 8
0000
0000
0000
0000
,  // measure 9
0000
0000
0000
0000
,  // measure 10
0001
0010
0001
1000
0010
1000
0001
0010
,  // measure 11
0001
1000
0010
0100
0001
0100
0010
1000
,  // measure 12
0001
0100
0001
1000
0100
1000
0001
0100
,  // measure 13
0001
0000
1000
0100
1000
0200
0000
0020
0000
0000
0000
0000
0330
0000
0000
0000
,  // measure 14
0012
0000
1003
0000
0010
0000
0100
0001
,  // measure 15
0000
0000
1000
0000
0200
0000
0310
0000
0200
0000
1300
0100
2000
0000
3001
0000
,  // measure 16
0200
0310
1000
0000
1200
0000
0310
0000
,  // measure 17
0001
0000
2000
3000
1010
0010
0100
0001
,  // measure 18
2002
3003
1000
0000
1100
0000
0100
0000
,  // measure 19
0110
0000
0010
0001
0000
1000
0000
1001
,  // measure 20
0001
0100
0000
0010
0100
0000
0001
0100
0000
0010
2000
0000
3002
0000
0003
0000
,  // measure 21
2002
0003
0010
0000
3002
0000
0013
0000
,  // measure 22
0100
0000
0000
0000
0100
0000
0000
0000
0010
0000
0000
0200
0000
0000
1300
0000
,  // measure 23
0001
0200
0000
0020
0000
0000
0330
0000
,  // measure 24
0010
0000
0000
0000
0010
0000
0000
0000
1000
0000
0000
0002
0000
0000
0013
0100
,  // measure 25
0010
0001
1000
0200
0000
0020
0000
0330
,  // measure 26
0010
0000
0000
0000
0010
0000
0000
0000
0002
0000
0000
1003
0000
0000
0010
0000
,  // measure 27
1000
0001
0010
0200
0000
0000
0300
0000
,  // measure 28
1000
0000
0000
0000
1000
0000
0000
0000
0002
0000
0000
0023
0000
0000
0130
0000
,  // measure 29
1000
0000
0000
0000
2002
0000
0000
0003
3004
0400
0000
0000
0000
0000
0000
0000
,  // measure 30
0303
0000
0000
0000
0000
0000
0000
0000
0001
0000
0001
0000
1000
0100
0010
0100
,  // measure 31
2000
3020
0230
0302
,  // measure 32
2003
3200
0320
0030
,  // measure 33
0001
2000
0000
3010
0100
0010
1000
0001
,  // measure 34
0020
0000
0130
2000
0000
0000
3000
0000
,  // measure 35
0002
0023
0032
2003
,  // measure 36
3200
0320
0030
0200
,  // measure 37
2000
0300
0000
3001
0100
0010
1000
0001
,  // measure 38
0020
0000
0000
0032
2000
0000
0003
3000
,  // measure 39
0100
0010
0000
0100
0010
0000
0100
0020
0000
0000
0030
0000
0011
0000
0000
0000
,  // measure 40
2002
0003
0000
3020
0000
0130
0001
1000
,  // measure 41
0200
0000
0320
0200
0000
0330
0000
0010
,  // measure 42
0001
2000
0000
3010
0100
0001
1000
0010
,  // measure 43
0100
0000
0001
0000
0100
0000
0010
0000
1000
0000
0001
0000
0010
0100
0010
0000
,  // measure 44
0001
2000
0000
3010
0100
0001
1000
0010
,  // measure 45
0200
0000
0320
0000
2030
0000
3002
0003
,  // measure 46
0022
0003
0000
0230
0000
1300
0001
2000
,  // measure 47
0000
0400
0000
0000
0000
3000
0000
0300
,  // measure 48
0220
0300
0000
0032
0000
1003
0010
1000
,  // measure 49
0002
0000
0023
0200
0000
0330
0000
0010
,  // measure 50
0001
2000
0000
3010
0100
0001
1000
0100
,  // measure 51
0010
0100
1000
0001
0100
0010
1000
0001
,  // measure 52
0010
0200
0000
1300
0100
0010
0001
1000
,  // measure 53
0020
0000
0230
0000
0302
0000
2003
3000
,  // measure 54
2020
3000
0000
0230
0002
0000
0303
0000
,  // measure 55
2002
0003
0000
3200
0020
0000
0330
0000
,  // measure 56
0011
0001
1000
0010
0110
0100
0001
1000
,  // measure 57
0100
0010
0100
0010
0100
0010
0100
0010
,  // measure 58
0011
0001
0100
0010
1010
1000
0001
0100
,  // measure 59
0220
0330
2020
3030
0202
0303
1001
1000
,  // measure 60
1100
0100
0010
0001
1001
1000
0010
0100
,  // measure 61
0001
1000
0001
1000
0001
1000
0001
1000
,  // measure 62
1010
0010
0100
0001
1001
1000
0100
0010
,  // measure 63
0022
0033
2002
3003
2020
3030
0110
0000
,  // measure 64
0102
0000
1003
0000
0010
0000
0100
0001
,  // measure 65
0000
0000
0100
0000
0020
0000
1030
0000
0020
0000
0130
0001
0200
0000
0310
0000
,  // measure 66
2000
3001
0201
0310
,  // measure 67
1000
0000
0000
0000
0200
0000
0300
0000
0110
0000
0010
0001
0020
0000
0130
0000
,  // measure 68
2100
3001
0101
0100
,  // measure 69
0110
0000
0010
1000
0000
0001
0000
0011
,  // measure 70
0010
0100
0000
1000
0100
0000
0010
0100
0000
1000
0100
0000
0020
0000
0030
0000
,  // measure 71
0022
0030
1000
0000
0203
0000
0310
0000
,  // measure 72
1000
0000
0000
0000
2000
0000
0000
0000
3001
0000
0000
0002
0000
0000
1003
0000
,  // measure 73
0010
0200
0000
0302
0000
0003
0000
0000
,  // measure 74
0100
0000
0000
0000
0200
0000
0000
0000
0310
0000
0000
0020
0000
0000
1030
0000
,  // measure 75
0001
0010
0100
2000
0000
3002
0000
0003
,  // measure 76
2000
0000
0000
0000
3020
0000
0000
0000
0230
0000
0000
0302
0000
0000
1003
0000
,  // measure 77
0100
0020
0000
0200
0000
0330
0000
0000
,  // measure 78
0020
0000
0000
0000
0032
0000
0000
0000
2003
0000
0000
3020
0000
0000
0130
0000
,  // measure 79
0202
0000
0303
0000
2002
0000
0000
0003
3040
0400
0000
0000
0000
0000
0000
0000
,  // measure 80
0330
0000
0000
0000
0000
0000
0000
0000
0100
0000
0100
0000
0001
0100
0010
0100
,  // measure 81
0002
2003
3200
0320
,  // measure 82
0230
2300
3002
0003
,  // measure 83
2000
0000
0000
3020
0000
0000
0130
0000
0001
0000
0100
0000
0010
0000
1000
0000
,  // measure 84
0002
0000
1003
2000
0000
3000
0000
0000
,  // measure 85
0002
0023
0230
2300
,  // measure 86
3200
0320
0030
0200
,  // measure 87
1300
0002
0000
1003
0010
0100
0010
1000
,  // measure 88
0002
0000
0000
1003
0020
0000
0030
0000
,  // measure 89
0100
0010
0000
0100
0010
0000
0100
0020
0000
0000
0030
0000
1010
0000
0000
0000
,  // measure 90
1000
1000
0000
1002
0000
0013
0100
1000
,  // measure 91
1002
0000
0023
0200
0000
0330
0000
0100
,  // measure 92
1000
0002
0000
1003
0010
0100
0001
0100
,  // measure 93
0010
1000
0010
1000
0001
0010
0001
0010
,  // measure 94
0100
2000
0000
3010
0100
0001
1000
0001
,  // measure 95
2000
0000
0000
0000
3200
0000
0000
0000
0320
0000
0000
0000
0032
0000
0000
0003
,  // measure 96
2001
0000
0000
3010
0100
0001
1000
0002
,  // measure 97
0000
0400
0000
0000
0003
0000
0300
0000
,  // measure 98
0010
0010
0000
2010
0000
3001
0010
0100
,  // measure 99
2000
0000
3200
0020
0000
0330
0000
0010
,  // measure 100
0001
2000
0000
3010
0100
0001
1000
0010
,  // measure 101
1000
0001
0010
0100
0010
0001
1000
0010
,  // measure 102
0100
0002
0000
1003
0100
0010
0100
1000
,  // measure 103
0002
0000
0203
0000
0320
0000
2030
3000
,  // measure 104
2002
0000
3000
0023
0200
0000
0330
0000
,  // measure 105
2200
0000
0300
3002
0200
0000
0303
0000
,  // measure 106
0110
0010
1000
0001
0011
0010
0100
0010
,  // measure 107
0001
1000
0001
1000
0001
1000
0001
1000
,  // measure 108
1010
0010
0100
0001
1001
1000
0100
0010
,  // measure 109
0022
0033
2002
3003
1100
0000
0011
0001
,  // measure 110
1001
1000
0010
0100
0101
0001
1000
0001
,  // measure 111
0100
0010
0100
0010
0100
0010
0100
0010
,  // measure 112
1010
1000
0001
0010
0110
0100
1000
0001
,  // measure 113
0022
0033
2200
3300
1001
0000
0101
0000
,  // measure 114
0002
0000
1003
0000
0002
0000
0103
0000
0002
0000
1003
0000
0010
0100
0010
0000
,  // measure 115
2000
0000
3100
0010
0001
1000
0200
0000
,  // measure 116
0320
0130
0020
0031
0020
0130
1000
0001
,  // measure 117
0101
0110
2020
3030
,  // measure 118
2000
0000
3001
0010
0100
1000
0000
0001
0000
1000
0020
0000
0130
0000
0001
0000
,  // measure 119
2000
0000
3100
0010
0001
0000
0010
0100
1000
0100
0020
0000
0031
0000
1000
0100
,  // measure 120
2000
0000
3001
0000
0200
0000
0310
1000
0020
0000
0130
0000
0001
0000
1000
0000
,  // measure 121
1200
0000
0000
0000
0000
0000
0000
0000
0000
0000
0000
0000
0000
0000
0000
0000
0020
0000
0000
0000
0000
0000
0000
0000
0000
0000
0000
0000
0000
0000
0000
0030
0040
0000
0000
0000
0000
0000
0000
0000
0000
0000
0000
0000
0000
0000
0000
0000
0300
0000
0000
0000
0000
0000
0000
0000
0000
0000
0000
0000
0000
0000
0000
0000
,  // measure 122
0031
0001
0000
1000
0010
1000
0001
0010
0200
0000
2300
0002
0000
0000
3003
0001
,  // measure 123
0010
0200
0000
0310
0001
1000
0001
0010
0200
0000
0000
0000
0300
0000
0000
0010
,  // measure 124
0001
2000
0000
3010
0100
0010
1000
0001
2000
0000
3200
0000
0320
0000
0032
0000
,  // measure 125
2003
0000
0000
0000
0000
0000
3020
0000
0000
0000
0130
0000
0001
0000
2000
0000
0000
0000
3200
0000
0310
0001
0000
0000
2000
0000
3001
0010
0000
0001
0010
0000
,  // measure 126
0110
0100
0000
2100
0000
3001
0100
0010
,  // measure 127
2010
0000
3002
0200
0000
0303
0000
0100
,  // measure 128
0010
2000
0000
3001
0010
0100
0010
0001
,  // measure 129
2000
3010
0100
0001
1000
0100
0010
0100
,  // measure 130
1000
0002
0000
1003
0010
0100
0001
1000
,  // measure 131
0200
0000
0320
0000
0032
0000
2003
3000
,  // measure 132
0000
1010
0000
0010
0110
0100
0001
2001
,  // measure 133
0000
0040
0000
0000
3000
0000
0030
0000
,  // measure 134
0110
0100
0000
0102
0000
1003
0100
0010
,  // measure 135
0012
0000
2003
0200
0000
3300
0000
0100
,  // measure 136
0010
0002
0000
1003
0010
0100
0001
2000
,  // measure 137
0000
0004
0000
0000
0000
3003
0000
0001
,  // measure 138
0010
0200
0000
0310
0001
1000
0010
0100
,  // measure 139
0002
0000
0000
0000
2003
0000
0000
0000
3200
0000
0000
0000
0320
0000
0000
0030
,  // measure 140
0022
0000
0030
1003
2020
0000
3030
0000
,  // measure 141
0220
0000
0030
0301
2002
0000
3003
0000
,  // measure 142
1100
0100
0010
0001
1001
1000
0010
0100
,  // measure 143
0001
0100
1000
0100
0001
0100
1000
0100
,  // measure 144
0101
0001
1000
0100
0110
0010
0001
1000
,  // measure 145
2020
3030
0202
0303
1001
0000
1000
0100
,  // measure 146
0110
0010
0001
1000
1010
0010
0100
0001
,  // measure 147
1000
0010
0001
0010
1000
0010
0001
0010
,  // measure 148
1010
1000
0001
0010
0110
0100
1000
0001
,  // measure 149
0202
0303
2020
3030
2002
3003
0110
0000
,  // measure 150
1001
0000
0001
0000
0011
0000
0020
0130
,  // measure 151
0000
0000
1000
0000
0200
0000
0310
0000
0200
0000
1300
0001
2000
0000
3010
0000
,  // measure 152
0200
0301
1000
0000
1200
0000
0310
0000
,  // measure 153
0001
0000
0000
0000
2001
0000
0000
0000
3010
0000
0100
0001
0200
0000
0310
0000
,  // measure 154
2020
0030
3001
0000
1001
0000
1000
0000
,  // measure 155
1010
0000
0020
0130
0000
0001
0000
1001
,  // measure 156
1000
0100
0000
0010
0100
0000
1000
0100
0000
0010
0100
0000
0220
0000
0300
0000
,  // measure 157
0002
0030
1003
0000
1020
0000
0130
0000
,  // measure 158
0202
0000
0000
0000
,  // measure 159
0000
0000
0000
0000
,  // measure 160
0000
0000
0000
0000
,  // measure 161
0000
0000
0000
0000
,  // measure 162
0303
0000
0000
0000
;

//---------------dance-single - Ace Of Hearts (2013)----------------
#NOTES:
     dance-single:
     Ace Of Hearts (2013):
     Challenge:
     11:
     1.000,0.000,1.000,1.000,0.260: // measure 1
0000
0000
0000
0000
,  // measure 2
0000
0000
0000
0000
,  // measure 3
0000
0000
0000
0000
,  // measure 4
0000
0000
0000
0000
,  // measure 5
0000
0000
0000
0000
,  // measure 6
0000
0000
0000
0000
,  // measure 7
0000
0000
0000
0000
,  // measure 8
0000
0000
0000
0000
,  // measure 9
0000
0000
0000
0000
,  // measure 10
2000
0000
3010
0000
0210
0000
0301
0000
1000
0100
1000
0000
1002
0000
0103
0000
,  // measure 11
0020
0000
1030
0000
1002
0000
0103
0000
0020
0000
1030
0001
2000
0000
3100
0000
,  // measure 12
0020
0000
0031
0000
2001
0000
3010
0100
0001
0100
0010
2000
0000
0000
3001
0000
,  // measure 13
0011
0000
0010
0100
1000
0001
0000
2002
0000
0000
0000
0000
3003
0000
0000
0000
,  // measure 14
2000
0000
3010
0000
0100
0000
0001
0000
2000
0000
3100
0010
0002
0000
1003
0000
,  // measure 15
0010
0000
0100
0000
0010
0000
1000
0000
0001
0000
0010
0100
2000
0000
3001
0000
,  // measure 16
0100
0000
0010
0000
2000
0000
3001
0000
2001
0000
3100
0010
0002
0000
2003
0000
,  // measure 17
3020
0130
0002
1003
0200
0310
0100
1000
,  // measure 18
2002
0000
3000
0000
0203
0000
0310
0000
1000
0000
0001
0010
0200
0000
1300
0000
,  // measure 19
0002
0103
0010
1000
0001
0010
0100
1000
,  // measure 20
0001
0010
0000
1000
0010
0000
0001
0010
0000
1000
0010
0000
0012
0000
0000
0000
,  // measure 21
2003
0010
3002
0103
,  // measure 22
0220
0000
0330
0000
0220
0000
0330
0000
0020
0000
0000
2030
0000
0000
3001
0000
,  // measure 23
0011
0010
0000
0220
0000
0330
2200
3300
,  // measure 24
2002
0000
3003
0000
2002
0000
3003
0000
0201
0000
0000
0320
0000
0000
1030
0010
,  // measure 25
0110
0100
0001
1001
0000
2000
0000
3000
,  // measure 26
2020
0000
3030
0000
2020
0000
3030
0000
0210
0000
0000
0302
0000
0000
1003
0000
,  // measure 27
1001
0002
0000
0203
0000
0300
0000
0000
,  // measure 28
0220
0000
0330
0000
0220
0000
0330
0000
2010
0000
3000
2002
0000
3003
0001
0000
,  // measure 29
0022
0000
0003
0000
0200
0000
0000
0030
1300
0100
0010
0001
0010
0100
1000
0001
,  // measure 30
2000
0000
0000
0000
0000
0000
3000
0000
1001
0000
0002
0000
1003
0010
0100
0010
,  // measure 31
2020
3030
2002
3003
0022
0033
0220
0330
,  // measure 32
2200
3300
2002
3003
0202
0303
2002
3003
,  // measure 33
2001
3200
0000
0310
0100
1000
0001
0100
,  // measure 34
0120
0000
1030
0002
0000
0000
0003
0000
,  // measure 35
0022
0033
2200
3300
2002
3003
0202
0303
,  // measure 36
0220
0000
0330
0000
2020
0000
0000
0000
3030
0000
0000
0000
0020
0000
0000
0030
,  // measure 37
0220
0000
0030
0301
2000
3100
0010
0001
,  // measure 38
2002
0000
0003
3010
0220
0000
0000
0330
,  // measure 39
0100
0001
0000
0100
0001
0000
0200
0002
0000
0000
0000
0000
0010
0000
0303
0000
,  // measure 40
1001
1000
0000
2200
3000
0310
0011
0001
,  // measure 41
2001
0000
3001
0202
0003
0310
1010
1000
,  // measure 42
1001
0002
0000
0013
0110
0100
1000
0001
,  // measure 43
0201
0000
0310
0000
1000
0000
0001
0000
0010
0000
0100
0000
1000
0100
0020
0030
,  // measure 44
0011
0002
0000
1003
1010
0010
0100
0001
,  // measure 45
2002
3003
2200
3300
0220
0330
2200
3300
,  // measure 46
0022
0000
0030
2003
0000
3010
0100
0102
,  // measure 47
0000
0000
1003
0100
0010
0001
0010
0001
0010
0100
1000
0100
1000
0001
1000
0001
,  // measure 48
0101
0100
0000
0220
0300
1030
0001
0010
,  // measure 49
0220
0030
1300
2002
3000
0103
0010
1000
,  // measure 50
1001
0002
0000
0103
0110
0010
1000
0001
,  // measure 51
0021
0130
1000
0001
0100
0010
1000
0001
,  // measure 52
0101
0200
0000
0310
1010
1000
0001
0010
,  // measure 53
0220
0330
2200
3300
2002
3003
0202
0303
,  // measure 54
0220
0000
0300
2030
0200
0000
3300
0000
,  // measure 55
0022
0000
0030
0203
0020
0000
0330
0000
,  // measure 56
1010
1000
1001
0001
0011
0010
0110
0100
,  // measure 57
1100
1000
1100
1000
1100
1000
1100
1000
,  // measure 58
1001
0001
0101
0100
0110
0010
1010
1000
,  // measure 59
2002
3003
0022
0033
2200
3300
1101
0000
,  // measure 60
1001
1000
1100
0100
0110
0010
0011
0001
,  // measure 61
0101
0100
0101
0100
0101
0100
0101
0100
,  // measure 62
0110
0010
1010
1000
1001
0001
0011
0010
,  // measure 63
0220
0330
2200
3300
2002
0000
0010
3003
,  // measure 64
0021
0000
0130
0000
1000
0000
0001
0000
0100
0000
0010
1000
0002
0000
0013
0000
,  // measure 65
0100
0000
1000
0000
0001
0000
0100
0000
0010
0000
1000
0001
0020
0000
0130
0000
,  // measure 66
1000
0000
0001
0000
0200
0000
0310
0000
2010
0000
3001
0010
0200
0000
1300
0000
,  // measure 67
0002
0000
0103
0000
0020
0000
1030
0000
0002
0000
0013
0100
2000
0000
3001
0000
,  // measure 68
0202
0000
0003
0000
0310
0000
1000
0000
0002
0000
1003
0100
0020
0000
0130
0000
,  // measure 69
2000
0000
3001
0000
0200
0000
0310
0000
2000
0000
3001
0100
0010
1000
0010
0100
,  // measure 70
0001
0100
0000
1000
0100
0000
0001
0100
0000
1000
0100
0000
0102
0000
0000
0000
,  // measure 71
2003
0000
0000
0000
0100
0000
0000
0000
3020
0000
0000
0030
0110
0000
0000
0000
,  // measure 72
0202
0000
0303
0000
0022
0000
0033
0000
0210
0000
0000
2300
0000
0000
3001
0000
,  // measure 73
0101
0200
0000
0020
0000
0330
0000
0000
,  // measure 74
2020
0000
3030
0000
2200
0000
3300
0000
0120
0000
0000
0032
0000
0000
1003
0000
,  // measure 75
1010
0010
0100
0102
0000
0020
0000
0033
,  // measure 76
0220
0000
0330
0000
2002
0000
3003
0000
0201
0000
0000
0320
0000
0000
1030
0000
,  // measure 77
1100
0100
0000
0020
0000
0030
0000
0000
,  // measure 78
0022
0000
0033
0000
2200
0000
3300
0000
1002
0000
0000
0103
0000
0000
0010
0000
,  // measure 79
2020
0000
0030
0000
0200
0000
3000
0000
0310
0001
1000
0010
1000
0001
0010
0100
,  // measure 80
2000
0000
0000
0000
0000
0000
0000
0000
3001
0000
0002
0000
0013
0100
1000
0100
,  // measure 81
0220
0330
0022
0033
2002
3003
0202
0303
,  // measure 82
0220
0330
2020
3030
2002
3003
0220
0330
,  // measure 83
1002
0000
0000
0023
0000
0000
0130
0000
1000
0000
0001
0000
0100
0000
0010
0000
,  // measure 84
2010
0000
0000
0000
3001
0000
0020
0000
0031
0010
0100
0010
0002
0000
1003
0000
,  // measure 85
2200
3300
0022
0033
2002
3003
0202
0303
,  // measure 86
2002
3003
2200
0000
3300
0000
0200
0300
,  // measure 87
0110
0020
0000
0031
1001
1000
0010
0100
,  // measure 88
0202
0000
0300
2003
0002
0000
3003
0000
,  // measure 89
1000
0100
0000
1000
0100
0000
2000
0200
0000
0000
0000
0000
0010
0000
3300
0000
,  // measure 90
1001
0001
0000
0021
0000
0130
1100
1000
,  // measure 91
1002
0000
0103
0220
0300
1030
1001
0001
,  // measure 92
0101
0200
0000
0310
1010
1000
0001
0010
,  // measure 93
0210
1300
0002
0103
0020
1030
0002
0013
,  // measure 94
0110
0200
0000
1300
1001
0001
0100
0010
,  // measure 95
2020
3030
2002
3003
2200
3300
0220
0330
,  // measure 96
0022
0000
0030
1003
1010
0010
0100
0101
,  // measure 97
0000
0000
0001
1000
0100
0010
0100
1000
0001
0010
0100
0010
0001
1000
0010
0100
,  // measure 98
0101
0001
0000
0022
0003
0130
1100
1000
,  // measure 99
2002
3000
0013
0220
0030
1300
1001
0001
,  // measure 100
0101
0200
0000
0310
1010
1000
0001
0010
,  // measure 101
0200
1300
0002
0103
0020
1030
0002
0013
,  // measure 102
0110
0200
0000
1300
1001
0001
0100
0010
,  // measure 103
2020
3030
2002
3003
2200
3300
0220
0330
,  // measure 104
2200
0000
0300
3020
0200
0000
0330
0000
,  // measure 105
0202
0000
0300
0023
0200
0000
0330
0000
,  // measure 106
1001
0001
1001
1000
1100
0100
0110
0010
,  // measure 107
0011
0001
0011
0001
0011
0001
0011
0001
,  // measure 108
1001
1000
1010
0010
0110
0100
0101
0001
,  // measure 109
2002
3003
2200
3300
0022
0033
1011
0000
,  // measure 110
1001
0001
1001
1000
1010
0010
0110
0010
,  // measure 111
1010
1000
1010
1000
1010
1000
1010
1000
,  // measure 112
1001
0001
0011
0010
0110
0100
1100
1000
,  // measure 113
2002
3003
0202
0303
2002
0000
0010
3003
,  // measure 114
2000
0000
3100
0000
0020
0000
0130
0000
2000
0000
3001
0010
0200
0000
1300
0000
,  // measure 115
0002
0000
1003
0010
0100
0001
2000
0000
,  // measure 116
3200
0310
0200
1300
0200
0310
0002
0200
,  // measure 117
1000
0010
1000
0303
,  // measure 118
1002
0000
1003
0010
0100
0001
0000
1000
0000
0100
0020
0000
0130
0000
1000
0000
,  // measure 119
0002
0000
0103
0010
2000
0000
3001
0100
0010
0100
0002
0000
1003
0000
0001
0010
,  // measure 120
0200
0000
1300
0000
0002
0000
0103
0010
2000
0000
3001
0000
0010
0000
0100
0000
,  // measure 121
2200
0000
0000
0000
0000
0000
0000
0000
0000
0000
0000
0000
0300
0000
0000
0000
0002
0000
0000
0000
0000
0000
0000
0000
0000
0000
0000
0000
0000
0000
0000
0003
0004
0000
0000
0000
0000
0000
0000
0000
0000
0000
0000
0000
0000
0000
0000
0000
3000
0000
0000
0000
0000
0000
0000
0000
0000
0000
0000
0000
0003
0000
0000
0000
,  // measure 122
0011
0020
0000
0130
1100
1000
1001
0001
0202
0000
0010
1000
0000
0000
0303
0001
,  // measure 123
1001
2000
0000
3100
0110
0010
0001
1000
2020
0000
0000
0000
3030
0000
0000
0010
,  // measure 124
0110
0200
0000
0301
1001
1000
0010
0100
0202
0303
2002
3003
2200
3300
0220
0330
,  // measure 125
0022
0000
0000
0000
0030
0000
2003
0000
0000
0000
3010
0000
0100
0000
0002
0000
0000
0003
2001
0000
3010
0100
0000
0000
0102
0000
1003
0100
0000
0010
0100
0000
,  // measure 126
1100
1000
0000
2020
3000
0130
0101
0001
,  // measure 127
0022
0003
0230
2000
0300
3001
0101
0100
,  // measure 128
0110
0020
0000
1030
1001
0001
0010
0100
,  // measure 129
2100
3001
0200
0310
2000
3001
0010
0100
,  // measure 130
1100
2000
0000
3001
0101
0100
0010
1000
,  // measure 131
2002
0000
3003
0000
2200
0000
3300
0000
0220
0000
0330
0000
0012
0000
1003
0010
,  // measure 132
0100
0202
0303
0001
1001
1000
0100
0110
,  // measure 133
0000
0000
0010
0100
1000
0100
0010
0001
1000
0010
0100
0001
1000
0001
0010
0100
,  // measure 134
1100
1000
0000
2020
3000
0130
0101
0001
,  // measure 135
2002
0003
3100
0220
0300
0031
1001
1000
,  // measure 136
1010
0020
0000
0130
0101
0001
1000
0020
,  // measure 137
0000
0230
0302
1003
0200
0310
0002
0013
,  // measure 138
0110
0200
0000
1300
1001
0001
0100
0010
,  // measure 139
2020
3030
2200
3300
0022
0033
0202
0303
,  // measure 140
2002
0000
0003
3020
0200
0000
0330
0000
,  // measure 141
0220
0000
0030
0302
2000
0000
3003
0000
,  // measure 142
1100
0100
0110
0010
0011
0001
1001
1000
,  // measure 143
1001
0001
1001
0001
1001
0001
1001
0001
,  // measure 144
0101
0100
0110
0010
1010
1000
1100
0100
,  // measure 145
0220
0330
0022
0033
2200
3300
1110
0000
,  // measure 146
0110
0010
0011
0001
1001
1000
1010
0010
,  // measure 147
0110
0100
0110
0100
0110
0100
0110
0100
,  // measure 148
0101
0001
1001
1000
1100
0100
0110
0010
,  // measure 149
0022
0033
2002
3003
0202
0000
0010
0303
,  // measure 150
0200
0000
0310
1000
0002
0000
0013
0000
0200
0000
1300
0001
0020
0000
0130
0000
,  // measure 151
2000
0000
3001
0000
0200
0000
0310
0000
2000
0000
3001
0010
0200
0000
1300
0000
,  // measure 152
0002
0000
1003
0000
0020
0000
0130
0000
0102
0000
1003
0100
0020
0000
0130
0000
,  // measure 153
1100
0000
1000
0001
0200
0000
0310
0000
2000
0000
3001
0010
0200
0000
0310
0000
,  // measure 154
0022
0000
0030
0000
1003
0000
0010
0000
0200
0000
0301
1000
0020
0000
1030
0000
,  // measure 155
0002
0000
0013
0000
0200
0000
1300
0000
0002
0000
0103
0010
2000
0000
3001
0000
,  // measure 156
0010
1000
0000
0010
0001
0000
0010
1000
0000
0010
0001
0000
2002
0000
0003
0000
,  // measure 157
0020
3000
0130
0000
0102
0000
1003
0000
,  // measure 158
2200
0000
0000
0000
,  // measure 159
0000
0000
0000
0000
,  // measure 160
0000
0000
0000
0000
,  // measure 161
0000
0000
0000
0000
,  // measure 162
3300
0000
0000
0000
;

//---------------dance-single - Ace Of Hearts (2013)----------------
#NOTES:
     dance-single:
     Ace Of Hearts (2013):
     Medium:
     7:
     0.522,0.000,0.041,0.879,0.045: // measure 1
0000
0000
0000
0000
,  // measure 2
0000
0000
0000
0000
,  // measure 3
0000
0000
0000
0000
,  // measure 4
0000
0000
0000
0000
,  // measure 5
0000
0000
0000
0000
,  // measure 6
0000
0000
0000
0000
,  // measure 7
0000
0000
0000
0000
,  // measure 8
0000
0000
0000
0000
,  // measure 9
0000
0000
0000
0000
,  // measure 10
0002
0000
0013
0000
0001
1000
0001
0000
,  // measure 11
2000
0000
3010
0000
1000
0001
1000
0000
,  // measure 12
0020
0000
1030
0000
0001
0010
0001
0000
,  // measure 13
1000
0000
0100
0000
2000
0000
0000
0002
0000
0000
0000
0000
3003
0000
0000
0000
,  // measure 14
1000
0000
0010
0000
1000
0000
0001
0010
,  // measure 15
0000
0000
0001
0000
1000
0010
1000
0000
,  // measure 16
0001
1000
0002
0013
,  // measure 17
0001
0020
0031
0000
,  // measure 18
2000
3200
2300
3002
,  // measure 19
2003
0000
3010
0100
0000
0001
0000
1000
,  // measure 20
0001
0000
0000
0000
0001
0000
0000
0001
0000
0000
1000
0000
0200
0000
0000
0000
,  // measure 21
0300
0010
0200
1300
,  // measure 22
0001
0000
0000
0000
0001
0000
0000
0000
1000
0000
0000
2000
0000
0000
3001
0000
,  // measure 23
0100
0001
0000
2000
0000
3000
0000
0000
,  // measure 24
0010
0000
0000
0000
0010
0000
0000
0000
0100
0000
0000
0200
0000
0000
0301
0000
,  // measure 25
1000
0001
1000
0200
0000
0320
0000
0030
,  // measure 26
0001
0000
0000
0000
0001
0000
0000
0000
1000
0000
0000
2000
0000
0000
3010
0000
,  // measure 27
1000
0020
0000
0230
0000
0300
0000
0000
,  // measure 28
0001
0000
0000
0000
0001
0000
0000
0000
1000
0000
0000
1000
0000
0000
0001
0000
,  // measure 29
0020
0230
4300
0000
,  // measure 30
3000
0000
0000
0000
0001
1000
0004
0000
,  // measure 31
0203
0320
2030
3002
,  // measure 32
0023
0230
2300
3000
,  // measure 33
0001
0200
0000
0301
1000
0001
0010
0001
,  // measure 34
0020
0000
0130
2000
0000
3000
0000
0000
,  // measure 35
0002
0203
0320
2030
,  // measure 36
3002
0023
0030
0002
,  // measure 37
2003
0000
0000
3001
0100
0001
0100
0010
,  // measure 38
2000
0000
0000
3001
0020
0000
0000
0030
,  // measure 39
0100
0000
0000
0000
0100
0000
0000
0200
0000
0000
0000
0000
0300
0000
0000
0000
,  // measure 40
2000
0000
0000
3002
0000
1003
0010
1000
,  // measure 41
0002
0000
1003
0200
0000
0300
0000
0010
,  // measure 42
0001
0020
0000
0031
1000
0001
1000
0010
,  // measure 43
0200
0000
0000
0000
0300
0000
0000
0001
,  // measure 44
0100
0002
0000
1003
0100
1000
0100
0010
,  // measure 45
0002
2003
3200
0320
,  // measure 46
0032
0000
0000
2003
0000
3010
0100
0020
,  // measure 47
0000
0430
0000
0000
0000
0000
0300
0000
,  // measure 48
0002
0000
0000
2003
0000
3100
0010
0100
,  // measure 49
2000
0000
3001
0200
0000
0300
0000
0010
,  // measure 50
1000
0020
0000
1030
0001
1000
0001
0010
,  // measure 51
0200
0000
0000
0000
0000
0300
0000
1000
,  // measure 52
0100
2000
0000
3001
0100
0001
0100
0010
,  // measure 53
2000
3002
0023
0230
,  // measure 54
2300
0000
0000
3001
0200
0000
0300
0000
,  // measure 55
0020
0000
0000
0130
0002
0000
0003
0000
,  // measure 56
1000
0100
1000
0000
0001
1000
0001
0000
,  // measure 57
0010
0001
0010
0001
0010
0000
0100
0000
,  // measure 58
1000
0001
1000
0000
0010
1000
0010
0000
,  // measure 59
0200
0301
1001
0000
,  // measure 60
1000
0100
1000
0000
0001
0100
0001
0000
,  // measure 61
1000
0010
1000
0010
1000
0000
0001
0000
,  // measure 62
0010
0100
0010
0000
0001
0010
0001
0000
,  // measure 63
2000
3010
0100
1001
,  // measure 64
0002
0000
0013
0000
0100
0000
2000
3001
,  // measure 65
0000
0000
0000
1000
0000
0010
1000
0010
,  // measure 66
0100
0001
2000
3010
,  // measure 67
0100
0002
1003
0100
,  // measure 68
0020
0130
1000
0001
,  // measure 69
0100
0000
0020
1030
0000
0001
0000
0100
,  // measure 70
0010
0000
0000
0000
0010
0000
0000
0010
0000
0000
1000
0000
0002
0000
0000
0000
,  // measure 71
0003
0010
0200
1300
,  // measure 72
0001
0000
0000
0000
0001
0000
0000
0000
2000
0000
0000
3020
0000
0000
1030
0000
,  // measure 73
0001
2000
0000
3200
0000
0300
0000
0000
,  // measure 74
0010
0000
0000
0000
0010
0000
0000
0000
0200
0000
0000
2300
0000
0000
3001
0000
,  // measure 75
0100
0001
1000
0100
0000
0020
0000
0030
,  // measure 76
0100
0000
0000
0000
0100
0000
0000
0000
2000
0000
0000
3002
0000
0000
0103
0000
,  // measure 77
0010
0200
0000
0302
0000
0003
0000
0000
,  // measure 78
1000
0000
0000
0000
1000
0000
0000
0000
0002
0000
0000
0023
0000
0000
0130
0000
,  // measure 79
2000
3002
0403
0000
,  // measure 80
0300
0000
0000
0000
0001
0001
4000
0000
,  // measure 81
3020
0230
0302
2003
,  // measure 82
3200
0320
0032
0003
,  // measure 83
2000
0000
0000
3020
0000
0000
0130
0000
0010
0000
1000
0000
0010
0000
1000
0000
,  // measure 84
0002
0000
0013
0200
0000
0300
0000
0000
,  // measure 85
0020
0032
2003
3020
,  // measure 86
0230
0302
0003
2000
,  // measure 87
3100
0010
0000
0100
0010
0100
0010
0001
,  // measure 88
2000
0000
0000
3001
0200
0000
0300
0000
,  // measure 89
0001
0000
0000
0000
0001
0000
0000
0002
0000
0000
0000
0000
0003
0000
0000
0000
,  // measure 90
2000
0000
0000
3020
0000
0130
0010
1000
,  // measure 91
0020
0000
0130
0002
0000
0003
0000
1000
,  // measure 92
0100
2000
0000
3001
0010
0001
0010
0100
,  // measure 93
2000
0000
0000
0000
3000
0000
0000
0001
,  // measure 94
0100
0002
0000
1003
0010
1000
0010
0100
,  // measure 95
0002
2003
3200
0320
,  // measure 96
0032
0000
0000
1003
0010
1000
0010
0200
,  // measure 97
0000
0304
0000
0000
0000
0000
0003
0000
,  // measure 98
0200
0000
0000
0320
0000
1030
0001
1000
,  // measure 99
0200
0000
0310
0002
0000
0003
0000
1000
,  // measure 100
0010
2000
0000
3001
0100
0001
0100
0010
,  // measure 101
0200
0000
0000
0000
0300
0000
0000
0001
,  // measure 102
0100
0002
0000
1003
0100
1000
0100
0010
,  // measure 103
0002
2003
3020
0230
,  // measure 104
0302
0000
0000
1003
0200
0000
0300
0000
,  // measure 105
0020
0000
0000
0130
2000
0000
3000
0000
,  // measure 106
0001
0100
0001
0000
1000
0100
1000
0000
,  // measure 107
0001
1000
0001
1000
0001
0000
0100
0000
,  // measure 108
0010
1000
0010
0000
0100
0001
0100
0000
,  // measure 109
0020
1030
1001
0000
,  // measure 110
0001
0010
0001
0000
1000
0100
1000
0000
,  // measure 111
0100
0010
0100
0010
0100
0000
1000
0000
,  // measure 112
0001
0100
0001
0000
1000
0010
1000
0000
,  // measure 113
0002
0013
0100
1001
,  // measure 114
1000
0010
1000
0000
0001
0010
0001
0000
,  // measure 115
2000
0000
3020
0000
0130
0010
0200
0000
,  // measure 116
0301
1000
0001
0000
1000
0010
1000
0000
,  // measure 117
1001
0011
2200
3300
,  // measure 118
1000
0000
0000
0000
1000
0000
0000
2000
0000
0000
3001
0000
0100
0000
0000
0000
,  // measure 119
0010
0000
0000
0000
0010
0000
0000
0010
0000
0000
0100
0000
0002
0000
0000
0000
,  // measure 120
1003
0100
1000
0000
0001
1000
0002
0000
,  // measure 121
0023
0000
0000
0000
0000
0000
0000
0000
0000
0000
0000
0000
0000
0000
0000
0000
0000
0000
0000
0000
0000
0000
0000
0000
0000
0000
0000
0000
0000
0000
0000
0030
0040
0000
0000
0000
0000
0000
0000
0000
0000
0000
0000
0000
0000
0000
0000
0000
0000
0000
0000
0000
0000
0000
0000
0000
0030
0000
0000
0000
0000
0000
0000
0000
,  // measure 122
0002
0000
0000
2003
0000
0000
3010
0000
0200
0000
0000
0002
0000
0303
0000
0000
,  // measure 123
0002
0000
1003
0100
2000
0000
3000
0000
,  // measure 124
0020
0030
1000
0001
2000
3200
0320
0032
,  // measure 125
2003
0000
0000
3020
0000
0000
0130
0002
0000
2000
0000
0000
0000
3003
0000
0000
,  // measure 126
2000
0000
0000
3200
0000
0310
0100
0010
,  // measure 127
0002
0000
1003
0200
0000
0300
0000
0010
,  // measure 128
0100
0020
0000
0031
1000
0001
1000
0010
,  // measure 129
0200
0000
0000
0000
0300
0000
0000
0001
,  // measure 130
1000
0002
0000
0013
0100
0010
0100
1000
,  // measure 131
0002
0000
2003
0000
3200
0000
0320
0030
,  // measure 132
0000
0200
0000
1300
0001
1000
0010
0200
,  // measure 133
0000
0304
0000
0000
0000
0000
0003
0000
,  // measure 134
2000
0000
0000
3020
0000
1030
0001
0010
,  // measure 135
0200
0000
1300
0002
0000
0003
0000
1000
,  // measure 136
0010
2000
0000
3001
0100
0001
0100
0020
,  // measure 137
0000
4030
0000
0000
0000
3000
0000
0001
,  // measure 138
0010
0002
0000
1003
0100
0010
0100
1000
,  // measure 139
0002
2003
3020
0230
,  // measure 140
0302
0000
0000
1003
0200
0000
0300
0000
,  // measure 141
0020
0000
0000
0130
2000
0000
3000
0000
,  // measure 142
0001
0100
0001
0000
1000
0010
1000
0000
,  // measure 143
0010
0100
0010
0100
0010
0000
1000
0000
,  // measure 144
0001
0010
0001
0000
1000
0100
1000
0000
,  // measure 145
0002
0103
0110
0000
,  // measure 146
0010
1000
0010
0000
0100
0001
0100
0000
,  // measure 147
0001
1000
0001
1000
0001
0000
0010
0000
,  // measure 148
0100
1000
0100
0000
0010
0001
0010
0000
,  // measure 149
0200
1300
0001
1001
,  // measure 150
1000
0000
0010
0000
0100
0000
0002
1003
,  // measure 151
0000
0000
0010
1000
0020
0000
0130
0000
,  // measure 152
0001
1000
0200
0310
,  // measure 153
0100
2000
3001
1000
,  // measure 154
0020
0130
0001
1000
,  // measure 155
0100
0000
0020
0130
0000
1000
0000
0001
,  // measure 156
1000
0000
0000
0000
1000
0000
0000
2000
0000
0000
3001
0000
0020
0000
0000
0000
,  // measure 157
0030
0100
2000
3001
,  // measure 158
0022
0000
0000
0000
,  // measure 159
0000
0000
0000
0000
,  // measure 160
0000
0000
0000
0000
,  // measure 161
0000
0000
0000
0000
,  // measure 162
0033
0000
0000
0000
;

//---------------dance-single - Ace Of Hearts (2013)----------------
#NOTES:
     dance-single:
     Ace Of Hearts (2013):
     Easy:
     5:
     0.230,0.000,0.008,0.200,0.000: // measure 1
0000
0000
0000
0000
,  // measure 2
0000
0000
0000
0000
,  // measure 3
0000
0000
0000
0000
,  // measure 4
0000
0000
0000
0000
,  // measure 5
0000
0000
0000
0000
,  // measure 6
0000
0000
0000
0000
,  // measure 7
0000
0000
0000
0000
,  // measure 8
0000
0000
0000
0000
,  // measure 9
0000
0000
0000
0000
,  // measure 10
1000
1000
1000
0000
,  // measure 11
0010
0010
0010
0000
,  // measure 12
0100
0100
0100
0000
,  // measure 13
0001
1000
2002
3003
,  // measure 14
0001
0000
0001
0000
0002
0000
0000
0003
,  // measure 15
0000
0000
0000
1000
0000
0000
0000
0000
,  // measure 16
0000
0010
0010
0010
,  // measure 17
1000
1000
1000
0000
,  // measure 18
0001
0001
0001
0000
,  // measure 19
0010
0000
0000
0100
0000
0100
0000
0100
,  // measure 20
0000
0000
0000
2000
,  // measure 21
3000
0000
0000
0000
,  // measure 22
0001
0001
0001
0000
,  // measure 23
0100
0000
0000
0200
0000
0000
0300
0000
,  // measure 24
0010
0010
0010
0000
,  // measure 25
1000
0000
0000
1000
0000
0000
0000
0000
,  // measure 26
0001
0001
0001
0000
,  // measure 27
0010
0000
0000
0020
0000
0000
0030
0000
,  // measure 28
0100
0100
0100
0000
,  // measure 29
1000
2000
0000
0000
,  // measure 30
3000
0000
0000
0000
,  // measure 31
0001
0001
0001
0000
,  // measure 32
0100
0100
0100
0000
,  // measure 33
0010
0000
0010
0000
,  // measure 34
1000
0000
0000
1000
0000
0000
0000
0000
,  // measure 35
0001
0001
0001
0000
,  // measure 36
0010
0020
0030
0001
,  // measure 37
0002
0003
1000
1000
,  // measure 38
2000
3000
0002
0003
,  // measure 39
0010
0010
0020
0030
,  // measure 40
0200
0000
0000
0300
0000
0000
0000
0000
,  // measure 41
1000
0000
0000
2000
0000
3000
0000
0000
,  // measure 42
0001
0000
0100
0100
,  // measure 43
0200
0000
0300
0000
,  // measure 44
0010
0000
1000
0000
,  // measure 45
0001
0001
0001
0000
,  // measure 46
2000
0000
0000
3000
0000
0000
0000
0100
,  // measure 47
0000
0400
0000
0000
0000
0000
0300
0000
,  // measure 48
0010
0000
0000
0020
0000
0000
0030
0000
,  // measure 49
0001
0000
0000
0002
0000
0000
0003
0000
,  // measure 50
1000
0000
0100
0100
,  // measure 51
0200
0000
0300
0000
,  // measure 52
0010
0000
0001
0000
,  // measure 53
1000
1000
1000
0000
,  // measure 54
0020
0000
0030
0000
,  // measure 55
0200
0000
0300
0000
,  // measure 56
0001
0000
0001
0000
,  // measure 57
1000
1000
1000
0000
,  // measure 58
0010
0000
0010
0000
,  // measure 59
0100
0100
0100
0000
,  // measure 60
0001
0000
0001
0000
,  // measure 61
1000
1000
1000
0000
,  // measure 62
0001
0000
0001
0000
,  // measure 63
0010
0010
0010
0000
,  // measure 64
0001
0001
0001
0000
,  // measure 65
0000
0000
0000
1000
0000
0000
0000
0000
,  // measure 66
0000
0100
0100
0100
,  // measure 67
0010
0010
0010
0000
,  // measure 68
0001
0001
0001
0000
,  // measure 69
1000
0000
0000
1000
0000
0000
0000
1000
,  // measure 70
0000
0000
0000
0020
,  // measure 71
0030
0000
0000
0000
,  // measure 72
0100
0100
0100
0000
,  // measure 73
0001
0000
0000
0002
0000
0000
0003
0000
,  // measure 74
1000
1000
1000
0000
,  // measure 75
0010
0000
0000
0010
0000
0000
0000
0000
,  // measure 76
0100
0100
0100
0000
,  // measure 77
0001
0000
0000
0002
0000
0000
0003
0000
,  // measure 78
1000
1000
1000
0000
,  // measure 79
0100
0100
0400
0000
,  // measure 80
0300
0000
0000
0000
,  // measure 81
0010
0010
0010
0000
,  // measure 82
0001
0001
0001
0000
,  // measure 83
1000
0000
0010
0000
,  // measure 84
0100
0000
0000
0200
0000
0000
0300
0000
,  // measure 85
0001
0001
0001
0000
,  // measure 86
1000
2000
3000
0100
,  // measure 87
0200
0300
0010
0010
,  // measure 88
0010
0000
0020
0030
,  // measure 89
0100
0100
0200
0300
,  // measure 90
2000
0000
0000
3000
0000
0000
0000
0000
,  // measure 91
0001
0000
0000
0002
0000
0003
0000
0000
,  // measure 92
0100
0000
0010
0010
,  // measure 93
0020
0000
0030
0000
,  // measure 94
1000
0000
0001
0000
,  // measure 95
0100
0100
0100
0000
,  // measure 96
0010
0000
0000
0010
0000
0000
0000
1000
,  // measure 97
0000
4000
0000
0000
0000
0000
3000
0000
,  // measure 98
0002
0000
0000
0003
0000
0000
0000
0000
,  // measure 99
0100
0000
0000
0200
0000
0300
0000
0000
,  // measure 100
0010
0000
1000
1000
,  // measure 101
2000
0000
3000
0000
,  // measure 102
0001
0000
0010
0000
,  // measure 103
0100
0100
0100
0000
,  // measure 104
0020
0000
0030
0000
,  // measure 105
0002
0000
0003
0000
,  // measure 106
1000
0000
1000
0000
,  // measure 107
0010
0010
0010
0000
,  // measure 108
0100
0000
0100
0000
,  // measure 109
0001
0001
0001
0000
,  // measure 110
1000
0000
1000
0000
,  // measure 111
0100
0100
0100
0000
,  // measure 112
0010
0000
0010
0000
,  // measure 113
0001
0001
0001
0000
,  // measure 114
1000
1000
1000
0000
,  // measure 115
0010
0010
0010
0000
,  // measure 116
1000
1000
1000
0000
,  // measure 117
0001
0001
0002
0003
,  // measure 118
0400
0000
0300
0000
,  // measure 119
0040
0000
0030
0000
,  // measure 120
4000
0000
3000
0000
,  // measure 121
0004
0000
0000
0003
,  // measure 122
1000
1000
2000
3000
,  // measure 123
0100
0100
0200
0300
,  // measure 124
1000
1000
2000
3000
,  // measure 125
0002
0003
0200
0300
,  // measure 126
0010
0000
0000
0010
0000
0000
0000
0000
,  // measure 127
0100
0000
0000
0200
0000
0000
0300
0000
,  // measure 128
0001
0000
1000
1000
,  // measure 129
2000
0000
3000
0000
,  // measure 130
0001
0000
0010
0000
,  // measure 131
0100
0100
0100
0000
,  // measure 132
0000
1000
0000
0000
1000
0000
0000
0001
,  // measure 133
0000
0004
0000
0000
0000
0000
0003
0000
,  // measure 134
1000
0000
0000
1000
0000
0000
0000
0000
,  // measure 135
0010
0000
0000
0020
0000
0000
0030
0000
,  // measure 136
0100
0000
0000
0000
0001
0000
0000
0001
,  // measure 137
0000
0004
0000
0000
0000
0003
0000
0000
,  // measure 138
1000
0000
0100
0000
,  // measure 139
0010
0010
0010
0000
,  // measure 140
0001
0000
0001
0000
,  // measure 141
1000
0000
1000
0000
,  // measure 142
0010
0010
0010
0000
,  // measure 143
1000
1000
1000
1000
,  // measure 144
1000
0000
0001
0000
,  // measure 145
0010
0010
0010
0000
,  // measure 146
0100
0100
0100
0000
,  // measure 147
0010
0010
0010
0010
,  // measure 148
0010
0000
0001
0000
,  // measure 149
1000
1000
1000
0000
,  // measure 150
0010
0000
0010
0000
0010
0000
0000
0010
,  // measure 151
0000
0000
0000
0100
0000
0000
0000
0000
,  // measure 152
0000
0001
0001
0001
,  // measure 153
1000
1000
1000
0000
,  // measure 154
0100
0100
0100
0000
,  // measure 155
0010
0000
0000
0010
0000
0000
0000
0010
,  // measure 156
0000
0000
0000
0002
,  // measure 157
0003
1000
1000
1000
,  // measure 158
2002
0000
0000
0000
,  // measure 159
0000
0000
0000
0000
,  // measure 160
0000
0000
0000
0000
,  // measure 161
0000
0000
0000
0000
,  // measure 162
3003
0000
0000
0000
;

//---------------dance-single - Ace Of Hearts (2013)----------------
#NOTES:
     dance-single:
     Ace Of Hearts (2013):
     Beginner:
     2:
     0.158,0.000,0.004,0.233,0.000: // measure 1
0000
0000
0000
0000
,  // measure 2
0000
0000
0000
0000
,  // measure 3
0000
0000
0000
0000
,  // measure 4
0000
0000
0000
0000
,  // measure 5
0000
0000
0000
0000
,  // measure 6
0000
0000
0000
0000
,  // measure 7
0000
0000
0000
0000
,  // measure 8
0000
0000
0000
0000
,  // measure 9
0000
0000
0000
0000
,  // measure 10
0001
0000
0001
0000
,  // measure 11
0002
0000
0003
0000
,  // measure 12
1000
0000
1000
0000
,  // measure 13
2000
0000
3000
0000
,  // measure 14
0010
0000
0010
0000
,  // measure 15
0010
0000
0000
0000
,  // measure 16
0100
0000
0100
0000
,  // measure 17
0200
0000
0300
0000
,  // measure 18
0001
0000
0001
0000
,  // measure 19
0002
0000
0000
0000
,  // measure 20
0003
0000
0000
2000
,  // measure 21
3000
0000
0000
0000
,  // measure 22
0010
0000
0010
0000
,  // measure 23
0010
0000
0000
0000
,  // measure 24
0100
0000
0100
0000
,  // measure 25
0100
0000
0000
0000
,  // measure 26
0001
0000
0001
0000
,  // measure 27
0001
0000
0000
0000
,  // measure 28
1000
0000
1000
0000
,  // measure 29
2000
0000
0000
0000
,  // measure 30
3000
0000
0000
0000
,  // measure 31
0010
0000
0010
0000
,  // measure 32
0020
0000
0030
0000
,  // measure 33
0100
0000
0100
0000
,  // measure 34
0200
0000
0300
0000
,  // measure 35
0001
0000
0001
0000
,  // measure 36
0001
0000
0000
0000
,  // measure 37
1000
0000
1000
0000
,  // measure 38
2000
0000
3000
0000
,  // measure 39
0000
0000
0000
0000
,  // measure 40
0001
0000
0001
0000
,  // measure 41
0002
0000
0003
0000
,  // measure 42
0100
0000
0100
0000
,  // measure 43
0200
0000
0300
0000
,  // measure 44
0010
0000
0010
0000
,  // measure 45
0010
0000
0000
0000
,  // measure 46
1000
0000
1000
0000
,  // measure 47
4000
0000
3000
0000
,  // measure 48
0001
0000
0001
0000
,  // measure 49
0002
0000
0003
0000
,  // measure 50
0010
0000
0010
0000
,  // measure 51
0020
0000
0030
0000
,  // measure 52
0100
0000
0100
0000
,  // measure 53
0200
0000
0300
0000
,  // measure 54
2000
0000
3000
0000
,  // measure 55
2000
0000
3000
0000
,  // measure 56
0001
0000
0001
0000
,  // measure 57
0004
0000
0003
0000
,  // measure 58
0010
0000
0010
0000
,  // measure 59
0020
0000
0030
0000
,  // measure 60
0100
0000
0100
0000
,  // measure 61
0400
0000
0300
0000
,  // measure 62
1000
0000
1000
0000
,  // measure 63
2000
0000
3000
0000
,  // measure 64
0001
0000
0001
0000
,  // measure 65
0001
0000
0000
0000
,  // measure 66
1000
0000
1000
0000
,  // measure 67
1000
0000
0000
0000
,  // measure 68
0010
0000
0010
0000
,  // measure 69
0020
0000
0000
0000
,  // measure 70
0030
0000
0000
0200
,  // measure 71
0300
0000
0000
0000
,  // measure 72
0001
0000
0001
0000
,  // measure 73
0002
0000
0003
0000
,  // measure 74
1000
0000
1000
0000
,  // measure 75
2000
0000
3000
0000
,  // measure 76
0100
0000
0100
0000
,  // measure 77
0200
0000
0300
0000
,  // measure 78
0010
0000
0010
0000
,  // measure 79
0020
0000
0000
0000
,  // measure 80
0030
0000
0000
0000
,  // measure 81
0001
0000
0001
0000
,  // measure 82
0002
0000
0003
0000
,  // measure 83
1000
0000
1000
0000
,  // measure 84
2000
0000
3000
0000
,  // measure 85
0100
0000
0100
0000
,  // measure 86
0200
0300
0000
0000
,  // measure 87
0010
0000
0010
0000
,  // measure 88
0020
0000
0030
0000
,  // measure 89
0000
0000
0000
0000
,  // measure 90
0001
0000
0001
0000
,  // measure 91
0002
0000
0003
0000
,  // measure 92
1000
0000
1000
0000
,  // measure 93
2000
0000
3000
0000
,  // measure 94
0010
0000
0010
0000
,  // measure 95
0020
0000
0030
0000
,  // measure 96
0100
0000
0100
0000
,  // measure 97
0400
0000
0300
0000
,  // measure 98
0001
0000
0001
0000
,  // measure 99
0002
0000
0003
0000
,  // measure 100
1000
0000
1000
0000
,  // measure 101
2000
0000
3000
0000
,  // measure 102
0100
0000
0100
0000
,  // measure 103
0200
0000
0300
0000
,  // measure 104
0020
0000
0030
0000
,  // measure 105
0020
0000
0030
0000
,  // measure 106
0100
0000
0100
0000
,  // measure 107
0400
0000
0300
0000
,  // measure 108
1000
0000
1000
0000
,  // measure 109
2000
0000
3000
0000
,  // measure 110
0001
0000
0001
0000
,  // measure 111
0004
0000
0003
0000
,  // measure 112
0100
0000
0100
0000
,  // measure 113
0200
0000
0300
0000
,  // measure 114
0010
0000
0010
0000
,  // measure 115
0020
0000
0030
0000
,  // measure 116
1000
0000
1000
0000
,  // measure 117
1000
0000
1000
0000
,  // measure 118
0004
0000
0003
0000
,  // measure 119
4000
0000
3000
0000
,  // measure 120
0040
0000
0030
0000
,  // measure 121
0400
0000
0300
0000
,  // measure 122
0001
0001
0002
0003
,  // measure 123
1000
1000
2000
3000
,  // measure 124
0100
0100
0200
0300
,  // measure 125
0010
0010
0020
0030
,  // measure 126
0001
0000
0001
0000
,  // measure 127
0002
0000
0003
0000
,  // measure 128
1000
0000
1000
0000
,  // measure 129
2000
0000
3000
0000
,  // measure 130
0100
0000
0100
0000
,  // measure 131
0200
0000
0300
0000
,  // measure 132
0010
0000
0010
0000
,  // measure 133
0040
0000
0030
0000
,  // measure 134
0100
0000
0100
0000
,  // measure 135
0200
0000
0300
0000
,  // measure 136
1000
0000
1000
0000
,  // measure 137
2000
0000
3000
0000
,  // measure 138
0001
0000
0001
0000
,  // measure 139
0002
0000
0003
0000
,  // measure 140
0200
0000
0300
0000
,  // measure 141
0200
0000
0300
0000
,  // measure 142
0010
0000
0010
0000
,  // measure 143
0040
0000
0000
0030
,  // measure 144
1000
0000
1000
0000
,  // measure 145
2000
0000
3000
0000
,  // measure 146
0001
0000
0001
0000
,  // measure 147
0004
0000
0000
0003
,  // measure 148
0100
0000
0100
0000
,  // measure 149
0200
0000
0300
0000
,  // measure 150
0010
0000
0010
0000
,  // measure 151
0010
0000
0000
0000
,  // measure 152
1000
0000
1000
0000
,  // measure 153
1000
0000
0000
0000
,  // measure 154
0001
0000
0001
0000
,  // measure 155
0002
0000
0000
0000
,  // measure 156
0003
0000
0000
2000
,  // measure 157
3000
0000
0000
0000
,  // measure 158
2002
0000
0000
0000
,  // measure 159
0000
0000
0000
0000
,  // measure 160
0000
0000
0000
0000
,  // measure 161
0000
0000
0000
0000
,  // measure 162
3003
0000
0000
0000
;
