#TITLE:Hardware Store;
#SUBTITLE:;
#ARTIST:Weird Al Yankovic;
#TITLETRANSLIT:;
#SUBTITLETRANSLIT:;
#ARTISTTRANSLIT:;
#GENRE:;
#CREDIT:Ace Of Hearts;
#BANNER:Hardware Store - Bn.png;
#BACKGROUND:Hardware Store - Bg.jpg;
#LYRICSPATH:;
#CDTITLE:Ace Of Hearts.png;
#MUSIC:Hardware store.ogg;
#OFFSET:0.120;
#SAMPLESTART:54.700;
#SAMPLELENGTH:12.000;
#SELECTABLE:YES;
#BPMS:0.000=127.180,452.000=63.590,456.000=127.180;
#STOPS:;
#BGCHANGES:;
#FGCHANGES:;
#KEYSOUNDS:;

//---------------dance-single - Expert----------------
#NOTES:
     dance-single:
     Ace Of Hearts (2013):
     Challenge:
     13:
     0.932,0.000,0.190,1.000,1.000:
0000
0000
0000
0000
,
0000
0000
0000
0000
,
0000
0000
0000
0000
,
0000
0000
0000
0000
,
0000
0000
0000
0000
,
0M00
0000
0M00
0000
00M0
0000
000M
000M
,
M000
0000
00M0
00M0
0M00
0000
000M
000M
,
M000
M000
M000
0000
0M00
0000
00M0
00M0
,
0M00
0M00
0M00
0000
M000
0000
000M
000M
,
0101
0000
0000
0000
0100
0000
0000
0000
0110
0000
0000
0020
0000
0000
2030
3000
,
1001
0000
0000
0000
0001
0000
0000
0000
0011
0000
0000
0020
0000
0000
0230
0300
,
1100
0000
0000
0000
1000
0000
0000
0000
1001
0000
0000
0002
0000
0000
0203
0000
,
0320
0000
2030
0000
3002
0000
0203
0000
0301
1000
0010
1000
0002
0000
1003
0100
,
0020
0000
0031
0010
0100
1000
0001
1000
0010
0100
0010
1000
0002
0000
1003
0010
,
0100
0000
01M0
0000
02M0
0000
0301
1000
0001
1000
0001
1000
0002
0000
0013
0100
,
2000
0000
3001
0020
0000
0031
1000
0010
1000
0001
1000
0020
0000
0130
0001
0100
,
0010
0200
0000
0002
0000
M010
0000
10M0
,
0303
0000
0200
0000
0302
0000
1003
0010
0100
0010
1000
0001
1000
0000
200M
0000
,
0000
3001
0010
0100
0020
0000
0031
1000
0100
0010
0100
1000
0002
0000
1003
0010
,
0200
0000
0310
0200
0000
0301
0100
0010
2000
0000
3001
2000
0000
3100
0010
0001
,
0010
0200
0000
20M0
0000
001M
0000
00M1
,
3300
0000
1000
0000
0002
0000
1003
0010
0100
0010
2000
0M00
3010
0M00
0020
0230
,
0000
0301
1000
0100
0020
0000
0130
2000
0000
3001
0100
0010
0200
0000
0301
1000
,
0020
0000
1030
0020
0000
1030
0001
1000
0100
0010
0100
0000
2000
0000
3001
0100
,
0020
2030
0000
00M2
0000
0M10
0000
01M0
,
3003
0000
0000
0000
1000
0000
0010
0000
0200
0000
0000
0000
0310
0000
2000
0000
0000
0000
3001
0000
0010
0000
0100
0000
2000
0000
0000
0000
3002
0000
0000
0M00
,
0000
1003
0010
0100
0010
1000
0001
0010
0100
1000
0100
0010
0002
0000
1003
0020
,
0000
1030
0001
1000
0200
0000
0310
0002
0000
1003
0010
0100
0002
0000
1003
0100
,
0010
0200
0000
2300
0000
3002
0003
0011
,
0000
0000
M002
0000
0000
02M0
0000
0003
200M
0300
0M00
0002
0000
3000
M023
0000
,
003M
0000
200M
0000
0000
02M0
0000
3000
M002
0000
0300
20M0
0000
0003
3M20
0000
,
0M30
0000
0012
0000
1003
0020
0000
0030
0210
0000
0302
2003
0000
3200
0000
0300
,
0022
0000
0033
2002
0000
3003
2020
0000
0030
0000
3001
0010
0100
1000
0100
0010
,
0002
0000
2003
0000
3010
0100
0010
1000
0001
1000
0001
0010
0100
1000
0100
0010
,
0001
1000
0010
1000
00M2
0000
0M23
0000
203M
0000
3M20
0000
M032
0000
20M3
0000
,
302M
0000
1030
0010
0100
0010
1000
0001
0010
0100
1000
0001
0100
0010
0100
0001
,
2000
0020
3030
2022
0000
0000
0000
3030
,
2000
0000
3000
0000
0200
0000
0300
0000
2003
0000
3010
0100
0002
0000
1003
0100
,
0010
0000
0001
0000
1000
0000
0010
0000
1000
0010
1000
0001
0000
0001
0020
0000
,
0130
0000
1000
0000
0001
0000
0100
0000
0010
1000
0010
0100
0000
0100
0002
0000
,
1003
0000
0100
0000
0010
0000
0100
0000
1000
0001
1000
0010
0000
0010
0200
0000
,
0302
0000
0023
0000
0230
0000
2300
0000
3002
0000
0103
0010
0100
0001
1000
0001
,
0020
0000
0130
1000
0001
1000
0010
1000
0001
0010
0100
1000
0002
0000
0013
0100
,
0010
0100
0010
0200
000M
0000
1300
0001
0100
0001
1000
0001
0020
0000
0130
1000
,
0002
0000
1003
0002
0000
1003
0100
0010
0200
0000
0310
0200
0000
1300
0001
0100
,
0001
1000
0010
200M
0000
0M22
0033
01M1
,
3000
0000
1000
0001
0020
0000
0031
0010
0100
1000
0100
0010
0001
0000
M002
0000
,
0000
0000
1003
0000
0010
0000
0100
0000
0020
000M
0000
0000
1030
0000
0001
0000
0010
0000
0100
0000
1000
0000
0100
0000
0010
0000
0001
0000
1000
0000
0001
0000
,
M000
000M
1000
0010
0100
0000
0002
0000
1003
0100
1000
0100
0020
0000
0130
1000
,
0002
0203
0000
0302
0000
2M20
3030
11M0
,
0003
0000
0001
1000
0020
0000
0230
0000
0301
1000
0100
1000
0002
0000
0203
0000
,
0000
0000
0310
0000
2000
0000
0000
0000
3001
0000
0010
0000
0001
0000
1000
0000
0001
0000
1000
0000
0100
0000
0010
0000
0100
00M0
0000
0M00
0020
0000
0000
0000
,
0000
0031
1000
0100
0010
0001
1000
0010
0100
0001
1000
0100
0020
0000
0031
1000
,
0001
0M01
200M
02M0
0000
002M
0030
00M2
,
3303
0000
1000
0001
0100
0010
0100
0001
1000
0001
0020
0000
0230
0000
2300
00M0
,
3000
0001
0200
0000
0320
0000
1030
0001
0100
0020
0000
0230
0000
0301
2000
0000
,
3002
0000
0013
0200
0000
1300
0001
1000
0020
0000
0130
0020
0000
1030
0001
0010
,
0200
2300
0000
3002
0000
0200
0303
1111
,
0000
0000
200M
0000
0000
02M0
0000
3000
M002
0000
0300
0M20
0000
0003
203M
0000
,
3000
0000
0M02
0000
0000
M200
0000
0003
20M0
0300
0000
002M
0000
3000
0M32
0000
,
M003
0000
1002
0000
0103
0020
0000
0030
2010
0000
3002
0023
0000
0230
0000
0300
,
2200
0000
3300
2002
0000
3003
0022
0000
0030
0000
1003
0010
0100
0001
0100
0010
,
2000
0000
3020
0000
0130
0001
1000
0100
0010
0001
1000
0010
1000
0001
0100
0010
,
1000
0001
0010
0100
200M
0000
3M20
0000
M032
0000
20M3
0000
320M
0000
M302
0000
,
10M3
0100
0010
0001
0010
0100
1000
0001
1000
0010
0100
0010
1000
0001
0010
0001
,
2000
0002
3003
2202
0000
0000
0000
0303
,
0002
0000
0003
0000
0200
0000
0300
0000
3001
0100
0020
0000
1030
0001
0100
0001
,
2000
0000
3002
0000
0013
0100
1000
0001
0100
0010
1000
0001
0010
0100
1000
0001
,
0100
0010
1000
0001
2M00
0000
302M
0000
0M32
0000
M023
0000
203M
0000
3M02
0000
,
0013
0100
1000
0001
0100
0010
1000
0001
0010
0100
1000
0001
0100
0010
1000
0001
,
2000
0200
3300
0222
0000
0000
0000
0330
,
2000
0000
3000
0000
0200
0000
0300
0000
1003
0010
0200
0000
0301
1000
0100
0010
,
0100
0000
2000
0000
3001
0000
0100
0010
0000
0010
0200
0000
0301
0000
2000
0000
,
3001
0000
0020
0000
0130
0000
1000
0001
0000
0001
0200
0000
0310
0000
2000
0000
,
3001
0000
0020
0000
0031
0000
1000
0010
0000
0010
0200
0000
0301
0000
2000
0000
,
3100
0000
0020
0000
0130
0000
1000
0001
0000
0001
0200
0000
0310
0000
2000
0000
,
3001
0000
0020
0000
0130
0000
1000
0100
0000
0100
0020
0000
0031
0000
2000
3000
,
2200
0000
0000
0000
0000
0000
0000
0000
0000
3300
0000
0000
0000
0000
0000
0000
0000
0000
1000
0000
0001
0000
0010
0000
,
0000
0001
1000
0000
0001
0000
0000
0000
0202
0000
0000
0000
0303
0000
0000
0000
,
0000
0000
0000
0000
0000
0000
0000
0000
0000
0000
0000
0000
0000
0100
0001
0000
,
1000
0010
1000
0010
0100
0001
0100
0001
1000
0100
1000
0001
0010
0001
0010
0001
,
1000
0010
1000
0010
0100
0001
0100
0001
1000
0001
1000
0100
0010
0100
0010
0100
,
1000
0100
1000
0100
0010
0001
0010
0001
1000
0001
1000
0001
0100
0010
0100
0010
,
1000
0001
1000
0001
0010
0100
0010
0100
1000
0100
0010
0001
0010
0100
1000
0001
,
1000
0010
1000
0010
0100
0001
0100
0001
1000
0100
1000
0100
0010
0001
1000
0010
,
0100
0001
0100
0010
1000
0001
1000
0001
0010
0100
0010
0001
1000
0100
1000
0100
,
0010
0001
0010
0001
1000
0100
0010
0001
0010
0100
1000
0001
1000
0010
1000
0010
,
0100
0001
0100
0001
1000
0100
1000
0100
0010
0001
0010
0001
1000
0001
1000
0001
,
0100
0010
1000
0001
1000
0010
0100
0001
1000
0100
0010
0001
0010
0100
1000
0001
,
1000
0010
1000
0010
0100
0001
1000
0100
1000
0001
0100
0001
1000
0001
0100
0001
,
1000
0100
1000
0100
0010
0001
0010
0001
1000
0001
1000
0001
0100
0010
0100
0010
,
1000
0010
1000
0001
0010
0001
1000
0001
0010
0001
1000
0100
0010
0001
1000
0010
,
0100
0001
1000
0010
0100
0001
1000
0100
0010
0001
1000
0010
0100
0001
1000
0100
,
0010
0100
1000
0001
0010
0100
0010
0001
1000
0010
0100
0010
1000
0001
0100
0010
,
0100
0001
1000
0100
0010
0001
0010
0100
1000
0001
1000
0010
0100
0001
0100
0010
,
1000
0001
1000
0001
0010
0100
0010
0100
1000
0001
1000
0001
1000
0001
1000
0001
,
0000
0000
200M
0000
0000
3M20
0000
0030
021M
0000
0000
M002
0000
0000
10M0
0000
,
M303
0000
020M
0000
0000
03M2
0000
0003
2M01
0000
0000
020M
0000
0000
00M1
0000
,
330M
0000
1002
0000
0013
0200
0000
0300
2100
0000
3002
0203
0000
0320
0000
0030
,
2020
0000
3030
2002
0000
3003
0202
0000
0003
0000
0310
1000
0001
0010
0100
1000
,
0002
0000
2003
0000
3001
0010
1000
0010
0001
1000
0010
0100
0001
0100
1000
0100
,
0001
0000
1000
0000
0100
0000
0010
0000
2M00
0000
0000
0000
30M2
0000
0000
0000
0203
0000
0000
0000
M320
0000
0000
0000
0032
0000
0000
0000
2M03
0000
0000
3000
,
0010
0001
0010
1000
0001
0100
1000
0100
0001
1000
0100
0001
0100
1000
0001
0100
,
0020
2000
3030
2220
0000
0000
0000
0330
,
0002
0000
0003
0000
0200
0000
0300
0000
3001
0010
0100
0010
0001
1000
0001
0100
,
0020
0000
0000
0000
0230
0000
0000
0000
0310
M00M
0010
0000
0001
0000
1000
0000
0100
M00M
0100
0000
0001
0000
1000
0000
0010
M00M
0010
0000
0001
0000
1000
0000
,
0100
M00M
0100
0000
0001
0000
1000
0000
02M0
0000
0000
0000
230M
0000
0000
0000
3M02
0000
0000
0000
M023
0000
0000
0000
203M
0000
0000
0000
30M2
0000
0000
0000
,
0103
M00M
0100
0000
1000
0000
0001
0000
0010
M00M
0010
0000
1000
0000
0001
0000
0100
M00M
0100
0000
1000
0000
0001
0000
0010
M00M
0010
0000
1000
0000
0001
0000
,
0020
0200
0330
2202
0000
0000
0000
3003
,
0020
0000
0030
0000
2000
0000
3000
0000
0310
0001
1000
0001
0100
0010
0100
0001
,
2000
0000
0000
0000
3002
0000
0000
0000
1003
0M00
0010
0000
0001
0000
1000
0000
0100
00M0
0001
0000
1000
0000
0100
00M0
0001
0000
1000
0M00
0010
0000
0001
0000
,
1000
0M00
0010
0000
0001
0000
1000
0000
0M20
0000
0000
0000
023M
0000
0000
0000
M302
0000
0000
0000
0M23
0000
0000
0000
023M
0000
0000
0000
23M0
0000
0000
0000
,
3001
00M0
0100
0000
1000
0000
0001
0000
0010
0M00
1000
0000
0001
0000
0010
0M00
1000
0000
0001
00M0
0100
0000
1000
0000
00M1
0000
M100
0000
0010
0000
1000
0000
,
0002
0000
00M0
0000
0M00
0000
2000
0000
0020
0000
0000
0000
0000
0000
0000
3033
,
1100
0000
0000
0000
0100
0000
0000
0000
0110
0000
0000
0020
0000
0000
0032
0003
,
1001
0000
0000
0000
1000
0000
0000
0000
1010
0000
0000
0020
0000
0000
0230
0300
,
0101
0000
0000
0000
0001
0000
0000
0000
1001
0000
0000
2000
0000
0000
3200
0300
,
0110
0000
0000
0000
0010
0000
0000
0000
0001
0000
1000
0100
0010
0001
0010
0100
,
2000
0000
3001
0100
0020
0000
1030
0001
0100
0010
1000
0002
0000
1003
0100
0010
,
0200
0000
1300
0100
0020
0000
0031
1000
0010
0100
0010
2000
0000
3001
0010
0100
,
0020
0000
0031
1000
0200
0000
0310
0100
1000
0001
0100
0020
0000
1030
0002
0003
,
2222
3333
0000
0000
;

//---------------dance-single - Hard----------------
#NOTES:
     dance-single:
     Ace Of Hearts (2013):
     Hard:
     11:
     0.713,0.000,0.121,1.000,0.654: // measure 1
0000
0000
0000
0000
,  // measure 2
0000
0000
0000
0000
,  // measure 3
0000
0000
0000
0000
,  // measure 4
0000
0000
0000
0000
,  // measure 5
0000
0000
0000
0000
,  // measure 6
0000
0000
0000
0000
,  // measure 7
0000
0000
0000
0000
,  // measure 8
0000
0000
0000
0000
,  // measure 9
0000
0000
0000
0000
,  // measure 10
1100
0000
0000
0000
0100
0000
0000
0000
0010
0000
0000
0002
0000
0000
1003
0000
,  // measure 11
1010
0000
0000
0000
0010
0000
0000
0000
0100
0000
0000
0002
0000
0000
1003
0000
,  // measure 12
1100
0000
0000
0000
0100
0000
0000
0000
0010
0000
0000
0002
0000
0000
1003
0000
,  // measure 13
0020
0230
0302
2003
3002
0023
0230
2300
,  // measure 14
3000
0000
0001
0010
0001
0010
0M00
M000
0001
1000
0001
1000
0010
0000
0100
0001
,  // measure 15
0100
0000
0200
0000
0300
0000
0001
1000
0010
0100
0010
1000
0002
0000
1003
0100
,  // measure 16
2000
0000
3001
0020
0000
0031
1000
0001
1000
0010
1000
0020
0000
1030
0001
1000
,  // measure 17
0100
0000
0020
0000
0000
0000
0031
0000
0000
0000
200M
0000
0000
3000
11M0
0000
,  // measure 18
0000
0000
0200
0000
0320
0000
0000
0031
1000
0100
1000
0100
2000
0000
3002
0000
,  // measure 19
0000
0013
0100
0010
0200
0000
1300
0001
0010
0001
0010
0001
2000
0000
3010
0100
,  // measure 20
0020
0000
1030
0002
0000
1003
0100
1000
0002
0000
1003
0002
0000
1003
0010
1000
,  // measure 21
0010
0200
0300
0M02
0003
200M
3000
1M10
,  // measure 22
0000
0000
0010
0000
0200
0000
0301
1000
0001
1000
0001
0000
0020
0000
0130
2000
,  // measure 23
0000
3001
0100
0001
0200
0000
0301
2000
0000
3100
0010
0100
0020
0000
0031
1000
,  // measure 24
0002
0000
1003
0020
0000
1030
0001
1000
0010
1000
0020
0000
0230
0000
0301
0100
,  // measure 25
0002
2003
3000
M200
0300
0M20
0030
M011
,  // measure 26
0000
0000
0001
1000
0002
0000
1003
0020
0000
0130
0010
0100
0002
0000
2003
0000
,  // measure 27
3000
0001
0010
0002
0000
0000
1003
0100
1000
0100
1000
0100
0020
0000
0130
2000
,  // measure 28
0000
3001
0100
0001
0200
0000
0310
2000
0000
3001
0010
0001
0020
0000
0130
1000
,  // measure 29
0200
0320
0030
00M2
0003
200M
3000
1M10
,  // measure 30
0000
0000
0020
0000
0000
0230
0000
0000
0302
0000
0000
2003
0000
0000
3200
0000
,  // measure 31
0300
0000
0020
0000
0000
0230
0000
0000
2300
0000
0000
3002
0000
0000
0203
0000
,  // measure 32
0300
0000
0020
0000
1030
0002
0000
0000
0023
0000
0130
2000
0000
3002
0000
0000
,  // measure 33
0203
0000
0000
0320
0000
0030
2020
0000
0000
0000
0000
0000
3030
0000
0000
0000
,  // measure 34
0000
0000
2000
0000
3001
0010
0001
0010
0100
1000
0100
1000
0001
0100
0001
0100
,  // measure 35
0010
0100
0010
0100
0002
0000
1003
0000
0200
0000
0310
0000
0002
0000
1003
0000
,  // measure 36
0020
0000
1030
0001
0100
0001
0100
0001
1000
0100
1000
0100
0010
0001
0010
0001
,  // measure 37
2000
0020
3030
0220
0000
0000
0030
0000
,  // measure 38
0302
0000
2003
0000
3200
0000
0320
0030
,  // measure 39
0011
0000
0000
0000
0001
0000
0000
0000
1000
0000
0000
0020
0000
0000
0130
0000
,  // measure 40
0101
0000
0000
0000
0001
0000
0000
0000
1000
0000
0000
0020
0000
0000
0130
0000
,  // measure 41
0101
0000
0000
0000
0001
0000
0000
0000
1000
0000
0000
0200
0000
0000
0310
0000
,  // measure 42
0001
0000
2000
0000
3010
0000
2000
0000
3001
0000
0010
0200
0000
1300
0002
0000
,  // measure 43
2003
0000
3010
0100
0010
0100
0010
0100
0001
0100
0001
0100
0020
0000
1030
0001
,  // measure 44
1000
0001
1000
0020
0000
0000
0130
0001
0100
0001
0100
0001
2000
0000
3100
0010
,  // measure 45
0200
0000
1300
0002
0000
1003
0010
1000
0020
0000
0130
0002
0000
1003
0010
1000
,  // measure 46
0010
0100
0001
10M0
0000
M02M
0030
01M1
,  // measure 47
0000
0000
0001
1000
0002
0000
1003
0100
0010
0001
0010
0001
0020
0000
0230
0000
,  // measure 48
0000
1300
0001
1000
0002
0000
1003
0010
0100
0010
0100
0010
1000
0001
1000
0001
,  // measure 49
0000
0000
1000
0100
2000
0000
3002
0000
0013
0100
0010
0100
2000
0000
3001
0100
,  // measure 50
0002
2003
3000
M200
0300
0M20
0030
M011
,  // measure 51
0000
0000
0001
1000
0002
0000
0023
0000
0130
1000
0100
1000
0002
0000
2003
0000
,  // measure 52
0000
3001
0020
0000
0130
0010
0100
0010
0001
1000
0001
1000
0002
0000
0203
0000
,  // measure 53
0000
0310
1000
0010
1000
0010
0100
0001
1000
0001
1000
0100
0020
0000
0130
1000
,  // measure 54
0200
0000
M310
0000
0M01
0000
2000
000M
0000
0000
3002
0000
M000
0003
1001
0000
,  // measure 55
0000
0000
1000
0100
1000
0100
0010
0001
0010
0001
0020
0000
0230
0000
2300
0000
,  // measure 56
0000
3001
0200
0000
0302
0000
1003
0100
1000
0002
0000
0023
0000
0130
2000
0000
,  // measure 57
3002
0000
0103
0020
0000
0130
0010
0100
0020
0000
1030
0020
0000
0130
0001
0100
,  // measure 58
0001
2000
3000
M002
0000
02M0
0000
M010
,  // measure 59
0303
0000
0002
0000
0000
2003
0000
0000
3020
0000
0000
0230
0000
0000
0302
0000
,  // measure 60
0003
0000
2000
0000
0000
3200
0000
0000
0320
0000
0000
0230
0000
0000
2300
0000
,  // measure 61
3000
0000
0002
0000
0103
0020
0000
0000
2030
0000
3001
0020
0000
0230
0000
0300
,  // measure 62
2000
0000
0000
3002
0000
0003
0022
0000
0000
0000
0000
0000
0033
0000
0000
0000
,  // measure 63
0000
0000
0002
0000
1003
0010
1000
0010
0100
0001
0100
0001
1000
0100
1000
0100
,  // measure 64
0010
0001
0010
0001
2000
0000
3010
0000
0200
0000
0301
0000
2000
0000
3200
0000
,  // measure 65
0310
0001
0010
0001
1000
0001
1000
0001
0010
0100
0010
0100
1000
0001
1000
0001
,  // measure 66
2000
0200
3300
0220
0000
0000
0300
0000
,  // measure 67
0032
2003
3002
0203
,  // measure 68
0320
0000
2030
0000
3010
0100
0010
0100
0001
1000
0001
1000
0100
0010
0100
0010
,  // measure 69
0001
0010
0001
0010
0200
0000
1300
0000
0002
0000
0103
0000
0020
0000
2030
0000
,  // measure 70
3010
0100
0010
0100
0001
1000
0001
1000
0100
0010
0100
0010
0001
0010
0001
0010
,  // measure 71
0200
2000
3300
2002
0000
0000
3000
0000
,  // measure 72
0203
0320
2030
3002
,  // measure 73
1003
0100
0000
0100
0000
0010
0001
1000
,  // measure 74
0100
0010
0000
0010
0000
0010
0100
1000
,  // measure 75
0001
1000
0000
1000
0000
1000
0010
0100
,  // measure 76
0001
0100
0000
0100
0000
0100
0010
1000
,  // measure 77
0001
0010
0000
0010
0000
0010
0100
1000
,  // measure 78
0002
0000
0000
0000
0000
0000
0000
0000
0000
0003
0000
0000
0000
0000
0000
0000
0000
0000
1000
0000
0001
0000
1000
0000
,  // measure 79
0000
0100
0020
0000
0130
0000
0000
0000
2200
0000
0000
0000
3300
0000
0000
0000
,  // measure 80
0000
0000
0000
0000
0000
0000
0000
0000
0000
0000
0000
0000
0000
0001
0100
0000
,  // measure 81
0040
0400
0000
0000
0000
0000
0000
0000
0000
0000
0000
0000
0000
0000
0030
0000
,  // measure 82
0304
4000
0000
0000
0000
0000
0000
0000
0000
0000
0000
0000
0000
0000
0003
0000
,  // measure 83
3004
0040
0000
0000
0000
0000
0000
0000
0000
0000
0000
0000
0000
0000
0003
0000
,  // measure 84
0430
4000
0000
0000
0000
0000
0000
0000
0000
0000
0000
0000
0000
0000
0300
0000
,  // measure 85
3004
0400
0000
0000
0000
0000
0000
0000
0000
0000
0000
0000
0000
0000
0003
0000
,  // measure 86
0340
4000
0000
0000
0000
0000
0000
0000
0000
0000
0000
0000
0000
0000
0030
0000
,  // measure 87
3004
0040
0000
0000
0000
0000
0000
0000
0000
0000
0000
0000
0000
0000
0003
0000
,  // measure 88
0430
4000
0000
0000
0000
0000
0000
0000
0000
0000
0000
0000
0000
0000
0300
0000
,  // measure 89
3004
0400
0000
0000
0000
0000
0003
0000
0340
4000
0000
0000
0000
0000
0030
0000
,  // measure 90
3040
0400
0000
0000
0000
0000
0030
0000
0304
4000
0000
0000
0000
0000
0003
0000
,  // measure 91
3004
0040
0000
0000
0000
0000
0003
0000
0430
4000
0000
0000
0000
0000
0300
0000
,  // measure 92
3004
0400
0000
0000
0000
0000
0003
0000
0340
4000
0000
0000
0000
0000
0030
0000
,  // measure 93
3004
0040
0003
0000
0430
4000
0300
0000
3004
0400
0003
0000
0340
4000
0030
0000
,  // measure 94
3004
0040
0003
0000
0430
4000
0300
0000
3004
0400
0003
0000
0340
4000
0030
0000
,  // measure 95
3004
0040
0003
0000
0430
4000
0300
0000
3004
0400
0003
0300
0040
0400
0030
0000
,  // measure 96
0301
1000
0010
1000
0001
0010
0001
0010
0001
1000
0001
1000
0001
1000
0001
1000
,  // measure 97
0000
0000
0200
0000
0000
0320
0000
0000
0032
0000
0000
2003
0000
0000
3020
0000
,  // measure 98
0030
0000
0200
0000
0000
0302
0000
0000
2003
0000
0000
3020
0000
0000
0230
0000
,  // measure 99
0300
0000
0002
0000
1003
0200
0000
0000
0320
0000
0130
2000
0000
3002
0000
0000
,  // measure 100
0203
0000
0000
0320
0000
0030
2020
0000
0000
0000
0000
0000
3030
0000
0000
0000
,  // measure 101
0000
0000
2000
0000
3001
0010
0001
0010
0100
1000
0100
1000
0001
1000
0001
1000
,  // measure 102
0010
0100
0010
0100
0002
0000
2003
0000
3200
0000
0320
0000
0230
0000
2300
0000
,  // measure 103
3001
0100
0001
0100
0010
0100
0010
0100
0010
1000
0010
1000
0001
1000
0001
1000
,  // measure 104
0002
0020
0033
0220
0000
0000
0030
0000
,  // measure 105
2300
3002
0203
0320
,  // measure 106
0030
0000
0200
0000
0301
1000
0001
1000
0100
0010
0100
0010
0100
1000
0100
1000
,  // measure 107
0001
1000
0001
1000
0020
0000
0230
0000
0302
0000
2003
0000
3200
0000
0320
0000
,  // measure 108
0130
1000
0100
1000
0001
0100
0001
0100
0010
1000
0010
1000
0001
0010
0001
0010
,  // measure 109
0200
2000
3300
2002
0000
0000
3000
0000
,  // measure 110
0023
0230
2300
3002
,  // measure 111
0203
0000
0320
0000
103M
0010
0100
M001
0100
0010
1000
0M01
1000
0100
0010
M001
,  // measure 112
0010
0100
1000
00M1
0200
0000
0302
0000
2003
0000
3200
0000
0320
0000
0230
0000
,  // measure 113
1300
00M1
1000
0M10
1000
00M1
1000
001M
0100
M001
0010
0M01
1000
001M
1000
0M01
,  // measure 114
0020
0000
0000
0000
0000
0000
0200
0330
2002
0000
0000
0000
0000
0000
0000
3003
,  // measure 115
0101
0000
0000
0000
0100
0000
0000
0000
0010
0000
0000
2000
0000
0000
3001
0000
,  // measure 116
0011
0000
0000
0000
0010
0000
0000
0000
0100
0000
0000
2000
0000
0000
3001
0000
,  // measure 117
0101
0000
0000
0000
0100
0000
0000
0000
0010
0000
0000
2000
0000
0000
3001
0000
,  // measure 118
0011
0000
0000
0000
0010
0000
0000
0000
0100
0000
0000
2000
0000
0000
3001
0000
,  // measure 119
0100
0000
0010
0000
1000
0000
0001
0000
0010
0000
0100
1000
0000
1000
0002
0000
,  // measure 120
0103
0000
0010
0000
1000
0000
0100
0000
0010
0000
0001
1000
0000
1000
0020
0000
,  // measure 121
1030
0000
0001
0000
0010
0000
0001
0000
1000
0000
0010
1000
0000
1000
0001
0000
,  // measure 122
2202
3303
0000
0000
0000
0000
0000
0000
;

//---------------dance-single - Medium----------------
#NOTES:
     dance-single:
     Ace Of Hearts (2013):
     Medium:
     9:
     0.613,0.000,0.078,1.000,0.328:
0000
0000
0000
0000
,
0000
0000
0000
0000
,
0000
0000
0000
0000
,
0000
0000
0000
0000
,
0000
0000
0000
0000
,
0000
0000
0000
0000
,
0000
0000
0000
0000
,
0000
0000
0000
0000
,
0000
0000
0000
0000
,
0001
0000
0000
0000
0010
0000
0000
0000
0100
0000
0000
2000
0000
0000
3002
0000
,
0103
0000
0000
0000
0010
0000
0000
0000
1000
0000
0000
0002
0000
0000
0023
0000
,
0130
0000
0000
0000
1000
0000
0000
0000
0001
0000
0000
2000
0000
0000
3002
0000
,
0023
0230
2300
3002
0023
0230
2300
3002
,
0003
0000
1000
0010
1000
0000
0001
0000
1000
0001
1000
0000
0001
0000
0100
0010
,
0100
0000
0100
0000
0000
0000
0001
1000
0001
0000
1000
0000
0001
0000
0001
0000
,
2000
0000
3001
0020
0000
0000
0230
0000
2300
0000
3001
0200
0000
0000
0310
1000
,
0020
0000
0230
0000
0000
0000
0302
0000
0000
0000
20M3
0000
0000
3000
1M01
0000
,
0000
0000
0001
0000
0002
0000
0003
0000
1000
0100
1000
0000
0002
0000
0023
0000
,
0000
0000
0130
0000
2000
0000
3002
0000
0103
0010
0100
0000
0002
0000
2003
0000
,
3200
0000
0310
0002
0000
0000
1003
0000
0020
0000
0130
0002
0000
0000
1003
0100
,
1000
0000
0002
0000
0000
0000
02M3
0000
0000
0000
M320
0000
0000
0030
011M
0000
,
0000
0000
0100
0000
0002
0000
1003
0010
1000
0000
0002
0000
0023
0000
0030
0000
,
0200
0000
1300
0001
2000
0000
0000
3200
0000
0000
0310
0001
0010
0000
0001
1000
,
0002
0000
1003
0020
0000
0000
0130
0000
0001
1000
0001
0000
0010
0000
0100
0010
,
0200
0000
2300
0000
0000
0000
3002
0000
0000
0000
20M3
0000
0000
3000
110M
0000
,
0000
0000
0100
0010
0200
0000
0000
2300
0000
0000
3001
0100
0002
0000
2003
0000
,
0000
3100
0010
0100
0000
0000
2000
0000
3001
0100
0001
0000
2000
0000
3001
0020
,
0000
0000
0230
0000
2300
0000
0000
3002
0000
0000
1003
0010
2000
0000
3001
0010
,
0002
0000
2003
0000
0000
0000
3200
0000
0000
0000
0320
0000
0000
0030
0011
0000
,
0000
0000
0002
0000
0000
0023
0000
0000
0230
0000
0000
0320
0000
0000
0032
0000
,
0003
0000
2000
0000
0000
3200
0000
0000
0320
0000
0000
0230
0000
0000
2300
0000
,
3000
0000
0002
0000
1003
0020
0000
0000
0230
0000
0310
2000
0000
3002
0000
0000
,
0023
0000
0000
0032
0000
0003
2002
0000
0000
0000
0000
0000
3003
0000
0000
0000
,
0000
0000
2000
0000
3002
0000
0103
0010
0200
0000
0301
0100
0002
0000
1003
0100
,
2000
0000
3001
0100
0002
0000
2003
0000
3200
0000
0320
0000
0230
0000
2300
0000
,
3000
0000
0002
0000
0013
0100
0020
0000
0031
1000
0002
0000
0103
0010
0200
0000
,
0302
2000
3003
2002
0000
0000
0000
0000
,
0000
0000
0000
0000
0000
0000
0000
3003
,
1000
0000
0000
0000
0100
0000
0000
0000
0010
0000
0000
0200
0000
0000
2300
0000
,
3001
0000
0000
0000
0100
0000
0000
0000
0010
0000
0000
2000
0000
0000
3002
0000
,
0013
0000
0000
0000
0100
0000
0000
0000
1000
0000
0000
0002
0000
0000
0203
0000
,
0302
2003
3200
0320
0032
2003
3200
0320
,
0030
0000
0001
0010
0001
0000
1000
0000
0010
0000
0100
0001
0100
0000
0010
0100
,
0020
0000
0000
2030
0000
0000
3001
0000
0010
0100
0010
0000
0002
0000
2003
0000
,
3020
0000
0130
0002
0000
0000
2003
0000
3200
0000
0310
0002
0000
0000
1003
0010
,
2000
0000
3002
0000
0013
0000
M100
0000
0000
0000
200M
0000
0000
3000
1M10
0000
,
0000
0000
0010
0100
0020
0000
2030
0000
3001
0010
0002
0000
2003
0000
3020
0000
,
0000
0000
0130
0001
0200
0000
0310
0000
1000
0001
2000
0000
3002
0000
0013
0200
,
0000
0000
1300
0100
2000
0000
3002
0000
0013
0100
0010
0000
0002
0000
1003
0010
,
2000
0000
3002
0000
0000
0000
0203
0000
0000
0000
M320
0000
0000
0030
101M
0000
,
0000
0000
1000
0001
2000
0000
3200
0000
0310
0001
0020
0000
0230
0000
2300
0000
,
0000
3001
0020
0000
0032
0000
1003
0100
1000
0000
0001
0000
0100
0000
0020
0000
,
0000
0130
0002
0000
1003
0100
2000
0000
3001
0010
0002
0000
2003
0000
3010
0100
,
0020
2M30
3002
M023
0000
023M
0000
23M0
,
3000
0000
0001
1000
0002
0000
0023
0000
0130
0010
0200
0000
2300
0000
3002
0000
,
0000
1003
0020
0000
0230
0000
0301
0100
0002
0000
0000
2003
0000
0000
3020
0000
,
0230
0000
0301
2000
0000
3100
0020
0000
0230
0000
1300
0002
0000
0000
1003
0100
,
1000
0000
0002
0000
0000
0000
2M03
0000
0000
0000
320M
0000
0000
0300
M011
0000
,
0000
0000
0002
0000
0000
2003
0000
0000
3020
0000
0000
0230
0000
0000
0302
0000
,
0003
0000
2000
0000
0000
3200
0000
0000
0320
0000
0000
0032
0000
0000
2003
0000
,
3000
0000
0002
0000
0013
0200
0000
0000
0320
0000
0031
2000
0000
3020
0000
0000
,
2030
0000
0000
3002
0000
0003
0202
0000
0000
0000
0000
0000
0303
0000
0000
0000
,
0000
0000
0200
0000
0310
1000
0020
0000
0130
0001
0200
0000
0301
1000
0002
0000
,
1003
0100
2000
0000
3002
0000
0023
0000
0230
0000
2300
0000
3200
0000
0320
0000
,
0031
1000
0002
0000
1003
0010
2000
0000
3010
0100
0020
0000
0130
0001
0200
0000
,
0320
2000
3030
2002
0000
0000
0000
0000
,
0000
0000
0000
0000
0000
0000
0000
3003
,
0000
0000
0002
0000
0013
0100
0020
0000
0031
0010
0002
0000
1003
0100
2000
0000
,
3001
1000
0002
0000
2003
0000
3020
0000
0230
0000
0302
0000
0203
0000
0320
0000
,
1030
0010
2000
0000
3001
0100
0002
0000
1003
0100
2000
0000
3001
0010
0002
0000
,
2003
0020
3030
0220
0000
0000
0000
0000
,
0000
0000
0000
0000
0000
0000
0000
0330
,
0000
0010
0000
0010
0000
0010
1000
0001
,
0000
0001
0000
0001
0000
0001
1000
0100
,
0000
0100
0000
0100
0000
0100
0010
0001
,
0000
0001
0000
0001
0000
0001
1000
0010
,
0000
0010
0000
0010
0000
0010
0100
0001
,
2000
0000
0000
0000
0000
0000
0000
0000
0000
3000
0000
0000
0000
0000
0000
0000
0000
0000
0001
0000
0010
0000
0100
0000
,
0000
0010
0002
0000
1003
0000
0000
0000
2002
0000
0000
0000
3003
0000
0000
0000
,
0000
0000
0000
0000
0000
0000
0000
0000
0000
0000
0000
0000
0000
0001
0010
0000
,
0004
4000
0000
0000
0000
0000
0000
0000
0000
0000
0000
0000
0000
0000
0000
0000
,
0000
0000
0000
0000
,
0000
0000
0000
0000
,
0000
0000
0000
0000
,
0000
0000
0000
0000
,
0000
0000
0000
0000
,
0000
0000
0000
0000
,
0000
0000
0000
0000
,
0000
0000
0000
0000
,
0000
0000
0000
0000
,
0000
0000
0000
0000
,
0000
0000
0000
0000
,
0000
0000
0000
0000
,
0000
0000
0000
0000
,
0000
0000
0000
0000
,
0000
0000
0000
0000
0000
0000
0000
0000
0000
0000
0000
0000
0000
0000
0000
3003
,
0000
0000
0002
0000
0000
2003
0000
0000
3020
0000
0000
2030
0000
0000
3002
0000
,
0003
0000
0020
0000
0000
0230
0000
0000
2300
0000
0000
3002
0000
0000
0203
0000
,
0300
0000
0020
0000
0130
0002
0000
0000
2003
0000
3100
0020
0000
0230
0000
0000
,
2300
0000
0000
3002
0000
0003
0022
0000
0000
0000
0000
0000
0033
0000
0000
0000
,
0000
0000
0020
0000
0031
1000
0002
0000
1003
0010
2000
0000
3010
0100
0020
0000
,
1030
0001
2000
0000
3002
0000
0023
0000
0230
0000
2300
0000
3200
0000
0320
0000
,
0031
1000
0002
0000
0103
0001
0200
0000
0310
0100
0020
0000
1030
0001
2000
0000
,
3002
2000
3003
2002
0000
0000
0000
0000
,
0000
0000
0000
0000
,
3003
0000
0002
0000
0013
0100
2000
0000
3100
0010
0002
0000
1003
0010
0200
0000
,
0301
0100
0020
0000
2030
0000
3002
0000
0023
0000
0032
0000
2003
0000
3020
0000
,
0130
0001
2000
0000
3001
0010
0200
0000
0310
0001
2000
0000
3010
0100
0002
0000
,
0203
0020
0330
0220
0000
0000
0000
0000
,
0000
0000
0000
0000
,
0330
0000
0200
0000
03M1
1000
0200
0000
031M
0100
2000
0000
30M1
0100
0020
0000
,
1M30
0001
0200
0000
0320
0000
2030
0000
3002
0000
0023
0000
0230
0000
2300
0000
,
30M1
0100
0020
0000
1M30
0001
0020
0000
013M
1000
0002
0000
M103
0010
0200
0000
,
0302
0000
0000
0000
0000
0000
2000
3003
2002
0000
0000
0000
0000
0000
0000
3003
,
0001
0000
0000
0000
0010
0000
0000
0000
0100
0000
0000
2000
0000
0000
3002
0000
,
0103
0000
0000
0000
0010
0000
0000
0000
1000
0000
0000
0002
0000
0000
0023
0000
,
0130
0000
0000
0000
1000
0000
0000
0000
0001
0000
0000
0200
0000
0000
0320
0000
,
1030
0000
0000
0000
0001
0000
0000
0000
0010
0000
0000
0200
0000
0000
2300
0000
,
3001
0000
0100
0000
0010
0000
1000
0000
0001
0000
0000
0020
0000
0000
0230
0000
,
1300
0000
0001
0000
0100
0000
0010
0000
1000
0000
0000
0002
0000
0000
0023
0000
,
0130
0000
1000
0000
0001
0000
0100
0000
0010
0000
0000
2000
0000
0000
3001
0000
,
2002
3003
0000
0000
0000
0000
0000
0000
;

//---------------dance-single - Easyish----------------
#NOTES:
     dance-single:
     Ace Of Hearts (2013):
     Easy:
     7:
     0.364,0.000,0.047,0.669,0.104:
0000
0000
0000
0000
,
0000
0000
0000
0000
,
0000
0000
0000
0000
,
0000
0000
0000
0000
,
0000
0000
0000
0000
,
0000
0000
0000
0000
,
0000
0000
0000
0000
,
0000
0000
0000
0000
,
0000
0000
0000
0000
,
1000
0000
0000
0000
0001
0000
0000
0000
1000
0000
0000
0002
0000
0000
0000
0000
,
0013
0000
0000
0000
0100
0000
0000
0000
0010
0000
0000
0200
0000
0000
0000
0000
,
1300
0000
0000
0000
0001
0000
0000
0000
1000
0000
0000
0002
0000
0000
0000
0000
,
0203
0000
0000
0300
,
0000
0001
1000
0000
0010
1000
0010
0000
,
0100
0100
0000
0000
0001
1000
0001
0000
,
0010
0000
0000
0020
0000
0000
0030
0000
0100
0000
0000
0200
0000
0000
0300
0000
,
1000
0200
0000
0320
0000
0032
0000
1003
,
0000
1000
2000
3000
0001
0100
0001
0200
,
0000
0310
0020
0000
1030
0001
2000
0000
,
3001
0000
0000
0002
0000
0000
0003
0000
0010
0000
0000
0020
0000
0000
0030
0000
,
0100
2000
0000
3002
0000
0023
0000
0130
,
0000
1000
1000
0000
0100
0010
0100
0000
,
1000
0001
2000
0000
3010
0100
0020
0000
,
1030
0000
0000
2000
0000
0000
3000
0000
0001
0000
0010
0000
0001
0000
0000
0000
,
1000
2000
0000
3020
0000
0230
0000
0301
,
0000
0000
0001
0000
0002
0000
0000
2003
0000
0000
3001
0000
0100
0000
0002
0000
,
0000
0000
1003
0000
0000
0000
0000
0000
0010
0000
0100
0000
0010
0000
0000
2000
,
0000
0000
3001
0000
0001
0000
0000
0020
0000
0000
0130
0000
0100
0000
0000
0000
,
1000
0002
0000
2003
0000
3002
0000
0013
,
0000
0000
0200
0000
0000
2300
0000
0000
3002
0000
0000
0000
0000
0000
0103
0000
,
0000
0000
0020
0000
0000
0230
0000
0000
0302
0000
0000
0000
0000
0000
1003
0000
,
0000
0000
0002
0000
0000
0023
0000
0000
0230
0000
0000
0320
0000
0032
0000
0000
,
0023
0000
0000
0230
0000
0300
2002
0000
0000
0000
0000
0000
3003
0000
0000
0000
,
0000
2000
3010
0010
0100
0100
0001
0001
,
1000
1000
0002
0000
0000
0000
0000
0003
,
0000
1000
1000
0100
0100
0010
0010
0001
,
0002
2000
3003
2002
0000
0000
0000
0000
,
0000
0000
0000
3003
,
0001
0000
0000
0000
1000
0000
0000
0000
0010
0000
0000
0200
0000
0000
0000
0000
,
0301
0000
0000
0000
1000
0000
0000
0000
0100
0000
0000
0020
0000
0000
0000
0000
,
0031
0000
0000
0000
1000
0000
0000
0000
0010
0000
0000
0200
0000
0000
0000
0000
,
0302
0000
0000
0000
,
0003
1000
0010
0000
1000
0001
1000
0000
,
0010
0000
0000
0020
0000
0000
0000
0000
0130
0000
0001
0000
0200
0000
0000
0000
,
0301
0000
0000
0002
0000
0000
0003
0000
1000
0000
0000
2000
0000
0000
3000
0000
,
0001
0010
0001
1000
0000
0020
0000
0130
,
0000
0010
0010
0000
1000
0001
1000
0002
,
0000
0000
0013
0000
0200
0000
0000
0000
1300
0000
0001
0000
2000
0000
0000
3010
,
0000
1000
0002
0000
1003
0100
2000
0000
,
3001
0020
0000
0230
0000
2300
0000
3001
,
0000
0010
0002
0000
0013
0100
0020
0000
,
0030
0001
2000
0000
3010
0100
0010
0200
,
0000
0301
2000
0000
3001
0010
0002
0000
,
1003
0100
0010
0002
0000
2003
0000
3001
,
0000
1000
1000
0000
0010
1000
0020
0230
,
0000
0000
0301
0000
1000
0000
0001
0000
0020
0000
0000
0130
0000
0000
1000
0000
,
0001
0000
0000
0002
0000
0000
1003
0000
0010
0000
0000
0020
0000
0000
1030
0000
,
0001
2000
0000
3200
0000
0320
0030
0011
,
0000
0000
0002
0000
0000
2003
0000
0000
3020
0000
0000
0000
0000
0000
0130
0000
,
0000
0000
0002
0000
0000
0203
0000
0000
0320
0000
0000
0000
0000
0000
1030
0000
,
0000
0000
0002
0000
0000
0023
0000
0000
0230
0000
0000
2300
0000
3200
0000
0000
,
0320
0000
0000
0032
0000
0003
2002
0000
0000
0000
0000
0000
3003
0000
0000
0000
,
0000
2000
3100
0100
1000
1000
0001
0001
,
0100
0100
0020
0000
0000
0000
0000
0030
,
0000
1000
1000
0001
0001
0010
0010
0100
,
0200
2000
3300
2002
0000
0000
0000
0000
,
0000
0000
0000
3003
,
0000
2000
3001
0001
0010
0010
0001
0001
,
1000
1000
0020
0000
0000
0000
0000
0030
,
0000
0100
0100
0010
0010
1000
1000
0001
,
0002
2000
3003
2002
0000
0000
0000
0000
,
0000
0000
0000
3003
,
0000
1000
0000
1000
0000
1000
0001
0100
,
0000
0100
0000
0100
0000
0100
0010
1000
,
0000
1000
0000
1000
0000
1000
0001
0010
,
0000
0010
0000
0010
0000
0010
0100
1000
,
0000
1000
0000
1000
0000
1000
0001
0100
,
0002
0000
0000
0000
0000
0000
0003
0000
0000
0000
0000
0000
1000
0000
0000
0001
,
0000
1000
0000
0000
0001
0000
0000
0000
0200
0000
0000
0000
0300
0000
0000
0000
,
0000
0000
0000
0000
0000
0000
0000
0001
,
0040
0000
0000
0000
,
0000
0000
0000
0000
,
0000
0000
0000
0000
,
0000
0000
0000
0000
,
0000
0000
0000
0000
,
0000
0000
0000
0000
,
0000
0000
0000
0000
,
0000
0000
0000
0000
,
0000
0000
0000
0000
,
0000
0000
0000
0000
,
0000
0000
0000
0000
,
0000
0000
0000
0000
,
0000
0000
0000
0000
,
0000
0000
0000
0000
,
0000
0000
0000
0000
,
0000
0000
0000
0000
0000
0000
0000
0030
,
0000
0000
0002
0000
0000
2003
0000
0000
3020
0000
0000
0000
0000
0000
0130
0000
,
0000
0000
0002
0000
0000
2003
0000
0000
3200
0000
0000
0000
0000
0000
0310
0000
,
0000
0000
0002
0000
0000
2003
0000
0000
3020
0000
0000
0230
0000
0302
0000
0000
,
2003
0000
0000
3002
0000
0003
0202
0000
0000
0000
0000
0000
0303
0000
0000
0000
,
0000
0200
0310
0010
1000
1000
0001
0001
,
0010
0010
0200
0000
0000
0000
0000
0300
,
0000
1000
1000
0001
0001
0100
0100
0010
,
0020
2000
3030
2002
0000
0000
0000
0000
,
0000
0000
0000
3003
,
0000
0001
0100
0001
0100
0010
1000
0010
,
1000
0001
0200
0000
0000
0000
0000
0300
,
0000
0010
0100
0010
0100
0001
1000
0001
,
2000
0200
3300
0220
0000
0000
0000
0000
,
0000
0000
0000
0330
,
0000
0010
0001
0010
0100
1000
0100
0010
,
0001
1000
0002
0000
0000
0000
0000
0003
,
0000
1000
0010
1000
0001
0010
0100
1000
,
0002
0000
0000
0000
0000
0000
2000
3003
2002
0000
0000
0000
0000
0000
0000
3003
,
0001
0000
0000
0000
0100
0000
0000
0000
0010
0000
0000
2000
0000
0000
0000
0000
,
3001
0000
0000
0000
0010
0000
0000
0000
0100
0000
0000
2000
0000
0000
0000
0000
,
3001
0000
0000
0000
0100
0000
0000
0000
0010
0000
0000
2000
0000
0000
0000
0000
,
3001
0000
0000
0000
0010
0000
0000
0000
0001
0000
0000
2000
0000
0000
0000
0000
,
3010
0000
0000
0000
0100
0000
0000
0000
0001
0000
0000
0200
0000
0000
0000
0000
,
0310
0000
0000
0000
1000
0000
0000
0000
0001
0000
0000
0020
0000
0000
0000
0000
,
0130
0000
0000
0000
1000
0000
0000
0000
0001
0000
0000
2000
0000
0000
3000
0000
,
2002
3003
0000
0000
0000
0000
0000
0000
;

//---------------dance-single - Free Hammer----------------
#NOTES:
     dance-single:
     Ace Of Hearts (2013):
     Beginner:
     4:
     0.202,0.000,0.073,0.427,0.000:
0000
0000
0000
0000
,
0000
0000
0000
0000
,
0000
0000
0000
0000
,
0000
0000
0000
0000
,
0000
0000
0000
0000
,
0000
0000
0000
0000
,
0000
0000
0000
0000
,
0000
0000
0000
0000
,
0000
0000
0000
0000
,
0001
0000
0001
0000
0002
0003
0000
0000
,
1000
0000
0000
0000
1000
0000
0000
0000
2000
0000
0000
3000
0000
0000
0000
0000
,
0010
0000
0000
0000
0010
0000
0000
0000
0020
0000
0000
0030
0000
0000
0000
0000
,
0200
0000
0300
0000
,
0000
0001
0001
0000
,
0100
0000
0020
0030
,
1000
1000
2000
3000
,
2002
0000
0000
0000
0000
0000
0000
3003
,
0000
0000
0000
0000
0001
0000
0000
0000
0002
0000
0000
0003
0000
0000
0000
0000
,
0000
0000
0000
0000
1000
0000
0000
0000
2000
0000
0000
3000
0000
0000
0000
0000
,
0020
0000
0000
0030
0000
0000
0000
0000
0200
0000
0000
0300
0000
0000
0000
0000
,
0220
0000
0000
0000
0000
0000
0000
0330
,
0000
0000
0000
0000
0100
0000
0000
0000
0200
0000
0000
0300
0000
0000
0000
0000
,
0001
0001
0002
0003
,
2000
0000
0000
3000
0000
0000
0000
0000
0001
0000
0000
0000
0001
0000
0000
0000
,
0202
0000
0000
0000
0000
0000
0000
0303
,
0000
0100
0100
0200
,
0000
0300
0000
0000
0010
0000
0010
0000
,
0020
0030
1000
1000
,
2000
0000
0000
0000
0000
0000
0000
3000
,
0000
0001
0000
0000
0002
0000
0000
0003
,
0000
0100
0000
0000
0200
0000
0000
0300
,
0000
0010
0000
0000
0020
0000
0000
0030
,
1000
0000
0000
2002
0000
0000
3003
0000
,
0000
0001
0001
0010
,
0010
0000
0200
0000
0000
0000
0000
0300
,
0000
1000
1000
0001
,
0002
0000
0003
2002
0000
0000
0000
0000
,
0000
0000
0000
3003
,
1000
0000
0000
0000
1000
0000
0000
0000
2000
0000
0000
3000
0000
0000
0000
0000
,
0010
0000
0000
0000
0010
0000
0000
0000
0020
0000
0000
0030
0000
0000
0000
0000
,
0100
0000
0000
0000
0100
0000
0000
0000
0200
0000
0000
0300
0000
0000
0000
0000
,
0002
0000
0000
0003
,
0000
1000
2000
3000
,
0020
0030
0200
0300
,
0001
0001
0002
0003
,
0022
0000
0000
0000
0000
0000
0000
0033
,
0000
0010
0020
0030
,
0000
0000
0000
0000
0100
0000
0000
0000
0100
0000
0000
0000
0200
0000
0000
0300
,
0000
1000
2000
3000
,
2020
0000
0000
0000
0000
0000
0000
3030
,
0000
0010
0020
0030
,
0000
0100
0100
0200
,
0300
0001
0001
0001
,
2002
0000
0000
0000
0000
0000
0000
3003
,
0000
0000
1000
0000
1000
0000
2000
3000
,
0000
0000
0000
0000
0100
0000
0000
0000
0200
0000
0000
0300
0000
0000
0000
0000
,
1000
0000
0000
0000
1000
0000
0000
0000
2000
0000
0000
3000
0000
0000
0000
0000
,
2020
0000
0000
0000
0000
0000
0000
3030
,
0000
0010
0000
0000
0020
0000
0000
0030
,
0000
1000
0000
0000
2000
0000
0000
3000
,
0000
0001
0000
0000
0002
0000
0003
0000
,
2000
0000
3000
2200
0000
0000
3300
0000
,
0000
0100
0100
0010
,
0010
0000
0002
0000
0000
0000
0000
0003
,
0000
1000
1000
0001
,
0002
0000
0003
2002
0000
0000
0000
0000
,
0000
0000
0000
3003
,
0000
1000
1000
0010
,
0010
0000
0200
0000
0000
0000
0000
0300
,
0000
0001
0001
1000
,
2000
0000
3000
2002
0000
0000
0000
0000
,
0000
0000
0000
3003
,
0001
0001
0001
0000
,
0100
0100
0100
0000
,
0010
0010
0010
0000
,
1000
1000
1000
0000
,
0001
0001
0001
0000
,
2000
0000
0000
3000
0000
0000
0000
0000
,
0002
0000
0003
0000
,
0000
0000
0000
0000
,
0020
0000
0000
0000
,
0000
0000
0000
0000
,
0000
0000
0000
0000
,
0000
0000
0000
0000
,
0000
0000
0000
0000
,
0000
0000
0000
0000
,
0000
0000
0000
0000
,
0000
0000
0000
0000
,
0000
0000
0000
0000
,
0000
0000
0000
0000
,
0000
0000
0000
0000
,
0000
0000
0000
0000
,
0000
0000
0000
0000
,
0000
0000
0000
0000
,
0000
0000
0000
0000
,
0000
0000
0000
0000
0000
0000
0000
0030
,
0000
0100
0000
0000
0200
0000
0000
0300
,
0000
1000
0000
0000
2000
0000
0000
3000
,
0000
0000
0001
0000
0000
0000
0000
0000
0002
0000
0000
0003
0000
0000
0000
0000
,
0200
0000
0000
0300
0000
0000
0220
0000
0000
0000
0000
0000
0330
0000
0000
0000
,
0000
0010
0010
1000
,
1000
0000
0002
0000
0000
0000
0000
0003
,
0000
0010
0010
0001
,
0002
0000
0003
2002
0000
0000
0000
0000
,
0000
0000
0000
3003
,
0000
1000
0100
1000
,
0100
0000
0020
0000
0000
0000
0000
0030
,
0000
0001
0010
0001
,
0020
0000
0030
0220
0000
0000
0000
0000
,
0000
0000
0000
0330
,
0000
0100
1000
0100
,
1000
0000
0002
0000
0000
0000
0000
0003
,
0000
1000
0010
1000
,
0002
0000
0000
0003
2002
0000
0000
3003
,
1000
0000
0000
0000
1000
0000
0000
0000
2000
0000
0000
3000
0000
0000
0000
0000
,
0010
0000
0000
0000
0010
0000
0000
0000
0020
0000
0000
0030
0000
0000
0000
0000
,
0100
0000
0000
0000
0100
0000
0000
0000
0200
0000
0000
0300
0000
0000
0000
0000
,
0001
0000
0000
0000
0001
0000
0000
0000
0002
0000
0000
0003
0000
0000
0000
0000
,
1000
0000
0000
0000
1000
0000
0000
0000
2000
0000
0000
3000
0000
0000
0000
0000
,
0100
0000
0000
0000
0100
0000
0000
0000
0200
0000
0000
0300
0000
0000
0000
0000
,
1000
0000
0000
0000
1000
0000
0000
0000
2000
0000
0000
3000
0000
0000
0000
0000
,
2002
3003
0000
0000
0000
0000
0000
0000
;
