#TITLE:Graceful Anomaly;
#SUBTITLE:;
#ARTIST:ave-new feat. Saori Sakura;
#TITLETRANSLIT:;
#SUBTITLETRANSLIT:;
#ARTISTTRANSLIT:;
#GENRE:Bubblegum J-Pop;
#CREDIT:Ace Of Hearts;
#BANNER:Graceful Anomaly - bn.png;
#BACKGROUND:Graceful Anomaly - bg 2.png;
#LYRICSPATH:;
#CDTITLE:Ace Of Hearts.png;
#MUSIC:Graceful Anomaly.ogg;
#OFFSET:1.015;
#SAMPLESTART:57.800;
#SAMPLELENGTH:12.000;
#SELECTABLE:YES;
#BPMS:0.000=77.000,13.000=65.000,14.250=78.000,16.750=120.000,19.000=164.000,63.000=82.000,71.000=164.000,126.500=82.000,130.500=164.000,160.500=82.000,161.500=164.000;
#STOPS:;
#BGCHANGES:1.250=Magical Charming! OP.avi=1.000=1=0=1===CrossFade==,
99999=-nosongbg-=1.000=0=0=0 // don't automatically add -songbackground-
;
#KEYSOUNDS:;

//---------------dance-single - Ace Of Hearts (2013)----------------
#NOTES:
     dance-single:
     Ace Of Hearts (2013):
     Hard:
     9:
     0.700,0.448,0.447,1.000,0.262: // measure 1
0000
0000
0000
0000
,  // measure 2
0002
0000
0013
0100
0000
1000
0000
0002
0000
0000
1003
0100
0020
0000
0230
2300
,  // measure 3
0000
0000
0000
3002
0000
1003
0100
0020
0000
0000
0130
2000
0000
3002
0000
0203
,  // measure 4
0000
0310
1000
0002
0000
1003
0100
0020
0000
0031
0002
0000
1003
0010
0100
0002
,  // measure 5
0000
0000
0000
2003
0000
0000
0000
0000
0000
0000
0000
0000
3002
0000
1003
0100
,  // measure 6
1000
0000
0001
0000
0100
0000
0001
0000
0100
0010
0100
0000
0102
0000
0000
0000
,  // measure 7
1003
0000
0200
0000
0000
0000
0340
0000
0000
0030
0012
0000
0000
0000
2003
0000
,  // measure 8
0000
3020
0000
0230
0301
1000
1200
0000
,  // measure 9
0320
0000
0032
0000
0000
0000
4003
0000
0000
3000
1020
0000
0000
0000
0130
0000
,  // measure 10
0001
0000
4000
0040
0000
0000
0000
0000
0000
0000
3030
0000
1002
0000
0000
0000
,  // measure 11
0013
0000
0200
0000
0000
0000
4300
0000
0000
3000
1002
0000
0000
0000
0203
0000
,  // measure 12
0000
0300
0120
0000
0000
0000
1030
0000
0001
0000
0010
0000
0200
0000
0000
0000
,  // measure 13
1300
0002
0000
2003
3000
1020
0000
0130
,  // measure 14
0004
0000
0000
0003
1000
0000
0001
0000
0020
0000
0200
0000
0000
0000
0000
0000
,  // measure 15
0000
0000
0000
0000
0000
0000
0000
0000
0000
0000
0000
0000
0000
0000
0000
0000
0000
0000
0000
0000
0000
0000
0000
0300
0400
0000
0000
0000
0000
0000
0000
0000
0000
0000
0000
0000
0000
0000
0000
0000
0000
0000
0000
0000
0000
0000
0000
0000
0330
0000
0000
0000
0000
0000
0000
0000
0000
0000
0000
0000
0000
0000
0000
0000
,  // measure 16
0000
0000
0040
0004
0000
0000
0000
0000
0000
0000
0033
0000
0002
0000
1003
0200
,  // measure 17
0000
0340
0000
0130
1000
0100
0010
0002
0000
1003
0100
1000
0002
0000
1003
0020
,  // measure 18
0000
0230
0000
0302
0000
1003
0010
0200
0001
0001
0300
0000
0002
0000
0000
0000
,  // measure 19
1003
0020
0000
4030
0000
3001
0020
0000
,  // measure 20
0130
2000
0000
3004
0000
0003
1000
0010
,  // measure 21
0100
0000
0002
0000
0000
0000
1003
0000
0100
0000
2000
0000
0000
0000
3001
0010
,  // measure 22
0001
0000
4000
0004
0000
0000
0000
0000
3003
0000
0000
0000
M004
0000
0000
0003
,  // measure 23
0000
0000
100M
0000
0M40
0000
0000
0030
0000
0000
00M0
0000
0200
0000
0301
0000
,  // measure 24
1000
0200
0000
2300
0000
3001
04M0
0000
,  // measure 25
M300
0010
200M
0000
3M00
0000
0002
0103
,  // measure 26
0010
0000
0020
0000
1030
0000
0004
0400
0000
0000
0000
0303
M004
0000
0000
0003
,  // measure 27
0M00
1000
020M
0000
M300
0010
0M02
1003
,  // measure 28
0100
0020
0000
0430
0000
0300
2100
0000
,  // measure 29
3002
0000
0000
0003
0201
0000
0000
0000
0320
0000
0000
0030
2010
0000
0000
0000
,  // measure 30
3002
0000
0000
0003
0021
0000
0000
0000
0230
0000
0000
0300
2100
0000
0000
3002
,  // measure 31
0000
0000
0103
0000
0120
0000
0000
2030
0000
0000
3001
0000
0022
0000
0000
0000
,  // measure 32
0003
0000
0000
0000
0000
0000
0000
0000
0030
0000
0110
0000
0100
0010
0002
0003
,  // measure 33
2002
0000
0000
0000
3003
0000
2000
0000
0000
3100
0010
0000
0001
0000
2000
0000
3010
0000
0100
0010
0200
0000
0300
0000
0102
0000
0000
0000
0000
0000
0000
0000
,  // measure 34
2003
0200
0000
0000
3300
1000
0002
0000
,  // measure 35
0203
0000
0040
0000
0000
0000
0330
0000
0200
0000
0000
0300
0102
0000
0000
0000
,  // measure 36
2003
3200
0000
0310
0100
1000
0004
0000
,  // measure 37
0003
0000
1000
0000
0020
0000
0000
0000
0130
0001
0100
0000
0120
0000
0000
0000
,  // measure 38
1030
0000
0004
0000
0000
0000
0023
0000
0000
0030
0220
0000
0000
0000
0030
0000
,  // measure 39
1300
0000
4000
0000
0000
0000
3002
0000
0000
0003
0202
0000
0000
0000
0000
0000
,  // measure 40
0303
0000
0000
0000
0100
0000
0010
0000
1000
0000
2002
0000
0000
3000
0023
0000
,  // measure 41
0130
0000
1000
0400
0000
0300
0000
0000
0120
0000
0000
0000
0031
0000
2002
0000
,  // measure 42
0000
0000
0000
0000
0003
0000
3010
0000
0100
0002
0000
0000
2003
0000
0400
0000
,  // measure 43
0000
0000
3000
0000
0320
0000
0000
0030
0012
0000
0000
0000
1003
0000
0200
0000
,  // measure 44
0000
0310
0100
1000
0004
0000
0003
1000
,  // measure 45
0020
0000
0000
0000
0230
0000
0000
0300
0102
0000
0000
0000
2003
0000
0200
0000
,  // measure 46
0000
0000
0000
0000
0000
0000
0000
0000
0000
0000
0000
0000
0000
0000
0000
0000
0000
0000
0000
0000
0000
0000
0000
0300
0400
0000
0000
0000
0000
0000
0000
0000
0000
0000
0000
0000
0000
0000
0000
0000
0000
0000
0000
0000
0000
0000
0000
0000
3300
0000
0000
0000
0000
0000
0000
0000
0000
0000
0000
0000
0000
0000
0000
0000
,  // measure 47
0200
0000
0000
0320
0000
0000
0031
0000
2000
0000
3010
0000
0100
0000
0002
0000
,  // measure 48
1003
0100
0010
0022
0030
1003
1001
0000
,  // measure 49
1000
0001
2000
0020
0000
3000
0130
0000
,  // measure 50
0101
0001
1000
1100
0000
0100
0010
0001
,  // measure 51
0010
0000
0004
4000
0000
0000
3003
0000
0201
0000
0000
0000
0310
0000
2010
0000
,  // measure 52
0000
0000
3004
0000
0000
0003
2001
0000
0000
0000
3010
0000
0100
0000
0002
0000
,  // measure 53
0000
1003
0100
1000
1002
0000
0103
0120
,  // measure 54
0000
0000
4030
0000
0000
3000
1002
0000
0000
0000
0013
0000
0100
0000
2000
0000
,  // measure 55
3004
0040
0000
0000
0000
0000
0033
0000
2100
0000
0000
0000
3010
0000
0210
0000
,  // measure 56
0000
0000
0304
0000
0000
0003
2001
0000
0000
0000
3200
0000
0000
0300
0120
0000
,  // measure 57
0000
0031
1000
0010
0210
0000
0301
4001
,  // measure 58
0000
0000
3020
0000
0000
0030
0210
0000
0000
0000
0301
0000
1001
0000
0000
0000
,  // measure 59
1000
0000
0000
0000
0000
0000
0000
0000
0010
0000
0000
0000
0000
0000
0000
0000
0200
0000
0000
0000
0000
0000
0000
0000
0002
0000
0000
0000
0000
0000
0000
0000
0000
0000
0000
0000
0000
0000
0000
0000
0000
0000
0000
0000
0000
0000
0000
0000
0000
0000
0000
0000
0000
0000
0000
0003
0004
0000
0000
0000
0000
0000
0000
0000
,  // measure 60
0000
0000
0000
0303
2220
0000
0000
0000
,  // measure 61
0000
0000
0000
0300
0000
0000
0000
0000
,  // measure 62
0000
0000
3030
0000
;

//---------------dance-single - Ace Of Hearts (2013)----------------
#NOTES:
     dance-single:
     Ace Of Hearts (2013):
     Challenge:
     11:
     0.895,0.478,0.767,1.000,0.515:
0000
0000
0000
0000
,
2000
0000
3010
0100
0000
0001
0000
2002
0000
0003
3100
0010
0002
0000
1003
0200
,
0000
0000
0000
2300
0000
3100
0010
0002
0000
0000
1003
0020
0000
0230
0300
0102
,
0000
1003
0100
0020
0000
0130
1000
0002
0000
1003
2000
0000
3010
0100
0001
2000
,
0000
0000
0000
3020
0000
0000
0000
0000
0000
0000
0000
0030
2010
0000
3001
0010
,
0100
0000
0010
0000
0001
0000
1000
0000
0010
0100
0001
0000
2001
0000
3100
0010
,
0001
0000
2001
0000
0000
0000
3040
0000
0000
0030
0210
0000
0000
0000
0301
1000
,
0100
0000
0120
0000
0000
0000
0031
0000
1000
0100
0010
0000
0012
0000
1003
0010
,
0100
0000
0102
0000
0000
0000
4003
0000
0000
3000
1200
0000
0000
0000
0310
0001
,
1000
0000
0010
1000
0001
0100
0001
0100
0010
1000
0001
0000
0021
0000
0130
1000
,
0001
0000
0201
0000
0000
0000
0340
0000
0000
0030
2010
0000
0000
0000
3001
0010
,
0100
0000
2100
0000
0000
0000
3001
0000
0100
0010
1000
0000
1002
0000
0013
0100
,
1000
0000
0002
0000
0000
0000
0103
0000
0000
0000
0120
0000
0000
0000
1030
0001
,
0040
0000
0000
0030
0100
0000
1000
0001
1000
0000
2200
0000
0000
0000
0000
0000
,
0000
0000
0000
0000
0000
0000
0000
0000
0000
0000
0000
0000
0000
0000
0000
0000
0000
0000
0000
0000
0000
0000
0000
0300
0400
0000
0000
0000
0000
0000
0000
0000
0000
0000
0000
0000
0000
0000
0000
0000
0000
0000
0000
0000
0000
0000
0000
0000
3300
0000
0000
0000
0000
0000
0000
0000
0000
0000
0000
0000
0000
0000
0000
0000
,
0000
0000
0100
0010
0001
0010
0100
1000
0100
0010
0001
1000
0M02
0000
1003
1020
,
000M
0430
0000
0301
01M0
1000
0100
0002
0M00
1003
0010
0100
M102
0000
1003
1200
,
000M
0310
0000
0012
0M00
1003
0100
0020
010M
0100
0030
0000
0012
0000
0000
0000
,
2003
3010
0000
0410
0000
0301
2001
0000
,
3100
0002
0000
0403
0000
0300
1100
1000
,
0001
0000
0201
0000
0000
0000
0310
0000
1000
0000
1200
0000
0000
0000
0310
0001
,
0010
0000
0001
1000
0010
1000
0001
0010
0100
0000
0000
0000
210M
0000
30M0
0000
,
0M00
0000
M001
0000
04M1
0000
M000
0300
000M
0000
0M00
0000
M110
0000
001M
0000
,
1M00
0000
10M2
0000
0M00
0000
M023
0000
0M00
0000
013M
0000
41M0
0000
000M
3000
,
0M00
M001
02M1
M000
030M
00M0
0110
0010
,
1000
0000
0002
0000
0013
0000
0100
1000
0100
1000
0001
1000
00M4
0000
0M00
0003
,
M000
100M
1M20
000M
M000
103M
0M10
M001
,
0M10
0000
201M
0000
0M00
0000
34M0
0000
000M
0000
M300
0000
0220
0000
0000
0330
,
0022
0000
0000
0033
2002
0000
0000
3003
2200
0000
0000
0000
0001
0000
0000
0000
,
0010
0000
0000
0000
0010
0000
0000
0000
0001
0000
3300
0000
2002
0000
3003
2020
,
0000
3030
0010
0100
0002
0000
0003
2002
0000
3003
1000
0000
1200
0000
0310
0000
,
0001
0000
0010
0000
0100
0000
1000
0000
0001
0000
0101
0000
0100
0010
1000
0000
,
2202
0000
0000
0000
3303
0000
1002
0000
0000
0103
0010
0000
1000
0000
0002
0000
1003
0100
0010
0100
2000
0000
3000
0000
1002
0000
0000
0000
0100
0000
0000
0000
,
1000
0000
0023
0000
0000
0000
0100
0030
0110
0000
0100
0000
2100
0000
0010
0000
,
0001
3400
0000
0300
0010
0001
2001
3010
,
0100
0000
0002
0000
0000
0000
1003
0000
0010
0000
0001
0000
0040
0000
1030
0001
,
1000
0000
0100
0000
1000
0001
0100
0010
0100
0001
1000
0000
1002
0000
0010
0000
,
1000
0000
0403
0000
0000
0000
0320
0000
0000
0030
2010
0000
0001
0000
0100
0000
,
0001
3040
0000
0230
0301
2002
3000
0013
,
0100
1000
0001
0010
0001
2001
0000
3010
,
2000
0000
0000
0000
0200
0000
0040
0004
0000
0000
3333
0000
0000
0000
0000
0000
1200
0000
0000
0000
0310
0000
0000
0000
0001
0000
0000
0000
2000
0000
0000
0000
,
0000
0000
0010
0000
3010
0000
0100
0000
0001
2000
0000
0000
3100
0000
0040
0000
,
0000
0000
0000
0000
0032
0000
0000
0003
0201
0000
0010
0000
1000
0000
0320
0000
,
0100
0001
0100
1000
0430
0000
0300
0001
,
2000
0000
3100
0000
0010
0001
1000
0000
1020
0000
0130
0000
0002
0000
2000
0000
,
0000
0000
0000
0000
0000
0000
0000
0000
0000
0000
0000
0000
0000
0000
0000
0000
0000
0000
0000
0000
0000
0000
0000
3000
4000
0000
0000
0000
0000
0000
0000
0000
0000
0000
0000
0000
0000
0000
0000
0000
0000
0000
0000
0000
0000
0000
0000
0000
3003
0000
0000
0000
0000
0000
0000
0000
0000
0000
0000
0000
0000
0000
0000
0000
,
1200
0000
0000
0020
0030
0000
1300
0001
2000
0000
3010
0000
0100
0000
0001
0000
,
1001
1000
0100
0120
0031
1000
1010
0000
,
0020
0000
0130
0001
2000
0000
0200
0000
0000
0000
3000
0000
0310
0000
0000
0000
,
0011
0000
0001
0000
2000
3000
1100
0000
0000
0000
0100
0000
0001
0000
0100
1000
,
0001
1000
0001
0100
0001
1000
0001
0000
0021
0000
0130
1000
0001
0000
0201
0000
,
0000
0000
0310
0000
1000
0000
1002
0000
0000
0000
0103
0010
1000
0000
1002
0000
,
0000
0000
0013
0000
0100
1000
0001
0000
0201
0000
0310
1000
0001
0000
0021
0000
,
0000
0000
0430
0000
0000
0300
2100
0000
0000
0000
3001
0010
0100
0000
1000
0100
,
0010
0001
0010
0100
1000
0100
0010
0000
0012
0000
1003
0010
0100
0000
0120
0000
,
0000
0000
4030
0000
0000
3000
1002
0000
0000
0000
0013
0100
1000
0000
1020
0000
,
0000
0000
0130
0000
0001
1000
0100
0000
0120
0000
0031
1000
0010
0000
0400
0000
,
0000
0301
1000
2020
3000
0130
0101
0001
,
1000
0010
0100
0001
0100
0020
2000
0000
0030
0000
3001
0010
0100
0000
0010
0000
,
0001
0000
1000
0100
0010
0100
1000
0000
2222
0000
0000
0000
0000
0000
0000
0000
,
0000
0000
0000
0030
0000
0000
0000
0000
,
0300
0000
3003
0000
;

//---------------dance-single - Ace Of Hearts (2013)----------------
#NOTES:
     dance-single:
     Ace Of Hearts (2013):
     Medium:
     7:
     0.492,0.269,0.039,1.000,0.131:
0000
0000
0000
0000
,
2000
0000
0000
3001
0000
0010
0000
0200
0000
0000
1300
0000
0001
0000
0000
0001
,
0000
0000
0000
1000
0000
0000
0000
0020
0000
0030
0000
0100
0000
0001
0000
0100
,
0000
0000
0000
0100
0000
0000
0000
0010
0000
0000
0010
0000
0000
0000
0000
0200
,
0000
0000
0000
0302
0000
0000
0000
0000
0000
0000
0000
0000
2003
0000
0000
0000
,
3001
0100
0002
0000
1003
0000
0020
0000
,
1030
0002
0000
0043
0000
0230
0000
1300
,
0000
0002
0000
1003
0010
0000
0200
0000
,
0301
2000
0000
3400
0000
0320
0000
0031
,
0000
2000
0000
0000
3000
0000
0002
0000
,
0103
0020
0000
0430
0000
0302
0000
2003
,
0000
3200
0000
0310
0002
0000
2003
0000
,
3001
0200
0000
0320
0000
2030
0000
3001
,
0040
0000
0032
0000
2003
0200
0000
0000
,
0000
0000
0000
3300
,
0000
0000
0000
0000
0000
0000
0000
0000
0000
0000
0000
0000
2000
0000
0000
3002
,
0000
0000
0003
0000
0010
0000
0000
0010
0000
0000
0001
0000
0002
0000
0000
1003
,
0000
0010
0000
2000
0000
0000
0000
0000
0000
0000
3000
0000
0002
0000
0000
0000
,
0013
0200
0000
4300
0000
3001
0200
0000
,
0310
2000
0000
3004
0000
0003
2000
0000
,
3001
0020
0000
0000
0130
2000
0000
0000
,
3001
0000
0000
0000
0001
0000
0000
0000
0010
0000
0000
0000
020M
0000
0000
0300
,
0000
0000
1000
0M00
0004
0000
0000
0003
0000
0000
0000
0000
2000
0000
0000
0000
,
3001
0000
0100
0000
0000
0000
0020
0000
0000
0000
1030
0000
0M04
0000
0000
0003
,
0000
0000
0010
000M
0200
0000
0000
0300
0000
0000
0000
0000
2000
0000
0000
0000
,
3001
0000
0020
0000
0000
0000
0000
0000
0030
0000
0100
0000
20M0
0000
0000
3000
,
0000
0000
0001
M000
0200
0000
0000
0300
0000
0000
0010
0000
0200
0000
0000
0000
,
0301
2000
0000
3004
0000
0003
2000
0000
,
3200
0320
0230
0320
,
0032
0000
0000
0000
0023
0000
0000
0000
0230
0000
0000
0000
1300
0000
0000
1000
,
0000
0000
1000
0000
0001
0000
0000
0001
0000
0000
0001
0000
0200
0000
0000
0000
,
0000
0000
0000
0000
0000
0000
0000
0000
0300
0000
0110
0000
0010
1000
0001
0000
,
2002
0000
3003
0000
0000
0000
0000
0002
0000
0023
0000
0000
0230
0000
0000
0000
,
1300
0002
0000
0000
0003
1000
0020
0000
,
1030
0004
0000
0003
2000
0000
3020
0000
,
0130
0002
0000
1003
0020
0000
0430
0000
,
0300
0001
2000
0000
3020
0000
0230
0000
,
0301
4000
0000
3200
0000
2300
0000
0000
,
3001
0400
0000
0310
0000
2020
0000
0000
,
3030
0000
2000
0000
3001
0200
0000
0320
,
0000
0000
0430
0000
0000
0300
0000
0000
0002
0000
0000
0000
1003
0000
0020
0000
,
0000
0000
0000
1030
2000
0000
3001
0040
,
0000
0000
0230
0000
2300
0000
3001
0200
,
0000
0310
2000
0000
3004
0000
0003
1000
,
0002
0000
2003
0000
3020
0000
0230
0002
,
0000
0000
0000
0303
,
0002
0000
0000
2003
0000
0000
3010
0000
0200
0000
0000
0000
0301
0000
2000
0000
,
0000
0000
3100
0020
0000
0031
1000
0000
,
0001
0000
1000
0020
0000
0000
0000
0000
,
0030
0000
1000
0001
0000
0000
0010
0000
,
0010
0000
0000
0000
0200
0000
1300
0002
,
0000
4003
0000
3020
0000
0230
0000
0302
,
0000
1003
0200
0000
0320
0000
0130
2000
,
0000
3004
0000
0203
0000
0000
0310
2000
,
0000
0000
3000
0000
0002
0000
1003
0200
,
0000
0340
0000
0230
0000
2300
0000
3002
,
0000
1003
0020
0000
0230
0000
0301
4000
,
0000
3001
0000
0020
0000
0130
1000
0000
,
0001
0000
0020
0200
0000
0000
0000
0000
,
0000
0330
2200
0000
,
0000
0000
0000
0000
,
0000
0000
3300
0000
;

//---------------dance-single - Ace Of Hearts (2013)----------------
#NOTES:
     dance-single:
     Ace Of Hearts (2013):
     Easy:
     5:
     0.202,0.000,0.019,0.262,0.000:
0000
0000
0000
0000
,
0000
0000
0000
0000
,
0000
0000
0000
0000
,
0000
0000
0000
0000
,
0000
0000
0000
0000
,
0000
0000
0000
1000
,
0000
1000
0000
0000
0000
0001
0000
0001
,
0000
0002
0000
0000
0003
0000
0100
0000
,
0000
0400
0000
0300
0000
0010
0000
0010
,
0000
0020
0000
0000
0030
0000
0100
0000
,
0000
0100
0000
0000
0000
0001
0000
0001
,
0000
0002
0000
0000
0003
0000
1000
0000
,
0000
1000
0000
0000
0000
1000
0000
0000
,
0000
0000
0100
0000
0000
0200
0000
0000
,
0000
0000
0000
0300
,
0000
0000
0000
0010
,
0010
0000
0100
0100
0100
0000
1000
0000
,
1000
2000
3000
0001
,
0000
0001
0000
0000
0000
0000
0100
0000
,
0000
0100
0000
0000
0000
0000
0001
0000
,
0000
0001
0000
0000
0000
0002
0000
0000
,
0000
0003
0000
1000
,
0000
40M0
3000
2000
,
0000
3000
0000
0040
,
0030
0M10
0000
0020
,
0000
0030
0000
0100
,
0000
010M
0000
0200
,
0000
0300
0000
0001
,
0001
0001
0000
1000
,
1000
1000
0000
0010
,
0010
0010
0000
0020
,
0000
0000
0000
0000
0000
0130
0000
0000
,
2002
0000
0000
3003
0000
0000
0000
0000
0000
0000
0000
0000
0001
0000
0000
0000
,
0000
0002
0000
0000
0003
0000
0100
0000
,
0000
0400
0000
0000
0300
0000
0010
0000
,
0000
0010
0000
0000
0000
0000
0040
0000
,
0030
1000
1000
2000
,
0000
3001
0000
0001
0000
0002
0000
0000
,
0000
1003
0000
1000
0000
2000
0000
0000
,
0000
0000
3100
0000
0000
0100
0000
0100
,
0000
0400
0000
0300
1000
0000
0000
2000
,
0000
0000
3000
0000
0001
0000
0000
0004
,
0000
0000
0003
0000
0100
0000
0000
0100
,
0000
0100
0400
0300
,
0010
0000
0000
0000
0010
0000
0000
0020
,
0000
0000
0000
0030
,
2000
3000
0001
0001
,
0001
0000
0000
0020
0000
0000
0030
0000
,
0100
0000
0000
0200
0000
0000
0000
0000
,
0300
0000
0000
0100
0000
0000
0000
0000
,
0000
0000
0000
0000
1000
0000
0000
1000
,
0000
0000
0000
0001
0000
0001
0000
0002
,
0000
0000
0003
0000
0100
0000
0000
0100
,
0000
0000
0000
0010
0000
0010
0000
0020
,
0000
0000
0030
0000
1000
0000
0000
1000
,
0000
0000
0000
0010
0000
0010
0000
0020
,
0000
0000
0030
0000
0100
0000
0000
0400
,
0000
0000
0300
0001
0000
0000
0001
0000
,
0001
0000
0000
0002
0000
0000
0000
0000
,
0000
0003
0202
0000
,
0000
0000
0000
0000
,
0000
0000
0303
0000
;

//---------------dance-single - Ace Of Hearts (2013)----------------
#NOTES:
     dance-single:
     Ace Of Hearts (2013):
     Beginner:
     2:
     0.144,0.000,0.010,0.301,0.000:
0000
0000
0000
0000
,
0000
0000
0000
0000
,
0000
0000
0000
0000
,
0000
0000
0000
0000
,
0000
0000
0000
0000
,
0000
0000
0000
0001
,
0000
0001
0000
0002
,
0000
0003
0000
1000
,
0000
1000
0000
2000
,
0000
3000
0000
0100
,
0000
0100
0000
0200
,
0000
0300
0000
0010
,
0000
0010
0000
0010
,
0000
0000
0000
0200
,
0000
0000
0000
0300
,
0000
0000
0000
1000
,
0000
1000
0000
1000
,
0000
0000
0000
0001
,
0000
0001
0000
0002
,
0000
0003
0000
1000
,
0000
1000
0000
2000
,
0000
3000
0000
0100
,
0000
0100
0000
0200
,
0000
0300
0000
0010
,
0000
0010
0000
0020
,
0000
0030
0000
0001
,
0000
0001
0000
0002
,
0000
0003
0000
1000
,
0000
1000
0000
2000
,
0000
3000
0000
0010
,
0000
0010
0000
0020
,
0000
0000
0000
0000
0000
0030
0000
0000
,
0200
0300
0000
0001
,
0000
0001
0000
0002
,
0000
0003
0000
0100
,
0000
0100
0000
0200
,
0000
0300
0000
0020
,
0000
0030
0000
2000
,
0000
3000
0000
0002
,
0000
0003
0000
0200
,
0000
0000
0000
0300
0000
0000
0000
0000
0002
0000
0000
0000
0000
0000
0000
0000
,
0003
0000
2000
0000
,
3000
0000
0020
0000
,
0030
0000
0100
0000
,
0100
0000
0200
0000
,
0000
0000
0000
0300
,
0000
0000
0001
0000
,
0001
0000
0002
0000
,
0003
0000
2000
0000
,
3000
0000
0000
0000
,
0000
0000
0010
0000
,
0010
0000
0020
0000
,
0030
0000
0100
0000
,
0100
0000
0200
0000
,
0300
0000
0001
0000
,
0001
0000
0002
0000
,
0003
0000
1000
0000
,
1000
0000
2000
0000
,
3000
0000
0200
0000
,
0300
0000
0220
0000
,
0000
0000
0000
0000
,
0000
0000
0330
0000
;
