#TITLE:Fate Runners;
#SUBTITLE:;
#ARTIST:Miyuki Hashimoto;
#TITLETRANSLIT:;
#SUBTITLETRANSLIT:;
#ARTISTTRANSLIT:;
#GENRE:J-Pop;
#CREDIT:Ace Of Hearts;
#BANNER:Fate Runners - bn.png;
#BACKGROUND:Fate Runners - bg.png;
#LYRICSPATH:;
#CDTITLE:Ace Of Hearts.png;
#MUSIC:Fate Runners.ogg;
#OFFSET:0.120;
#SAMPLESTART:58.900;
#SAMPLELENGTH:12.000;
#SELECTABLE:YES;
#BPMS:0.000=89.500,13.000=179.000,125.000=89.500,133.000=179.000,221.000=89.500,229.000=179.000;
#STOPS:;
#BGCHANGES:0.000=Fate Runners - bg.png=1.000=0=0=0=StretchNoLoop====,
0.125=Eiyu Senki Opening.avi=1.000=1=0=0=StretchNoLoop==CrossFade==,
99999=-nosongbg-=1.000=0=0=0 // don't automatically add -songbackground-
;
#FGCHANGES:;
#KEYSOUNDS:;

//---------------dance-single - Russia----------------
#NOTES:
     dance-single:
     Ace Of Hearts (2013):
     Hard:
     9:
     0.677,0.332,0.299,1.000,0.079: // measure 1
0000
0000
0000
0000
,  // measure 2
00M2
0000
0103
0000
M002
0000
0000
0000
10M3
0100
0010
M002
0000
0000
0003
0000
,  // measure 3
2M00
0000
3010
0000
200M
0000
0000
0000
3M01
0010
0100
200M
0000
0000
0000
0000
,  // measure 4
3000
0000
0001
0100
M020
0000
0000
0000
2030
0000
0000
0000
3M01
0000
0010
0000
,  // measure 5
0000
020M
0000
0000
2300
0000
30M1
0100
,  // measure 6
0000
M220
0000
0000
0000
0000
0330
0000
,  // measure 7
0010
1000
0M01
0000
001M
0000
M210
0000
,  // measure 8
13M0
0000
1002
0000
0103
0000
0010
1000
,  // measure 9
0000
0002
0000
1003
0100
0010
0100
1000
,  // measure 10
0000
0002
0000
1003
0020
0000
0130
0001
,  // measure 11
1000
0002
0000
1003
0100
0010
0001
0010
,  // measure 12
0100
2000
0000
3001
0010
0100
0010
0001
,  // measure 13
0000
2000
0000
3001
0100
0010
0100
0001
,  // measure 14
1000
0200
0000
0310
0100
1000
0100
0010
,  // measure 15
0000
0002
0000
1003
0010
0100
0001
0100
,  // measure 16
0010
2000
0000
0000
3002
0000
0023
0000
,  // measure 17
0430
0000
2300
0000
3001
0200
0000
0310
,  // measure 18
1000
0004
0000
0000
2003
0000
3100
0010
,  // measure 19
0001
0010
0200
0000
1300
0004
0000
0000
,  // measure 20
0003
2000
3020
0230
,  // measure 21
0320
0000
2030
0000
3001
0020
0000
0030
,  // measure 22
0000
0001
0010
0100
1000
0100
0010
0001
,  // measure 23
1000
0001
1000
0010
0100
0002
0000
1003
,  // measure 24
0100
2000
0000
3000
0001
0000
0200
0000
,  // measure 25
0310
0000
0200
0000
0301
2000
0000
3001
,  // measure 26
0100
0040
0000
0000
2030
0000
3001
0100
,  // measure 27
0010
0100
0002
0000
1003
0400
0000
0310
,  // measure 28
0001
0020
0000
0130
1000
0002
0000
1003
,  // measure 29
0100
0040
0000
0000
0030
0000
0001
0010
,  // measure 30
0100
0010
0002
0000
1003
0200
0000
0310
,  // measure 31
0001
2000
0000
3010
0100
0002
0000
1003
,  // measure 32
0010
0000
0100
0000
0002
0000
1003
0000
002M
0000
0430
0000
M302
0000
1003
02M0
,  // measure 33
0000
0320
0000
0000
M002
0000
0000
0030
0000
0000
1003
0010
M200
0000
0301
20M0
,  // measure 34
0000
3010
0100
0020
0000
0000
1030
0000
0001
0000
1000
0000
0400
0000
0000
0300
,  // measure 35
0000
0020
0000
0000
0230
0000
2300
0000
,  // measure 36
3002
0000
0000
0000
0000
0000
0000
0000
0200
0000
0000
0000
0000
0000
0000
0000
0000
0000
0000
0000
0000
0000
0000
0000
0000
0000
0000
0000
0000
0000
0000
0000
0000
0000
0000
0000
0000
0000
0000
0000
0000
0000
0000
0000
0000
0000
0000
0000
0000
0000
0000
0000
0000
0000
0000
0000
0000
0000
0000
0000
0000
0000
0000
0300
,  // measure 37
0400
0000
0000
0000
0303
0000
0000
0100
,  // measure 38
0010
1000
0002
0000
0013
0100
2000
0000
,  // measure 39
3001
0010
0000
0000
0111
0000
0020
0000
,  // measure 40
0230
0000
0000
0300
2100
0000
0000
0000
0000
0000
0000
0000
3001
0000
0100
0000
,  // measure 41
0001
4000
0000
0000
3000
0000
0002
0000
,  // measure 42
0203
0000
0000
0300
0120
0000
0000
0000
0000
0000
0000
0000
1030
0000
0010
0000
,  // measure 43
0100
0004
0000
0000
0000
0000
0003
0000
,  // measure 44
1000
0001
1000
0100
0010
0001
1000
0040
,  // measure 45
0000
0030
0210
0000
0000
0000
0301
0000
0100
0000
0010
0000
1000
0000
0004
0000
,  // measure 46
0000
0003
0021
0000
0000
0000
0000
0000
0230
0000
0000
0000
1300
0000
0001
0000
,  // measure 47
0000
0401
0000
0310
1000
0002
0013
0100
,  // measure 48
1000
0001
2002
0003
0000
0000
3010
1000
,  // measure 49
0001
0040
0000
0000
0030
0000
0002
0000
,  // measure 50
2003
0000
0000
3000
1020
0000
0000
0000
0000
0000
0000
0000
0230
0000
0000
0000
,  // measure 51
0301
2001
0000
0400
0000
0000
3300
0000
,  // measure 52
0100
0010
0004
0000
1003
0000
0010
0100
,  // measure 53
0000
0102
0000
0000
4003
0000
3100
0010
,  // measure 54
0000
0014
0000
0000
0000
0000
0000
0000
,  // measure 55
1003
0100
0020
0000
0130
0000
2000
0000
,  // measure 56
3004
0000
0000
0000
0203
0000
0320
0000
2M30
0000
3002
0000
M023
0000
0130
400M
,  // measure 57
0000
0000
3000
0000
M001
0010
0100
400M
0000
3002
0000
02M3
0000
0000
0320
0000
,  // measure 58
2M30
0000
3002
0003
0022
0000
0000
0000
0000
0000
0033
0000
0420
0000
0000
0000
,  // measure 59
0000
0330
2200
0000
0000
3300
2002
0000
,  // measure 60
0000
0000
3003
0000
2010
0000
0000
3002
0000
0000
0013
0000
0420
0000
0000
0000
,  // measure 61
0330
0000
2200
3300
2002
3003
0202
0303
,  // measure 62
2020
3030
0220
0000
0000
0000
0000
0000
,  // measure 63
0000
0000
0000
0000
0000
0000
0000
0000
0000
0000
0000
0000
0000
0000
0000
0000
0000
0000
0000
0000
0000
0000
0000
0000
0000
0000
0000
0000
0000
0000
0000
0000
0000
0000
0000
0000
0000
0000
0000
0000
0000
0000
0000
0000
0000
0000
0000
0300
0400
0000
0000
0000
0000
0000
0000
0000
0000
0000
0000
0000
0000
0000
0000
0000
,  // measure 64
0030
0002
0300
0000
2003
0000
3100
0010
,  // measure 65
0100
2000
0000
3001
0100
0010
1000
0001
,  // measure 66
0000
0201
0000
0310
1000
1200
0000
0310
,  // measure 67
0001
0201
0000
0301
1000
1020
0000
0130
,  // measure 68
0002
0000
0000
0003
20M1
0000
0000
0000
3M10
0000
0100
0000
0001
0000
0100
0000
,  // measure 69
0001
1000
010M
0010
0100
0010
0001
0010
,  // measure 70
0001
1000
0M01
0100
0001
1000
010M
M010
,  // measure 71
0002
0000
0000
0003
1M01
0000
10M0
0000
0M01
0000
20M2
0000
0000
0000
0000
0000
,  // measure 72
3003
0000
0000
0000
;

//---------------dance-single - Britannia----------------
#NOTES:
     dance-single:
     Ace Of Hearts (2013):
     Challenge:
     11:
     1.000,0.398,0.823,1.000,0.388: // measure 1
0000
0000
0000
0000
,  // measure 2
200M
0000
0000
0000
3020
0000
0000
0030
M210
0000
0000
0000
0000
0000
0000
0000
03M1
0000
0100
0000
0010
0000
200M
0000
0000
0000
0000
0000
3000
0000
0000
0000
,  // measure 3
0M02
0000
0000
0000
0023
0000
0000
0030
021M
0000
0000
0000
0000
0000
0000
0000
13M0
0000
0100
0000
0010
0000
M200
0000
0000
0000
0000
0000
0000
0000
0000
0000
,  // measure 4
0300
0000
1000
0001
02M1
0000
0310
0000
1000
0000
0000
0000
1000
0000
0100
0000
,  // measure 5
0010
M012
0000
1003
0010
0100
0001
0010
,  // measure 6
0100
0000
210M
0000
0000
0000
3001
0000
0100
0000
0010
0000
1000
0001
1000
0000
,  // measure 7
110M
M110
0M11
0000
00M2
0000
1M03
0010
,  // measure 8
020M
0000
0301
0000
2001
0000
3100
0010
0001
0000
1000
0000
0010
0100
0001
0000
,  // measure 9
1000
0000
0100
0000
0010
0100
1000
0000
0001
0000
0100
0000
0010
1000
0001
0000
,  // measure 10
0010
0000
0210
0000
0000
0000
1300
0000
0001
0000
0100
0010
1000
0000
0001
0000
,  // measure 11
1000
0010
0200
0301
1001
1000
1010
0010
,  // measure 12
0100
0000
0102
0000
0000
0000
1003
0000
0100
0000
0010
0100
1000
0000
0001
0000
,  // measure 13
0100
0000
0010
0000
1000
0000
0001
0010
0100
0000
1000
0000
0001
0100
0010
0000
,  // measure 14
1000
0000
1002
0000
0000
0000
0013
0100
1000
0000
0001
0000
0100
0010
1000
0000
,  // measure 15
0001
0000
0021
0000
0000
0000
0130
0000
1100
0000
1000
0000
0001
0010
0100
0000
,  // measure 16
1000
2002
3000
0103
0020
1030
0002
0013
,  // measure 17
0200
1300
0002
0103
0020
2030
0000
3002
,  // measure 18
0203
0320
1030
0001
0020
0130
2000
3200
,  // measure 19
0302
0203
2300
3001
0200
0340
0000
0130
,  // measure 20
0001
1000
0200
0310
0002
1003
0020
0130
,  // measure 21
0002
1003
0200
0310
0002
2003
0000
3000
,  // measure 22
0001
0100
0010
1000
0100
0010
0001
0100
,  // measure 23
0010
1000
1001
0101
1010
1001
0000
0001
,  // measure 24
0001
0000
0201
0000
0000
0000
0310
1000
0001
0000
0010
0000
0100
1000
0001
0000
,  // measure 25
0100
0000
0010
0000
0200
0000
0301
1000
0100
0000
0020
0000
0000
0000
0130
1000
,  // measure 26
0001
0000
0401
0000
0000
0000
0310
1000
0001
0000
0010
0000
0100
1000
0001
0000
,  // measure 27
0100
0000
0010
0000
2000
0000
3001
0010
0100
0000
0040
0000
0000
0000
0031
1000
,  // measure 28
0010
0000
0210
0000
0000
0000
0301
1000
0100
0000
0120
0000
0000
0000
0031
1000
,  // measure 29
0010
0410
0000
0301
1000
0100
0010
1000
,  // measure 30
0010
0001
2000
3010
0100
0002
0000
1003
,  // measure 31
0100
0000
0020
0000
0000
0030
0010
0000
0100
0000
2000
0000
0000
3000
1001
0000
,  // measure 32
1001
0000
0001
0000
0201
0000
032M
0000
2M30
0000
30M4
0000
M023
0000
203M
3M20
,  // measure 33
0000
0000
M032
0000
0000
0000
0M03
0000
2002
0000
00M0
0000
0003
0000
3100
0010
0100
0000
1000
0000
0001
0000
0100
0000
012M
0000
1030
0000
0001
0000
0M21
0000
,  // measure 34
0000
0130
0100
2100
0000
0000
3001
0000
0100
0000
1000
0000
0400
0000
0001
0000
,  // measure 35
0301
0000
0021
0000
0000
0000
0000
0000
2000
0000
0000
0030
0002
3000
0000
0000
,  // measure 36
0103
2100
0000
3001
1000
0010
0100
1000
,  // measure 37
0100
0001
1000
0100
0001
0100
1000
0001
,  // measure 38
0100
0010
1010
1001
0011
0110
2200
0300
,  // measure 39
3001
0202
0000
0000
0010
0303
2001
0000
,  // measure 40
3200
0000
0000
0300
0120
0000
0031
1000
0010
0000
0100
0000
0001
0100
0010
0000
,  // measure 41
1000
0000
0004
0000
0000
0000
1003
0000
0010
0000
0100
0000
0001
1000
0100
0000
,  // measure 42
0010
0000
0100
0000
2100
0000
3001
0100
0010
0000
1000
0000
0001
0010
0100
0000
,  // measure 43
1000
1004
0000
1003
0010
0100
0010
0100
,  // measure 44
0001
0000
1000
0000
0001
0000
0010
0000
1000
0000
0010
0000
0001
0010
0100
0000
,  // measure 45
1000
0000
0001
0000
0100
0000
1000
0000
0100
0000
0001
0000
0100
0010
1000
0000
,  // measure 46
0001
0000
0021
0000
0000
0000
0000
0000
0230
0000
0000
0000
1300
0001
0100
0000
,  // measure 47
0010
0000
2010
0000
0000
3000
1001
0000
0011
0000
2100
0000
3001
0000
0100
0000
,  // measure 48
0100
0000
0010
0000
2010
0000
3001
0010
0100
0000
0010
0000
0001
1000
0010
0000
,  // measure 49
0100
0000
0104
0000
0000
0000
1003
0100
0010
0000
0100
0000
1000
0001
0100
0000
,  // measure 50
0010
0000
1000
0000
1002
0000
0103
0010
1000
0000
0001
0000
1000
0100
0010
0000
,  // measure 51
0001
0000
2001
0000
0000
0000
3100
0000
0010
0000
0012
0000
0000
0000
1003
0010
,  // measure 52
0100
0000
0001
0000
2001
0000
3100
0010
0001
0000
1000
0000
0010
0100
0001
0000
,  // measure 53
1000
0000
1200
0000
0000
0000
0310
0001
1000
0000
0010
0000
0100
0001
1000
0000
,  // measure 54
0100
0000
0140
0000
0000
0000
0031
0000
1000
0000
0010
0000
0100
0001
1000
0000
,  // measure 55
0100
0010
0110
0100
1100
1000
1001
0001
,  // measure 56
0101
0000
0100
0000
0120
0000
203M
0000
3M02
0000
M023
0030
210M
0000
30M1
M400
,  // measure 57
0000
0000
03M0
0000
0M01
0010
1000
004M
0000
M032
0000
02M3
0000
0000
032M
0000
,  // measure 58
2M30
0000
30M2
0003
0022
0000
0000
0000
0000
0000
0033
0000
4002
0000
0000
0000
,  // measure 59
0000
3003
2020
0000
0000
3030
0220
0000
,  // measure 60
0000
0000
0330
0000
0202
0000
0303
2002
0000
3003
2020
3030
0420
0000
0000
0000
,  // measure 61
0330
0000
0000
0000
0102
0000
0000
0003
2001
0000
0000
3000
2200
0000
0000
3300
,  // measure 62
2220
0000
0000
3330
2222
0000
0000
0000
0000
0000
0000
0000
0000
0000
0000
0000
,  // measure 63
0000
0000
0000
0000
0000
0000
0000
0000
0000
0000
0000
0000
0000
0000
0000
0000
0000
0000
0000
0000
0000
0000
0000
0000
0000
0000
0000
0000
0000
0000
0000
0000
3000
0000
0000
0000
0000
0000
0000
0000
0000
0000
0000
0000
0000
0000
0000
0003
0304
0000
0000
0000
0000
0000
0000
0000
0000
0000
0000
0000
0000
0000
0000
0000
,  // measure 64
0030
0000
2000
0000
0003
0000
0000
0000
3010
0000
0100
0001
1000
0000
0100
0000
,  // measure 65
0010
0200
0000
1300
1001
0001
0101
0100
,  // measure 66
0000
0000
0120
0000
0000
0000
1030
0001
0010
0000
0210
0000
0000
0000
1300
0001
,  // measure 67
0100
0000
0120
0000
0000
0000
1030
0001
0010
0000
0210
0000
0000
0000
1300
0000
,  // measure 68
0002
0000
0000
0003
0201
0000
0310
1000
001M
0000
0100
0010
M100
0000
0001
0100
,  // measure 69
00M1
0000
1000
0001
1M00
0000
0001
0010
M001
0000
1000
0100
100M
0000
0100
0010
,  // measure 70
M100
0000
1000
0001
10M0
0000
0001
0010
0M01
0000
100M
0100
0010
M001
0010
0100
,  // measure 71
200M
0000
0000
3MM0
1001
0000
M11M
0000
1001
0MM0
2002
0000
0000
0000
0000
0000
,  // measure 72
3003
0000
0000
0000
;

//---------------dance-single - USA----------------
#NOTES:
     dance-single:
     Ace Of Hearts (2013):
     Medium:
     7:
     0.544,0.299,0.065,1.000,0.075: // measure 1
0000
0000
0000
0000
,  // measure 2
1000
0000
0100
0000
2000
0000
0000
0000
3001
0010
0100
2000
0000
0000
3000
0000
,  // measure 3
0001
0000
0100
0000
0002
0000
0000
0000
1003
0100
0010
0002
0000
0000
0000
0000
,  // measure 4
0003
0000
0010
0100
0020
0000
0000
0000
0031
0000
0000
0000
1000
0000
0010
0000
,  // measure 5
0000
0200
0000
0000
0302
0000
1003
0100
,  // measure 6
0000
0020
0000
0000
0000
0000
0030
0000
,  // measure 7
0001
1000
0001
0000
0100
0000
0020
0000
,  // measure 8
1030
0000
0001
0000
0001
0000
1000
0010
,  // measure 9
0000
0010
0000
1000
0001
0000
0001
0100
,  // measure 10
0000
0200
0000
0000
0320
0000
1030
0001
,  // measure 11
0000
0001
0000
1000
0100
0000
1000
0100
,  // measure 12
0010
0002
0000
0000
1003
0000
1000
0100
,  // measure 13
0000
0100
0000
0000
0010
0000
0010
0100
,  // measure 14
0000
0200
0000
0000
1300
0000
1000
0001
,  // measure 15
0000
0002
0000
1003
0010
0000
1000
0010
,  // measure 16
0100
0002
0000
0000
2003
0000
3002
0000
,  // measure 17
0403
0000
0320
0000
1030
0002
0000
1003
,  // measure 18
0100
4000
0000
0000
3002
0000
0103
0010
,  // measure 19
0100
0000
0020
0000
1030
0004
0000
0000
,  // measure 20
0003
0000
2000
3200
,  // measure 21
0320
0000
0032
0000
1003
0200
0000
0300
,  // measure 22
0000
0000
1000
0001
1000
0000
0001
0100
,  // measure 23
0001
0000
1000
0010
1000
0001
0000
0000
,  // measure 24
0000
0000
2000
3200
,  // measure 25
2300
0000
3200
0000
0310
0002
0000
1003
,  // measure 26
0010
4000
0000
0000
3002
0000
0103
0010
,  // measure 27
0200
0000
0302
0000
1003
0040
0000
1030
,  // measure 28
0001
2000
0000
3001
0010
0002
0000
0013
,  // measure 29
0100
0040
0000
0000
0030
0000
0001
1000
,  // measure 30
0001
0000
2000
0000
3010
0400
0000
0000
,  // measure 31
0000
0000
0000
0300
,  // measure 32
0000
0000
0000
0000
0000
0000
0002
0000
0023
0000
0230
0000
2300
0000
3001
0020
,  // measure 33
0000
0031
0000
0000
2002
0000
0000
0000
3003
0000
1000
0100
2000
0000
3001
0200
,  // measure 34
0000
0000
0300
0002
0000
0000
0000
0000
1003
0000
0100
0000
2000
0000
0000
3000
,  // measure 35
0000
0002
0000
0000
0023
0000
0230
0000
,  // measure 36
1300
0000
0000
0000
0000
0000
0000
0000
0002
0000
0000
0000
0000
0000
0000
0000
0000
0000
0000
0000
0000
0000
0000
0000
0000
0000
0000
0000
0000
0000
0000
0000
0000
0000
0000
0000
0000
0000
0000
0000
0000
0000
0000
0000
0000
0000
0000
0000
0000
0000
0000
0000
0000
0000
0000
0000
0000
0000
0000
0000
0000
0000
0000
0003
,  // measure 37
0004
0000
0000
0000
0003
0000
0000
1000
,  // measure 38
0002
0000
2003
0000
3010
0100
0002
0000
,  // measure 39
1003
0020
0030
0000
0110
0000
0200
0000
,  // measure 40
0302
0000
2003
0000
0000
0000
3001
0010
,  // measure 41
0001
4000
0000
0000
3000
0000
0002
0000
,  // measure 42
0023
0000
0230
0000
0000
0000
1300
0100
,  // measure 43
1000
0004
0000
0000
0000
0000
0003
0000
,  // measure 44
2000
0000
3010
0100
0010
0000
1000
0020
,  // measure 45
0000
0230
0000
0000
0301
0000
1000
0002
,  // measure 46
0000
0023
0000
0000
0230
0000
1300
0001
,  // measure 47
0000
0400
0000
0300
0000
0000
0020
0000
,  // measure 48
2030
0000
3002
0000
0000
0000
1003
0100
,  // measure 49
0010
0004
0000
0000
0003
0000
2000
0000
,  // measure 50
3020
0230
0000
0302
,  // measure 51
1003
0020
0000
0430
0000
0000
0300
0000
,  // measure 52
0001
0100
0002
0000
2003
0000
3100
0020
,  // measure 53
0000
0032
0000
0000
2003
0000
3001
0100
,  // measure 54
0000
0040
0000
0000
0000
0000
0000
0000
,  // measure 55
1030
0001
2000
0000
3100
0000
0020
0000
,  // measure 56
0130
0000
0000
0000
0000
0000
1000
0000
0002
0000
2003
0000
3020
0000
0130
0004
,  // measure 57
0000
0000
0003
0000
1000
0100
0010
0002
0000
2003
0000
3200
0000
0000
2300
0000
,  // measure 58
3002
0203
0320
0000
0000
0000
0430
0000
,  // measure 59
0000
0302
0000
2003
,  // measure 60
0000
0000
0000
0000
3001
0000
0000
0001
0000
0000
0010
0000
0400
0000
0000
0000
,  // measure 61
0300
0000
2200
3300
0022
0033
0220
0330
,  // measure 62
2200
3300
2002
0000
0000
0000
0000
0000
,  // measure 63
0000
0000
0000
0000
,  // measure 64
3003
0002
0000
0000
0023
0000
0130
1000
,  // measure 65
0000
1000
0000
0001
0100
0000
0100
0010
,  // measure 66
0000
2000
0000
3001
0010
0002
0000
1003
,  // measure 67
0001
2000
0000
3100
0010
0200
0000
1300
,  // measure 68
0002
0023
0200
0030
,  // measure 69
0000
2300
0000
0000
,  // measure 70
0000
0000
3002
0000
0000
0000
0000
0203
,  // measure 71
0000
0000
0301
0001
1000
2000
0000
0000
,  // measure 72
3000
0000
0000
0000
;

//---------------dance-single - Indonesia----------------
#NOTES:
     dance-single:
     Ace Of Hearts (2013):
     Easy:
     5:
     0.294,0.199,0.019,0.374,0.042: // measure 1
0000
0000
0000
0000
,  // measure 2
0001
0000
0000
0000
0002
0000
0000
0000
1003
0000
0000
2000
0000
0000
3000
0000
,  // measure 3
0010
0000
0000
0000
0020
0000
0000
0000
0130
0000
0000
0200
0000
0000
0300
0000
,  // measure 4
0000
0001
0001
0001
,  // measure 5
0000
1000
0000
0000
1000
0000
1000
0000
,  // measure 6
0000
0020
0000
0000
0000
0000
0030
0000
,  // measure 7
0000
0100
0100
0200
,  // measure 8
0300
0001
0001
0001
,  // measure 9
0000
0001
0000
0000
1000
0000
1000
0000
,  // measure 10
0000
1000
0000
0000
0100
0000
0100
0000
,  // measure 11
0000
0100
0000
0000
0010
0000
0010
0000
,  // measure 12
0000
0020
0000
0000
0031
0000
0001
0000
,  // measure 13
0000
0001
0000
0000
1000
0000
1000
0000
,  // measure 14
0000
1000
0000
0000
0010
0000
0010
0000
,  // measure 15
0000
0010
0000
0000
0100
0000
0100
0000
,  // measure 16
0000
0200
0000
0000
0301
0000
0001
0000
,  // measure 17
0000
0000
1000
0000
0000
1000
0000
0000
,  // measure 18
0000
0020
0000
0000
0130
0000
0100
0000
,  // measure 19
0000
0000
0001
0000
0000
0004
0000
0000
,  // measure 20
0003
0000
1000
1000
,  // measure 21
0000
0000
0100
0000
0000
0200
0000
0300
,  // measure 22
0000
0010
0010
0010
,  // measure 23
0000
0000
0001
0000
0000
0001
0000
0000
,  // measure 24
0000
0000
1000
1000
,  // measure 25
0000
0000
0100
0000
0000
0100
0000
0000
,  // measure 26
0000
4000
0000
0000
3001
0000
0001
0000
,  // measure 27
0000
0000
0100
0000
0000
0200
0000
0310
,  // measure 28
0000
0020
0000
1030
0000
2000
0000
3001
,  // measure 29
0000
0004
0000
0000
0003
0000
1000
0000
,  // measure 30
1000
0000
2000
0000
0000
3400
0000
0000
,  // measure 31
0000
0000
0000
0300
,  // measure 32
0000
0000
0000
0000
0000
0000
0000
0000
1000
0000
0000
0000
0001
0000
0000
0001
,  // measure 33
0000
0000
0000
0000
0002
0000
0000
0000
0003
0000
0000
0000
0100
0000
0000
0200
,  // measure 34
0000
0300
0000
0010
0000
0000
0000
0000
0010
0000
0000
0000
0010
0000
0000
0000
,  // measure 35
0000
1000
0000
0000
1000
0000
1000
0000
,  // measure 36
0000
4000
0000
0000
0000
0000
0000
0000
,  // measure 37
0000
0000
3000
0000
,  // measure 38
0000
0001
1000
0002
,  // measure 39
0003
0011
0000
0000
0000
0000
0010
0000
,  // measure 40
0010
0020
0000
0130
,  // measure 41
0000
0400
0000
0000
0300
0000
1000
0000
,  // measure 42
1000
2000
0000
3001
,  // measure 43
0000
0004
0000
0000
0000
0000
0003
0000
,  // measure 44
0000
0010
0010
0010
,  // measure 45
0000
0001
0000
0000
0001
0000
0001
0000
,  // measure 46
0000
0100
0000
0000
0100
0000
0100
0000
,  // measure 47
0000
0400
0000
0000
0300
0000
0001
0000
,  // measure 48
0001
0002
0000
0013
,  // measure 49
0000
0040
0000
0000
0030
0000
0100
0000
,  // measure 50
0100
0200
0000
1300
,  // measure 51
0000
1000
0000
4000
0000
0000
3000
0000
,  // measure 52
0000
0010
0010
0010
,  // measure 53
0000
0100
0000
0000
0100
0000
0100
0000
,  // measure 54
0000
0004
0000
0000
0000
0000
0000
0000
,  // measure 55
0003
1000
1000
1000
,  // measure 56
1000
0000
0000
0000
0000
0000
0000
0000
0001
0000
0000
0000
0100
0000
0000
0100
,  // measure 57
0000
0000
0000
0000
0010
0000
0000
0010
0000
0000
0000
2000
0000
0000
0000
0000
,  // measure 58
3000
0002
0000
0403
,  // measure 59
0000
0320
0000
2030
,  // measure 60
0000
0000
0000
0000
3001
0000
0000
0001
0000
0000
1000
0000
2000
0000
0000
0000
,  // measure 61
3000
0002
0023
0032
,  // measure 62
2003
3000
2002
0000
0000
0000
0000
0000
,  // measure 63
0000
0000
0000
0000
,  // measure 64
0000
3003
0000
0000
1000
0000
1000
0000
,  // measure 65
0000
1000
0000
0000
0010
0000
0010
0000
,  // measure 66
0000
2000
0000
3001
0000
0002
0000
0103
,  // measure 67
0000
0200
0000
0310
0000
0020
0000
0000
,  // measure 68
1030
2000
0000
0000
,  // measure 69
0000
3002
0000
0000
,  // measure 70
0000
0023
0000
0000
,  // measure 71
0000
0000
0031
0001
1000
2000
0000
0000
,  // measure 72
3000
0000
0000
0000
;

//---------------dance-single - Taika----------------
#NOTES:
     dance-single:
     Ace Of Hearts (2013):
     Beginner:
     2:
     0.164,0.099,0.019,0.215,0.000: // measure 1
0000
0000
0000
0000
,  // measure 2
0000
0001
0001
0001
,  // measure 3
0000
1000
1000
1000
,  // measure 4
0000
0020
0000
0030
,  // measure 5
0000
0200
0000
0300
,  // measure 6
0000
0002
0000
0003
,  // measure 7
0000
0200
0000
0300
,  // measure 8
0000
0010
0000
0010
,  // measure 9
0000
0010
0000
0000
,  // measure 10
0000
1000
0000
1000
,  // measure 11
0000
1000
0000
0000
,  // measure 12
0000
0001
0000
0001
,  // measure 13
0000
0001
0000
0000
,  // measure 14
0000
0010
0000
0010
,  // measure 15
0000
0010
0000
0000
,  // measure 16
0000
0000
0000
0100
,  // measure 17
0000
0200
0000
0300
,  // measure 18
0000
1000
0000
1000
,  // measure 19
0000
1000
0000
0000
,  // measure 20
0000
0000
0000
0001
,  // measure 21
0000
0002
0000
0003
,  // measure 22
0000
0010
0000
0010
,  // measure 23
0000
0020
0000
0030
,  // measure 24
0000
0000
0000
0100
,  // measure 25
0000
0200
0000
0300
,  // measure 26
0000
1000
0000
1000
,  // measure 27
0000
1000
0000
0000
,  // measure 28
0000
0001
0000
0001
,  // measure 29
0000
0001
0000
0000
,  // measure 30
0000
0100
0000
0400
,  // measure 31
0000
0000
0000
0300
,  // measure 32
0000
0000
0000
0001
,  // measure 33
0000
0002
0003
1000
,  // measure 34
0000
0020
0000
0030
,  // measure 35
0000
1000
0000
1000
,  // measure 36
0000
4000
0000
0000
,  // measure 37
0000
0000
3000
0000
,  // measure 38
0000
0001
0000
0001
,  // measure 39
0000
0001
0000
0000
,  // measure 40
0000
1000
0000
1000
,  // measure 41
0000
4000
0000
3000
,  // measure 42
0000
0100
0000
0100
,  // measure 43
0000
0400
0000
0300
,  // measure 44
0000
0010
0000
0000
,  // measure 45
0000
0010
0000
0000
,  // measure 46
0000
0001
0000
0000
,  // measure 47
0000
0001
0000
0000
,  // measure 48
0000
0100
0000
0100
,  // measure 49
0000
0400
0000
0300
,  // measure 50
0000
0010
0000
0010
,  // measure 51
0000
0040
0000
0030
,  // measure 52
0000
2000
0000
3000
,  // measure 53
0000
0002
0000
0003
,  // measure 54
0000
0040
0000
0000
,  // measure 55
0030
0100
0000
0100
,  // measure 56
0000
0000
1000
1000
,  // measure 57
0000
0001
0001
0002
,  // measure 58
0003
2000
0000
3200
,  // measure 59
0000
2300
0000
3002
,  // measure 60
0000
0013
0010
0010
,  // measure 61
0000
0001
0000
1000
,  // measure 62
0000
2002
0000
0000
,  // measure 63
0000
0000
0000
0000
,  // measure 64
0000
3003
0000
0000
0000
0000
0000
0000
,  // measure 65
0000
0002
0000
0003
,  // measure 66
0000
0010
0000
0010
,  // measure 67
0000
0100
0000
0100
,  // measure 68
0000
2000
0000
0000
,  // measure 69
0000
3002
0000
0000
,  // measure 70
0000
0023
0000
0000
,  // measure 71
0000
0000
0031
0000
0000
1001
0000
0000
;
