#TITLE:Dimension Tripper!;
#SUBTITLE:;
#ARTIST:Nao;
#TITLETRANSLIT:;
#SUBTITLETRANSLIT:;
#ARTISTTRANSLIT:;
#GENRE:J-Pop;
#CREDIT:Ace Of Hearts;
#BANNER:Dimension Tripper - bn.png;
#BACKGROUND:Dimension Tripper - bg.png;
#LYRICSPATH:;
#CDTITLE:Ace Of Hearts.png;
#MUSIC:Dimension Tripper.ogg;
#OFFSET:2.320;
#SAMPLESTART:60.900;
#SAMPLELENGTH:12.000;
#SELECTABLE:YES;
#DISPLAYBPM:188.000;
#BPMS:0.000=94.000,16.000=188.000,117.000=-188.001,117.500=188.000,120.000=-188.000,120.500=188.000,137.000=376.000,137.500=188.000,141.000=376.000,141.500=188.000,145.000=376.000,145.500=188.000,155.000=-188.000,155.500=188.000,172.000=-188.000,172.500=188.000,197.000=-188.000,197.500=188.000,199.000=-188.000,199.500=188.000,200.750=-188.000,201.250=188.000,202.500=-188.000,203.000=188.000,204.500=-188.000,205.000=188.000;
#STOPS:137.000=0.080
,141.000=0.080
,145.000=0.080
;
#BGCHANGES:3.500=Hyperdimension Neptunia - The Animation OP.avi=1.000=1=0=1===CrossFade==,
99999=-nosongbg-=1.000=0=0=0 // don't automatically add -songbackground-
;
#FGCHANGES:;
#KEYSOUNDS:;

//---------------dance-single - Hard----------------
#NOTES:
     dance-single:
     Ace Of Hearts (2013):
     Hard:
     9:
     0.653,0.000,0.249,0.883,0.021: // measure 1
0000
0000
0000
0000
,  // measure 2
0000
0000
0000
0000
,  // measure 3
0000
0000
0000
0000
,  // measure 4
0000
0000
0000
0000
0000
0000
0000
0000
0000
0000
0000
0000
0000
0000
0001
1000
,  // measure 5
0002
0000
0000
1003
0000
0100
0010
0000
,  // measure 6
0001
0010
0100
0000
10M0
0000
0M01
0000
,  // measure 7
0021
0000
0130
1000
0001
0100
0001
1000
,  // measure 8
0001
0010
0100
0000
10M0
0000
0M01
0000
,  // measure 9
0201
0000
0310
1000
0001
0100
0001
1000
,  // measure 10
0020
0000
0130
0001
1000
0001
0010
0100
,  // measure 11
2000
0000
3001
0100
0001
1000
0100
0010
,  // measure 12
0002
0000
1003
0010
1000
0001
0010
0100
,  // measure 13
2000
0000
3001
0100
0010
0100
0001
1000
,  // measure 14
0001
0010
0100
0000
M010
0000
0M01
0000
,  // measure 15
2001
0000
3010
0100
0001
0100
0010
1000
,  // measure 16
0001
0010
0100
0000
10M0
0000
0M01
0000
,  // measure 17
0201
0000
0310
1000
0001
0010
0100
1000
,  // measure 18
0002
0000
0103
0010
0100
0001
1000
0001
,  // measure 19
0020
0000
0130
1000
0100
0010
0001
1000
,  // measure 20
0002
0000
1003
0010
1000
0001
0010
0100
,  // measure 21
2000
0000
3001
0010
0100
0010
0001
1000
,  // measure 22
0002
0000
0000
0000
0000
0000
0003
0000
1000
0100
1000
0000
0002
0000
0000
0000
,  // measure 23
0000
0000
0003
0200
0000
0310
1000
0000
,  // measure 24
0002
0000
0000
0003
0000
0000
1000
0100
,  // measure 25
0010
0100
1000
0000
0200
0000
0000
0300
,  // measure 26
0000
0000
0000
0000
,  // measure 27
0000
2000
0000
3002
0000
0103
0010
0000
,  // measure 28
2000
0000
0000
3000
0000
0000
0002
0000
,  // measure 29
0013
0000
0100
0000
1000
0000
0000
0000
0002
0000
0000
0000
4003
0004
0000
0000
,  // measure 30
3003
0000
0000
0000
00MM
0000
0000
0000
0000
0000
2200
0000
0000
3300
0000
0000
,  // measure 31
MM00
0000
0000
0022
0030
0003
0MM0
1000
,  // measure 32
0100
0010
0001
0000
2000
0000
3000
0000
,  // measure 33
0000
0000
0001
0100
0010
0100
0001
0000
,  // measure 34
1000
0000
M100
0000
0M20
0000
013M
2000
,  // measure 35
0000
3001
0100
M0M0
0210
0000
0301
1000
,  // measure 36
0100
0010
0100
00MM
2100
0000
3001
0100
,  // measure 37
0010
2000
0000
3001
0201
0000
0310
4000
,  // measure 38
0000
0000
0000
3000
0000
0001
0100
0000
,  // measure 39
0110
0000
0200
0000
0300
0101
0M0M
0000
,  // measure 40
0000
1010
0000
1020
0000
0130
0001
0000
,  // measure 41
1000
0200
0000
0300
0010
0100
2000
0000
,  // measure 42
3001
0100
0010
1000
0002
0000
0043
0000
,  // measure 43
0000
0000
0000
0000
0030
0000
0000
0000
0000
0000
0000
0000
0001
0010
0002
0000
,  // measure 44
0MM3
0000
0000
1001
0000
1001
0000
1000
,  // measure 45
0010
0000
0100
0002
0000
1003
0200
0000
,  // measure 46
0020
0000
0000
0000
0000
0000
0000
0300
,  // measure 47
0000
0031
1000
0020
0000
0130
0001
0000
,  // measure 48
2002
0000
0000
0000
0000
3003
0000
0002
,  // measure 49
0400
0000
0000
0000
0000
0303
0000
0010
,  // measure 50
0200
000M
0000
0000
0000
0302
M0M0
0000
,  // measure 51
0003
2000
0MM0
0000
3002
0MM0
0000
0000
,  // measure 52
2003
0M0M
0000
0000
0010
0020
3000
0030
,  // measure 53
0100
0001
2000
0000
3100
0010
0100
1000
,  // measure 54
0001
0000
2000
0000
3001
0100
0001
1000
,  // measure 55
0001
0000
0200
0000
0000
0310
0100
0001
,  // measure 56
1000
0001
0020
0000
0130
1000
0001
1000
,  // measure 57
0010
0000
0220
0000
0000
0000
0000
0030
,  // measure 58
0000
0302
4000
0000
0000
0000
3003
0000
,  // measure 59
0000
0010
0200
0000
0000
0302
0000
1003
,  // measure 60
0200
0000
0320
0000
0001
0002
0030
0003
,  // measure 61
1000
0100
0020
0000
0130
2000
0000
3001
,  // measure 62
0020
0000
0430
0000
0000
0300
0000
0000
,  // measure 63
1000
0001
0200
0000
0000
0320
0000
2030
,  // measure 64
0000
3000
0002
0000
0013
0100
1000
0100
,  // measure 65
0010
0000
0022
0030
0000
1003
0010
0100
,  // measure 66
0010
1000
0001
0010
0100
0000
10M0
0000
,  // measure 67
0M01
0000
0201
0000
0310
1000
0001
0010
,  // measure 68
0100
0010
0001
1000
0100
0000
M010
0000
,  // measure 69
0M01
0000
2001
0000
3010
0100
0010
1000
,  // measure 70
0001
0100
0020
0000
0130
0001
1000
0001
,  // measure 71
0010
0100
2000
0000
3001
0010
0001
1000
,  // measure 72
0010
0100
0002
0000
1003
0100
0010
0001
,  // measure 73
0010
0100
1000
2002
0MM0
3003
0220
M00M
,  // measure 74
0330
1001
2002
0000
0000
0000
0000
0000
,  // measure 75
0000
0000
0000
3003
0000
0000
0000
0000
;

//---------------dance-single - Expert----------------
#NOTES:
     dance-single:
     Ace Of Hearts (2013):
     Challenge:
     11:
     0.880,0.000,0.644,1.000,0.202: // measure 1
0000
0000
0000
0000
,  // measure 2
0000
0000
0000
0000
,  // measure 3
0000
0000
0000
0000
,  // measure 4
0000
0000
0000
0000
0000
0000
0000
0000
0000
2000
0000
0000
0000
3001
0010
0100
,  // measure 5
2200
0300
3001
0100
0010
1000
0001
0010
,  // measure 6
0100
1000
0001
0000
M101
0000
1M00
0000
,  // measure 7
2200
0300
3001
0100
0010
1000
0001
0010
,  // measure 8
0100
1000
0001
0000
0M11
0000
10M0
0000
,  // measure 9
2002
3000
0013
0110
0100
1100
1000
0001
,  // measure 10
2002
0000
0003
0000
3001
0010
0100
0000
1000
0100
0010
0000
0001
0000
1000
0000
,  // measure 11
2200
3000
0310
0011
0001
1001
1000
0010
,  // measure 12
0220
0030
0301
1001
1000
1100
0100
0010
,  // measure 13
0022
0030
1003
0100
M0M1
0100
1000
0001
,  // measure 14
0100
0010
1000
0000
11M0
0000
0M01
0000
,  // measure 15
0202
0003
0301
0010
1M0M
0010
0001
1000
,  // measure 16
0010
0100
0001
0000
01M1
0000
1M00
0000
,  // measure 17
2200
0000
3000
0000
0310
0001
1000
0000
0010
1000
0001
0000
1000
0000
0100
0000
,  // measure 18
0220
0300
0031
1001
1000
1010
0010
0100
,  // measure 19
0202
0000
0300
0000
1003
0000
0100
0000
1000
0010
0100
0000
0001
0000
1000
0000
,  // measure 20
2020
3000
0130
0101
0001
1001
1000
0100
,  // measure 21
0220
0300
0031
0100
0001
1000
0100
M010
,  // measure 22
0M02
0000
00M0
0000
M000
0000
0M00
0000
1003
0010
0100
0000
0202
0000
0000
0000
,  // measure 23
0303
1001
0000
1000
0000
0001
1000
0000
,  // measure 24
2200
0000
0000
0000
3300
0000
0000
0000
0000
0000
0000
0000
0100
0000
0010
M00M
,  // measure 25
0010
1000
0001
0000
0200
0000
0310
1000
,  // measure 26
0001
0010
0100
1000
0100
0010
0001
1000
,  // measure 27
0010
0200
0000
0301
0000
1000
0100
0000
,  // measure 28
0020
0000
0000
0031
0000
1000
0001
1000
,  // measure 29
0100
M00M
0100
0000
0001
0000
0000
0000
0020
0000
0000
0000
0031
0010
0100
1000
,  // measure 30
0100
0010
0001
0000
M0M0
0000
0000
0000
0000
0000
0202
0000
0000
0000
0000
0000
,  // measure 31
0000
0000
0000
1010
0000
0000
0303
0100
,  // measure 32
0010
1000
0002
0000
0203
0000
0010
0000
,  // measure 33
0301
0000
1000
0100
0010
0002
2000
0003
,  // measure 34
020M
0000
3000
0000
M002
0000
0300
0000
2M00
0003
0000
000M
0020
3000
M002
0000
,  // measure 35
0030
2003
0200
0000
00M1
3000
1300
0001
,  // measure 36
0010
0002
0200
0000
10M0
0003
0301
1000
,  // measure 37
0100
0010
0000
0100
2100
0000
3001
0400
,  // measure 38
0000
0310
1000
0001
1000
1010
0010
0000
,  // measure 39
0110
0000
0000
0000
0100
0000
0010
0100
0001
0000
1001
0000
00MM
0000
0000
0000
,  // measure 40
0000
1100
0000
0022
0030
1003
0010
M00M
,  // measure 41
0010
0002
0000
0003
1000
0010
0200
0000
,  // measure 42
0301
1000
0100
0001
0100
0000
4000
0000
,  // measure 43
3001
0000
0100
0000
0010
0000
1000
0000
0100
0000
0001
0000
0100
1000
0002
0000
,  // measure 44
M0M3
0000
0000
0202
0303
2020
0030
3001
,  // measure 45
0100
M00M
0100
2000
0000
3001
0100
0000
,  // measure 46
2020
0030
3001
0010
0100
0010
0001
1000
,  // measure 47
0010
0110
0100
0110
0000
0010
1000
0000
,  // measure 48
2200
0000
0300
0001
0000
0010
3000
0002
,  // measure 49
0200
0003
0000
0010
0000
0301
0000
1000
,  // measure 50
0020
0000
M00M
0000
0000
0230
M0M0
0000
,  // measure 51
0000
0302
0MM0
0000
2003
00MM
0000
0000
,  // measure 52
0200
0000
0000
0000
001M
001M
0000
3300
,  // measure 53
1000
0000
0001
0000
0200
0000
0000
0000
0301
0000
1000
0000
0100
M00M
0100
0000
,  // measure 54
0001
0000
0000
0000
0021
0000
0000
0000
0130
0000
1000
0000
0001
0000
0010
M00M
,  // measure 55
0010
0000
0000
0000
2020
0000
0030
0000
3001
0010
0100
0000
1000
0000
0001
0000
,  // measure 56
0100
0000
0001
0000
0020
0000
0000
0000
0130
0000
1000
0000
0100
M00M
0100
0000
,  // measure 57
0001
0000
0202
0000
0300
1000
0000
0100
,  // measure 58
0000
2003
0020
3000
0000
0100
0000
1030
,  // measure 59
0000
0000
0002
0000
0020
0000
0000
0000
0003
000M
2000
0000
0000
0030
00M2
3000
,  // measure 60
M200
0000
0000
0003
002M
0000
0000
0300
0M02
0030
20M0
0000
0000
0000
3003
0000
,  // measure 61
0001
0100
0010
0000
2020
0000
0030
0000
3001
0000
0010
0000
0100
0000
1000
0000
,  // measure 62
0001
0000
0402
0000
0000
0303
0000
0000
,  // measure 63
0100
0010
1000
0000
0001
0010
0100
1000
0100
0010
0001
1000
0010
0100
0001
1000
,  // measure 64
0100
0010
0001
0000
2000
0000
0000
0000
3001
0000
0010
0000
0100
0000
1000
0000
,  // measure 65
0001
0000
2002
3000
1003
0001
1000
0100
,  // measure 66
M0M1
0100
1000
0001
0100
0000
011M
0000
,  // measure 67
1M00
0000
2002
3000
0013
0100
1000
0010
,  // measure 68
MM01
0000
0010
0000
1000
0000
0001
0000
0010
0000
0000
0000
0001
0010
0100
1000
,  // measure 69
0100
0010
0001
0000
2002
0000
0003
0000
3010
0000
0110
0000
0100
0000
0101
0000
,  // measure 70
0001
0000
1000
0000
2200
0000
3000
0000
0310
0000
0001
0000
1000
0010
0100
0000
,  // measure 71
0001
0000
1000
0000
2020
0000
3000
0000
0130
0000
0001
0000
1000
0100
0010
0000
,  // measure 72
0100
1000
2002
3000
0103
0010
1000
0001
,  // measure 73
0010
0000
0100
0000
1000
0000
2MM1
0000
3002
00M0
M103
0000
0210
000M
M010
0000
,  // measure 74
0310
000M
1M10
0000
2002
0000
0000
0000
0000
0000
0000
0000
0000
0000
0000
0000
,  // measure 75
0000
0000
0000
3003
0000
0000
0000
0000
;

//---------------dance-single - Medium----------------
#NOTES:
     dance-single:
     Ace Of Hearts (2013):
     Medium:
     7:
     0.426,0.000,0.073,0.613,0.000: // measure 1
0000
0000
0000
0000
,  // measure 2
0000
0000
0000
0000
,  // measure 3
0000
0000
0000
0000
,  // measure 4
0000
0000
0000
0000
,  // measure 5
2000
0000
0000
3001
0000
0100
0000
0001
,  // measure 6
0000
1000
0100
0000
0010
0000
0001
0000
,  // measure 7
0002
0000
0000
1003
0000
0010
0000
1000
,  // measure 8
0000
0001
0010
0000
0001
0000
1000
0000
,  // measure 9
0200
0000
0000
0310
0000
0001
0000
1000
,  // measure 10
0020
0000
0000
1030
0000
0001
0000
0010
,  // measure 11
0200
0000
0000
1300
0000
0100
0000
0010
,  // measure 12
0002
0000
0000
1003
0000
0010
0000
1000
,  // measure 13
0002
0000
0000
1003
0000
0100
0000
0010
,  // measure 14
0000
0100
1000
0000
0001
0000
1000
0000
,  // measure 15
2000
0000
0000
3001
0000
0100
0000
0001
,  // measure 16
0000
1000
0010
0000
0100
0000
0001
0000
,  // measure 17
0200
0000
0000
0310
0000
1000
0000
0001
,  // measure 18
0020
0000
0000
0130
0000
1000
0000
0001
,  // measure 19
0200
0000
0000
0310
0000
1000
0000
0001
,  // measure 20
0020
0000
0000
0130
0000
1000
0000
0001
,  // measure 21
0020
0000
0000
0130
0000
1000
0000
0001
,  // measure 22
0200
0000
0300
0000
,  // measure 23
0000
0000
0000
0002
0000
1003
0010
0000
,  // measure 24
0200
0000
0000
0300
0000
0000
0001
1000
,  // measure 25
0000
0010
0100
0000
0002
0000
0000
0003
,  // measure 26
0000
0000
0000
0000
,  // measure 27
0000
0000
0000
2000
0000
3100
0010
0000
,  // measure 28
0002
0000
0000
0003
0000
0000
2000
0000
,  // measure 29
3010
0100
0002
0000
,  // measure 30
0003
0000
M0M0
0000
0000
0202
0000
0303
,  // measure 31
0000
0M0M
0000
2020
0000
3030
0000
1000
,  // measure 32
0000
0001
0010
0000
0200
0000
0000
0300
,  // measure 33
0000
0000
2000
0000
0000
3001
0100
0000
,  // measure 34
0010
0000
0100
0000
0002
0000
1003
0100
,  // measure 35
0000
1000
0001
0000
0020
0000
0000
0130
,  // measure 36
0000
1000
0001
0000
0200
0000
0000
0310
,  // measure 37
0000
2000
0000
3001
0020
0000
0130
4000
,  // measure 38
0000
0000
0000
3000
0000
0001
0010
0000
,  // measure 39
0100
2000
3000
0MM0
,  // measure 40
0000
1001
0000
1001
0000
0001
0010
0000
,  // measure 41
0100
2000
0000
3000
0001
0000
0100
0000
,  // measure 42
0010
1000
0000
0001
0010
0000
0004
0000
,  // measure 43
0000
0003
0000
0MM0
,  // measure 44
0000
0000
0000
1001
0000
1001
0000
1000
,  // measure 45
0020
0000
0130
0001
0000
1000
0100
0000
,  // measure 46
0020
0000
0000
0000
,  // measure 47
0000
0030
0000
0000
0000
0001
1000
0000
,  // measure 48
2002
0000
0000
0000
0000
3003
0000
0001
,  // measure 49
0400
0000
0000
0000
0000
0300
0000
0010
,  // measure 50
2000
0000
0M00
0000
0000
3002
0000
0000
,  // measure 51
0M00
1003
0000
0000
0002
0000
0M00
0000
,  // measure 52
0023
0000
0000
0030
0000
0010
0000
0000
,  // measure 53
0001
0000
0002
0000
0000
1003
0000
1000
,  // measure 54
0000
0000
0020
0000
0000
0130
0000
0100
,  // measure 55
0000
0004
0000
0000
,  // measure 56
0000
0000
0000
0000
0003
0000
0000
1000
,  // measure 57
0100
0020
0000
0000
,  // measure 58
0000
0130
4000
0000
0000
0000
3000
0000
,  // measure 59
0000
0001
0200
0000
0000
0320
0000
1030
,  // measure 60
0001
0000
0200
0000
0300
0100
0000
0000
,  // measure 61
0010
0000
0020
0000
0000
1030
0000
0001
,  // measure 62
0010
0000
0400
0000
0000
0300
0000
0000
,  // measure 63
1000
0000
2000
0000
0000
3001
0000
0001
,  // measure 64
0000
0000
0200
0000
0000
0310
0000
1000
,  // measure 65
0001
0000
0020
0000
0000
0130
0000
1000
,  // measure 66
0000
0001
0000
1000
0100
0000
0010
0000
,  // measure 67
0001
0000
2000
0000
0000
3010
0000
0100
,  // measure 68
0000
0001
0000
1000
0010
0000
1000
0000
,  // measure 69
0001
0000
0200
0000
0000
0301
0000
1000
,  // measure 70
0000
0010
0200
0000
0000
0301
0000
1000
,  // measure 71
0000
0001
0020
0000
0000
0130
0000
1000
,  // measure 72
0000
0001
0200
0000
0000
0310
0000
1000
,  // measure 73
0000
0001
0000
M010
0000
0000
010M
0000
,  // measure 74
0000
2000
00M2
0000
0000
0000
0000
0000
,  // measure 75
0000
0000
0000
3003
0000
0000
0000
0000
;

//---------------dance-single - Easy----------------
#NOTES:
     dance-single:
     Ace Of Hearts (2013):
     Easy:
     5:
     0.314,0.000,0.052,0.530,0.005:
0000
0000
0000
0000
,
0000
0000
0000
0000
,
0000
0000
0000
0000
,
0000
0000
0000
0000
,
0002
0000
0000
1003
0000
1000
0000
0000
,
0000
0100
0000
0000
0100
0000
0100
0000
,
0200
0000
0000
0310
0000
0010
0000
0000
,
0000
0001
0000
0000
0001
0000
0001
0000
,
0002
0000
0000
1003
0000
1000
0000
0000
,
0020
0000
0000
0130
0000
0100
0000
0000
,
0002
0000
0000
1003
0000
1000
0000
0000
,
0002
0000
0000
0103
0000
0100
0000
0000
,
0020
0000
0000
1030
0000
1000
0000
0000
,
0000
0001
0000
0000
0001
0000
0001
0000
,
0002
0000
0000
0013
0000
0010
0000
0000
,
0000
0100
0000
0000
0100
0000
0100
0000
,
0200
0000
0000
1300
0000
1000
0000
0000
,
0002
0000
0000
1003
0000
1000
0000
0000
,
0020
0000
0000
0130
0000
0100
0000
0000
,
0002
0000
0000
1003
0000
1000
0000
0000
,
0002
0000
0000
0013
0000
0010
0000
0000
,
0020
0000
0030
0000
,
0000
0000
0000
0001
0000
0001
0000
0000
,
0002
0000
0000
0003
0000
0000
0000
1000
,
0000
2000
0000
0000
0000
3000
0000
0000
,
0000
0000
0000
0000
,
0000
0000
0000
0100
0000
0100
0000
0000
,
0200
0300
0000
0010
,
0000
0010
0000
0000
0020
0000
0000
0000
,
M03M
0000
0000
0000
0000
0220
0000
0330
,
0000
0000
0000
2002
0000
3003
0000
1000
,
0000
1000
0000
0000
2000
0000
3000
0000
,
0000
0000
0000
0001
0000
0001
0000
0000
,
0001
0000
0000
0000
0002
0000
0000
0003
,
0000
1000
0000
0000
2000
0000
0000
3010
,
0000
0010
0000
0000
0020
0000
0000
0130
,
0000
0100
0000
0000
0100
0000
0000
0400
,
0000
0000
0000
0300
0000
0000
0000
0000
,
0000
0000
00M0
0000
,
0000
0001
0000
0002
0000
0000
1003
0000
,
0000
2000
0000
3000
0000
0000
0100
0000
,
0000
0100
0000
0100
0000
0000
0040
0000
,
0000
0030
0000
M000
,
0000
0000
0000
0001
0000
0001
0000
0000
,
1000
0000
0000
1000
0000
1000
0000
0000
,
0020
0000
0000
0000
,
0000
0030
0000
0000
0000
1000
0000
0000
,
2002
0000
0000
0000
0000
3003
0000
0000
,
2200
0000
0000
0000
0000
3300
0000
0000
,
0200
0000
0000
0000
0000
0310
0000
M000
,
0000
0010
0000
0000
0000
0000
0000
0000
,
0001
0000
0000
0000
0000
0M00
0000
0000
0000
0000
0001
0000
0000
0000
0000
0000
,
0000
0000
2000
0000
0000
3010
0000
0010
,
0000
0000
2000
0000
0000
3001
0000
0001
,
0000
0400
0000
0000
,
0000
0000
0000
0000
0300
0000
0000
0010
,
0000
0000
0020
0000
0000
0000
0000
0030
,
0000
0000
2000
0000
0000
0000
0000
3000
,
0000
0000
0002
0000
0000
1003
0000
1000
,
0000
0000
0020
0000
0000
0030
0000
0000
,
0000
0000
2000
0000
0000
3001
0000
0001
,
0000
0000
0004
0000
0000
0003
0000
0000
,
0010
0000
0020
0000
0000
0130
0000
0100
,
0000
0000
2000
0000
0000
3001
0000
0001
,
0000
0000
0020
0000
0000
0031
0000
0001
,
0000
0000
0000
1000
0000
0000
1000
0000
,
1000
0000
2000
0000
0000
3010
0000
0010
,
0000
0000
0000
0100
0000
0000
0100
0000
,
0100
0000
0200
0000
0000
0301
0000
0001
,
0000
0000
2000
0000
0000
3100
0000
0100
,
0000
0000
0020
0000
0000
0130
0000
0100
,
0000
0000
2000
0000
0000
3001
0000
0001
,
0000
0001
0000
0010
0000
0000
0001
0000
,
0000
2002
0000
0000
0000
0000
0000
0000
,
0000
0000
0000
3003
0000
0000
0000
0000
;

//---------------dance-single - Novice----------------
#NOTES:
     dance-single:
     Ace Of Hearts (2013):
     Beginner:
     3:
     0.162,0.000,0.010,0.457,0.000:
0000
0000
0000
0000
,
0000
0000
0000
0000
,
0000
0000
0000
0000
,
0000
0000
0000
0000
,
0002
0000
0000
0000
,
0000
0003
0000
0000
0000
0000
0000
0000
,
2000
0000
0000
0000
,
0000
3000
0000
0000
0000
0000
0000
0000
,
0200
0000
0000
0000
0000
0300
0000
0000
,
2000
0000
0000
0000
0000
3000
0000
0000
,
0002
0000
0000
0000
0000
0003
0000
0000
,
0020
0000
0000
0000
0000
0030
0000
0000
,
0200
0000
0000
0000
,
0000
0300
0000
0000
0000
0000
0000
0000
,
2000
0000
0000
0000
,
0000
3000
0000
0000
0000
0000
0000
0000
,
0002
0000
0000
0000
0000
0003
0000
0000
,
2000
0000
0000
0000
0000
3000
0000
0000
,
0020
0000
0000
0000
0000
0030
0000
0000
,
0200
0000
0000
0000
0000
0300
0000
0000
,
0002
0000
0000
0000
0000
0003
0000
0000
,
2000
0000
3000
0000
,
0000
0000
0000
0000
0000
0010
0000
0000
,
0000
0010
0000
0000
0000
0000
0000
0000
,
0000
1000
0000
0000
0000
1000
0000
0000
,
0000
0000
0000
0000
,
0000
0000
0000
0000
0000
0001
0000
0000
,
0000
0001
0000
0000
0000
0000
0000
0000
,
0000
0010
0000
0000
0000
0020
0000
0000
,
0030
0000
0000
0000
,
0000
0000
0000
0000
,
0000
0001
0000
0000
0000
0001
0000
0000
,
0000
0000
0000
0000
0000
1000
0000
0000
,
0000
1000
0000
0000
0000
1000
0000
0000
,
0000
0000
0020
0000
,
0000
0030
0000
0000
0200
0000
0000
0000
,
0000
0300
0000
0000
0002
0000
0000
0000
,
0000
0000
0000
0003
0000
0000
0000
0000
,
0000
0000
0000
0000
,
0000
1000
0000
2000
0000
0000
3000
0000
,
0000
0000
0000
0020
,
0000
0000
0000
0030
0000
0000
0040
0000
,
0000
0030
0000
0000
,
0000
0000
0000
0100
0000
0200
0000
0000
,
0300
0000
0000
0000
,
0002
0000
0000
0000
,
0000
0003
0000
0000
0000
0010
0000
0000
,
0020
0000
0000
0000
0000
0030
0000
0000
,
0200
0000
0000
0000
0000
0300
0000
0000
,
2000
0000
0000
0000
,
0000
3002
0000
0000
0000
0000
0000
0000
,
2003
0000
0000
0000
0000
3000
0000
0000
,
0000
0000
0020
0000
0000
0000
0000
0030
,
0000
0000
0200
0000
0000
0000
0000
0300
,
0000
0004
0000
0000
,
0000
0000
0000
0000
0003
0000
0000
1000
,
0000
0000
2000
0000
0000
0000
0000
3000
,
0000
0000
0002
0000
0000
0000
0000
0003
,
0000
0000
0200
0000
0000
0000
0000
0300
,
0000
0000
0020
0000
0000
0030
0000
0000
,
0000
0000
2000
0000
0000
0000
0000
3000
,
0000
0000
4000
0000
0000
3000
0000
0000
,
0000
0002
0000
0003
,
0000
0000
0020
0000
0000
0000
0000
0030
,
0000
0200
0000
0000
,
0000
0000
0000
0300
0000
0000
0000
0000
,
0000
2000
0000
0000
,
0000
0000
0000
3000
0000
0000
0000
0000
,
0000
0000
0002
0000
0000
0000
0000
0003
,
0000
0000
0200
0000
0000
0000
0000
0300
,
0000
0000
0020
0000
0000
0000
0000
0030
,
0000
0000
2000
0000
0000
0000
0000
3000
,
0000
0000
0000
0001
0000
0000
1000
0000
,
0000
2002
0000
0000
0000
0000
0000
0000
,
0000
0000
0000
3003
0000
0000
0000
0000
;
