#TITLE:Aquarium;
#SUBTITLE:;
#ARTIST:HyunTaek Yun;
#TITLETRANSLIT:;
#SUBTITLETRANSLIT:;
#ARTISTTRANSLIT:;
#GENRE:Game Music;
#CREDIT:Ace Of Hearts;
#BANNER:Aquarium - bn.png;
#BACKGROUND:Aquarium - bg.jpg;
#LYRICSPATH:;
#CDTITLE:Ace Of Hearts.png;
#MUSIC:Aquarium.ogg;
#OFFSET:0.460;
#SAMPLESTART:55.100;
#SAMPLELENGTH:12.000;
#SELECTABLE:YES;
#BPMS:0.000=125.000;
#STOPS:;
#BGCHANGES:;
#KEYSOUNDS:;

//---------------dance-single - Hard----------------
#NOTES:
     dance-single:
     Ace Of Hearts (2013):
     Hard:
     9:
     0.536,0.129,0.050,1.000,0.170: // measure 1
0000
0000
0000
0000
,  // measure 2
0001
0000
0000
0000
1000
0000
0000
0100
0000
0000
0100
0000
0000
0000
1000
0000
,  // measure 3
0001
0000
0000
0000
0000
0000
0100
0000
0000
0000
0000
0000
0001
0000
1000
0100
0000
0010
0000
0000
0000
0001
0000
0000
,  // measure 4
2000
0000
0000
3200
0000
0000
0300
0010
,  // measure 5
0002
0000
0000
0000
0000
0000
2003
0000
0000
0000
0000
0000
3001
0000
0010
0100
0000
0010
0001
0000
0010
0100
0000
0010
,  // measure 6
0002
0000
0000
0023
0000
0000
0130
1000
,  // measure 7
0002
0000
0000
0000
0000
0000
2003
0000
0000
0000
0000
0000
3001
0000
0100
0010
0000
0100
0002
0000
0000
0000
0000
0000
,  // measure 8
2003
0000
0000
3020
0000
0000
0000
0130
,  // measure 9
0002
2003
3200
0320
,  // measure 10
0230
0000
0000
2300
0000
0000
3000
0001
,  // measure 11
0200
0000
0000
0320
0000
0000
0030
1000
,  // measure 12
0002
0000
0013
0200
0000
0000
0300
1000
,  // measure 13
0002
0000
0000
2003
0000
0000
3010
0000
0200
0000
0000
0000
0301
0000
1000
0000
,  // measure 14
0000
0000
0010
0200
0000
0000
0300
0001
,  // measure 15
2000
0000
0000
3200
0000
0000
0300
0010
,  // measure 16
0002
0000
1003
0020
0000
0000
0030
0100
,  // measure 17
0002
0000
0000
2003
0000
0000
3020
0000
0000
0230
0000
0000
0301
0000
0100
0010
0000
0100
0001
0000
0100
0010
0000
0100
,  // measure 18
0001
0000
2000
0000
3100
0010
0001
0020
,  // measure 19
0000
0000
0130
2000
0000
3002
0000
2003
,  // measure 20
3200
0310
0100
0020
0000
0031
2000
3010
,  // measure 21
0200
0000
0000
0000
0302
0000
0000
0000
2003
0000
0000
0000
3200
0000
0000
0300
,  // measure 22
0022
0000
0003
0200
0000
0000
0300
0000
,  // measure 23
0032
1003
0100
0020
0000
0000
0230
0000
,  // measure 24
2300
0000
0000
0000
3002
0103
0010
1000
,  // measure 25
0002
0000
0000
1003
0000
0000
0010
0000
0000
1000
0000
0000
0040
0400
0000
0000
0000
0000
0000
0000
0000
0000
0000
0000
,  // measure 26
0330
0010
0020
0000
1030
2000
0000
3000
,  // measure 27
0002
0013
0020
0000
0130
0200
0000
0300
,  // measure 28
2000
3001
0002
0000
0103
0200
0000
0300
,  // measure 29
0010
1000
2000
0000
3020
0000
0230
0000
,  // measure 30
0302
0000
0000
2003
0000
0000
3000
0001
,  // measure 31
0020
0000
0000
0230
0000
0300
0000
1000
,  // measure 32
0002
0000
1003
0200
0000
0000
0300
0010
,  // measure 33
0200
0000
0000
2300
0000
0000
3001
0000
0020
0000
0000
0000
0031
0000
1000
0000
,  // measure 34
0000
0000
0010
0200
0000
0000
0300
0001
,  // measure 35
2000
0000
0000
3200
0000
0000
0300
0010
,  // measure 36
0002
0000
1003
0020
0000
0000
0030
0100
,  // measure 37
0002
0000
0000
2003
0000
0000
3020
0000
0000
0230
0000
0000
0301
0000
1000
0100
0000
1000
0001
0000
1000
0100
0000
1000
,  // measure 38
0002
0000
0203
0000
0310
1000
0001
0020
,  // measure 39
0000
0000
0130
2000
0000
3002
0000
0203
,  // measure 40
0320
1030
0010
2000
0000
3001
0020
0130
,  // measure 41
2000
0000
0000
0000
3002
0000
0000
0000
2003
0000
0000
0000
3020
0000
0000
0030
,  // measure 42
0220
0000
0300
2000
0000
0000
3000
0000
,  // measure 43
0230
0301
1000
0020
0000
0000
0230
0000
,  // measure 44
0302
0000
0000
0000
1003
0100
0010
0100
,  // measure 45
1000
0000
0000
0001
0000
0000
0100
0000
0000
0001
0000
0000
4000
0400
0000
0000
0000
0000
0000
0000
0000
3300
0000
0000
,  // measure 46
0040
0004
0000
0000
0000
0000
0000
0000
0000
0000
0000
0000
0000
0000
0000
0000
0000
0000
0000
0000
0000
0033
0000
0000
,  // measure 47
0002
0000
0000
0000
0000
0000
0000
0000
0000
0000
0000
0000
2003
0000
0000
3002
0000
0000
0023
0000
0000
0031
0010
0100
,  // measure 48
1000
0001
2000
0000
3001
0100
0001
0100
0010
1000
0010
1000
0004
0000
0000
0000
,  // measure 49
0203
0000
0000
0000
0320
1030
0001
0010
,  // measure 50
0002
0000
1003
0100
2000
0000
3001
0010
,  // measure 51
0200
0000
1300
0100
0010
0100
2000
0000
3100
0010
0001
0010
0100
1000
0004
0000
,  // measure 52
0000
0000
0000
0003
1000
0000
0010
0000
0000
0000
0100
0000
0002
0000
0000
0000
0000
0000
1003
0000
0000
0000
0000
0000
0200
0000
0000
0000
0000
0000
0000
0000
0000
2300
0000
0000
0000
0000
0000
0000
0000
0000
3001
0000
0000
0000
0000
0000
,  // measure 53
0022
0000
0000
0000
0003
0130
1000
2200
,  // measure 54
0000
0000
0000
0000
0000
0000
0000
0000
0000
0000
0000
0000
0000
0000
0000
0000
0000
0000
0000
0000
0000
0000
0000
0000
0000
0000
0000
0000
0000
0000
0300
0000
0000
0000
0000
0000
3001
0000
0000
0010
0000
0000
0400
0000
0040
0000
0000
0000
,  // measure 55
0000
0000
0000
0000
0000
0000
0000
0330
,  // measure 56
0020
0000
0032
0000
1003
0010
0100
0002
,  // measure 57
0000
0000
1003
0020
0000
0230
0000
0302
,  // measure 58
2003
3100
0010
0002
0000
1003
0200
0310
,  // measure 59
0002
0000
2003
0000
3020
0000
0230
0300
,  // measure 60
0202
0000
0003
0020
0000
0000
0030
0000
,  // measure 61
0302
0000
1003
0000
0100
0000
0020
0000
0000
0000
0000
0000
0230
0000
0000
0300
,  // measure 62
2200
0000
3000
0000
0320
0031
1000
0001
,  // measure 63
0100
0000
0000
0010
0000
0000
1000
0000
0000
0001
0000
0000
0400
0004
0000
0000
0000
0000
0000
0000
0000
0000
0000
0000
,  // measure 64
0303
0100
0200
0000
0310
0020
0000
0030
,  // measure 65
2000
0000
0000
3001
0000
0000
0002
0000
0000
0000
0000
0000
0103
0000
0010
1000
0000
0001
2000
0000
0000
0000
0000
0000
,  // measure 66
3020
0000
0000
0230
0000
0000
0000
0000
,  // measure 67
0302
0000
0000
0000
0000
0000
0000
0000
0000
0000
0000
0000
1003
0000
0010
0100
0000
0010
1000
0000
0010
0100
0000
0010
,  // measure 68
2000
0000
0000
3002
0000
0000
1003
0010
,  // measure 69
0200
0000
0000
0000
0000
0000
0302
0000
0000
0000
0000
0000
1003
0000
0100
0010
0000
0001
2000
0000
0000
0000
0000
0000
,  // measure 70
3200
0000
0000
0320
0000
0000
0130
1000
,  // measure 71
0002
0000
0000
0000
2003
0000
0000
0000
3020
0000
0000
0000
0230
0000
0000
0300
,  // measure 72
0204
0000
0000
0000
,  // measure 73
0000
0000
0000
0000
,  // measure 74
0303
0000
0000
0000
;

//---------------dance-single - Expert----------------
#NOTES:
     dance-single:
     Ace Of Hearts (2013):
     Challenge:
     11:
     0.781,0.259,0.156,1.000,0.436:
0000
0000
0000
0000
,
1000
0000
0001
0000
0020
0000
0130
1000
0000
1000
0001
0000
0100
0000
0010
0000
,
1000
0000
0000
0001
0000
0000
0200
0000
0000
0310
0000
0000
1000
0000
0100
0010
0000
0001
2000
0000
0000
3010
0000
0000
,
0200
0000
0301
0000
1000
0000
0100
0010
0000
0010
0001
0000
1000
0000
0010
0000
,
0200
0000
0000
0000
0000
0000
0301
0000
0000
0000
0000
0000
0022
0000
0000
0000
0000
0000
0003
0000
0000
0130
0000
0000
1000
0000
0000
0000
0001
0000
0100
0000
0000
0000
1000
0000
0100
0000
0000
0000
0001
0000
1000
0000
0000
0000
0100
0000
,
0020
0000
0001
0000
0001
0000
0200
0030
1000
0000
2300
0000
0001
0000
0100
0000
,
0002
0000
0000
3000
0000
0000
0100
0000
0000
0000
0000
0000
0203
0000
0000
0000
0000
0000
0000
0000
0000
0000
0000
0000
0302
0000
0000
0000
1003
0000
0100
0000
0000
0000
0010
0000
0200
0000
0000
0000
0000
0000
0000
0000
0300
0000
0000
0000
,
2100
0000
0001
0000
3002
0000
0100
0000
1000
0000
2000
0003
0000
0000
3100
0000
,
0020
0100
0200
0030
2300
0000
3002
0000
,
2000
0000
0000
0000
0000
0003
0200
0000
0000
0000
0000
0000
0000
3000
0020
0300
,
2000
0000
0000
0000
0000
0030
0002
0000
0000
0000
0000
0000
0000
3000
0200
0003
,
2000
0000
0000
0300
0020
3000
0002
0000
0000
0000
0000
0000
0000
0030
2000
0003
,
0200
0000
0000
0000
0000
0000
3000
0000
0000
0002
0000
0000
0000
0000
0000
0300
0000
0000
2000
0000
0000
0003
0000
0000
3100
0000
0000
0000
0010
0000
0001
0000
0000
0000
1000
0000
0002
0000
0000
0000
0000
0000
0200
0000
0000
0000
0000
0000
,
0000
0000
0000
0003
0020
0300
0002
0000
0000
0000
0000
0000
0000
0030
2000
0003
,
0200
0000
0000
0000
0000
3000
0020
0000
0000
0000
0000
0000
0000
0300
2000
0030
,
0002
0000
0000
3000
0020
0003
2000
0000
0000
0000
0000
0000
0030
0000
3002
0000
,
0200
0000
0000
0003
0000
0000
0320
0000
0000
0000
0000
0000
0032
0000
0000
0000
0000
0000
2003
0000
0000
0000
0000
0000
3010
0000
0000
0000
0100
0000
0001
0000
0000
0000
1000
0000
0100
0000
0000
0000
0010
0000
0001
0000
0000
0000
1000
0000
,
0020
0000
0000
0000
2030
0000
0000
0000
3200
0000
0302
M0M0
0203
0000
2300
0000
,
0000
00MM
0000
0000
3020
0000
0032
0000
MM00
0000
0023
0000
0000
0000
2030
0000
,
0001
0000
0100
0000
0001
0000
0020
0000
3000
0000
0100
0000
1000
0000
0100
0030
,
0220
0000
0000
0330
0202
0000
0000
0303
2002
0000
0000
3003
2200
0000
0000
3300
,
0220
0000
0000
0000
0300
0000
2000
0000
0000
0000
0000
0000
0000
0000
0000
0030
,
0002
3000
0200
0003
2000
0300
0020
0000
0000
0000
0000
3000
0002
0000
0000
0030
,
2000
0000
0000
0000
0000
0000
0000
0003
0200
3000
0302
0000
2003
0000
3020
0000
,
0230
0000
0000
0302
0000
0000
2003
0000
0000
3200
0000
0000
0310
0100
1000
0001
0010
0100
1000
0100
0010
0100
1000
0001
,
1000
0000
0010
0000
0020
0000
0130
0001
0000
0001
2000
0000
3100
0000
0010
0000
,
0200
0000
1300
0000
0001
0000
0100
0010
0000
0010
2000
0000
3001
0000
0010
0000
,
0002
0000
1003
0000
0010
0000
0100
0001
0000
0001
2000
0000
3100
0000
0010
0000
,
0200
1300
0001
1000
2020
3000
0230
0000
,
0002
0000
0000
0000
0000
0300
0020
0000
0000
0000
0000
0000
0000
0003
2000
0030
,
0002
0000
0000
0000
0000
3000
0200
0000
0000
0000
0000
0000
0000
0003
2000
0300
,
0020
0000
0000
3000
0002
0030
2000
0000
0000
0000
0000
0000
0000
0003
0200
3000
,
0020
0000
0000
0000
0000
0000
0300
0000
0000
2000
0000
0000
0000
0000
0000
0030
0000
0000
3200
0000
0000
0000
0000
0000
0310
0000
0000
0000
0001
0000
1000
0000
0000
0000
0010
0000
2000
0000
0000
0000
0000
0000
0002
0000
0000
0000
0000
0000
,
0000
0000
0000
3000
0200
0003
2000
0000
0000
0000
0000
0000
0000
0300
0002
3000
,
0020
0000
0000
0000
0000
0003
2000
0000
0000
0000
0000
0000
0000
0030
0200
3000
,
0002
0000
0000
0300
2000
0003
0020
0000
0000
0000
0000
0000
0000
3000
0032
0000
,
2000
0000
0000
0003
0000
0000
3020
0000
0000
0000
0000
0000
0230
0000
0000
0000
0000
0000
0302
0000
0000
0000
0000
0000
1003
0000
0000
0000
0100
0000
0001
0000
0000
0000
0100
0000
1000
0000
0000
0000
0001
0000
1000
0000
0000
0000
0010
0000
,
0200
0000
0000
0000
0320
0000
0000
0000
2030
0000
3200
0000
0302
M0M0
0203
0000
,
0000
0000
00MM
0000
2300
0000
3002
0000
0000
0000
0023
M000
0000
000M
2030
0000
,
3020
0000
0001
0000
0100
0000
0032
0000
0000
0000
1000
0000
0010
0000
1000
0003
,
2200
0000
0000
3300
2002
0000
0000
3003
0022
0000
0000
0033
2200
0000
0000
3300
,
2020
0000
0000
0000
0000
3000
0002
0000
0000
0000
0000
0000
0000
0000
0000
0030
,
2000
0003
0200
3000
0002
0300
0020
0000
0000
0000
0000
0003
0200
0000
0000
0030
,
0002
0000
0000
0000
0000
0000
0000
0300
2000
0003
0020
3000
0002
0030
2000
0003
,
3020
0000
0000
0230
0000
0000
0302
0000
0000
2003
0000
0000
3010
0100
0010
1000
0010
1000
0001
0010
0001
0010
0100
0010
,
0100
1000
0100
0010
0001
0010
0100
1000
0100
1000
0001
1000
0001
0100
0001
1000
0010
1000
0001
0010
0001
1000
0100
0010
,
0004
4000
0000
0000
0000
0000
0000
0000
0000
3003
0000
0000
2000
0000
0000
3020
0000
0000
0230
0000
0000
0301
0100
0001
,
1000
0000
0000
0100
0000
0000
0020
0000
0000
0000
0000
0000
0130
0000
0000
1000
0000
0000
0001
0000
0000
0100
0000
0000
0010
0000
0000
0100
0000
0000
0001
0000
0100
0000
0010
0000
4000
0000
0000
0000
0000
0000
0000
0000
0000
3000
0000
0000
,
2200
0000
0000
3000
0320
0032
2003
3020
,
0230
0000
0301
0100
0020
0000
1030
0001
,
0200
0000
0301
0100
1000
0100
0002
0000
1003
0010
0001
0010
1000
0001
0040
0000
,
0000
0000
0130
1000
0000
0001
0200
0000
0000
0310
0000
0000
4000
0000
0000
0000
0000
0000
3001
0000
0000
0100
0000
0000
,
0220
0000
0000
0000
0300
1030
0001
0202
,
0000
0000
0000
0000
0000
0000
0000
0000
0000
0000
0000
0000
0000
0000
0000
0003
0000
0000
0320
0000
0000
1030
0010
1000
,
0001
0100
0001
1000
0100
1000
0001
0010
0001
1000
0001
1000
0010
0100
0010
1000
0010
0100
0001
1000
0001
0010
0100
1000
,
0002
0000
0000
0000
2003
0000
0000
0000
3020
0000
0032
MM00
0023
0000
2030
0000
,
0000
0M0M
0000
0000
3002
0000
0203
0000
0000
0000
2300
00MM
0000
0000
3200
0000
,
0320
0000
1000
0000
0100
0000
2030
0000
0000
0000
0001
0000
0010
0000
0001
3000
,
2002
0000
0000
3003
0202
0000
0000
0303
2020
0000
0000
3030
2002
0000
0000
3003
,
0202
0003
0000
2000
0000
3000
0000
0000
,
0002
0300
2003
0000
3200
0000
0320
0000
0000
0000
0000
0000
0200
0000
0300
0000
,
2000
0000
0000
0000
3000
0000
0000
0000
0002
0030
2003
0000
3020
0000
0230
0000
,
0302
0000
0000
2003
0000
0000
3200
0000
0000
0320
0000
0000
0130
1000
0100
0010
0001
0010
0100
1000
0001
0100
0010
1000
,
0001
0010
0020
0100
0001
0032
0000
2003
,
3010
0000
0000
0200
0000
0000
0010
0000
0000
0320
0000
0000
1030
0000
0001
0100
0000
0010
2000
0000
0000
0000
0000
0000
,
3020
0100
0230
0010
0301
0002
0000
1003
,
0200
0000
0000
0010
0000
0000
0320
0000
0000
0100
0000
0000
0031
0000
1000
0010
0000
0001
0010
0000
1000
0001
0000
0010
,
0002
0100
0203
0001
0310
0020
0000
1030
,
0200
0000
0000
0010
0000
0000
0320
0000
0000
0001
0000
0000
0130
0000
1000
0001
0000
0010
0200
0000
0000
0000
0000
0000
,
2300
0001
3002
1000
0100
0203
0000
0310
,
2000
0001
3002
1000
0010
0023
0230
0300
,
4200
0000
0000
0000
,
0000
0000
0000
0000
,
3300
0000
0000
0000
;

//---------------dance-single - Medium----------------
#NOTES:
     dance-single:
     Ace Of Hearts (2013):
     Medium:
     7:
     0.434,0.155,0.007,1.000,0.018:
0000
0000
0000
0000
,
1000
0000
0000
0000
2000
0000
0000
3010
0000
0000
0010
0000
0000
0000
0100
0000
,
0001
0000
0000
0000
0002
0000
0000
0000
4003
0000
0000
3000
0000
0000
0000
0000
,
0002
0000
0000
0203
0000
0310
1000
0001
,
2000
3020
0430
0000
,
0302
0000
0000
2003
0000
0000
3001
0010
,
0200
2300
3004
0203
,
0320
0000
0000
2030
0000
0000
3001
0100
,
0020
2030
3002
0203
,
0320
0000
0000
0230
0000
0000
0300
0001
,
2000
0000
0000
3200
0000
0000
0300
0010
,
0002
0000
1003
0020
0000
0000
0030
1000
,
0002
0000
0000
0023
0000
0000
0130
0000
4000
0000
0000
0000
3002
0000
0103
0000
,
0000
0000
0010
0200
0000
0000
0300
0001
,
2000
0000
0000
3002
0000
0000
0003
0010
,
0200
0000
1300
0002
0000
0000
0003
1000
,
0002
0023
0230
2300
3004
0000
0000
0000
,
0003
0000
2000
0000
3010
0100
0010
2000
,
0000
0000
3001
0020
0000
0230
0000
2300
,
0000
0000
3000
0000
,
0002
0203
0320
0230
,
0302
0000
0000
2003
0000
0000
3000
0000
,
0002
0203
0320
2030
0000
0000
3002
0000
,
0023
0000
0000
0000
0230
1300
0001
1000
,
0010
0100
0001
1000
0400
0000
0000
0000
,
0300
0010
0020
0000
0031
0002
0000
0003
,
0000
1000
2000
0000
3010
0020
0000
0030
,
0000
0100
0200
0000
0301
0002
0000
0003
,
0000
1000
2000
0000
3020
0000
0230
0000
,
0302
0000
0000
2003
0000
0000
3000
0100
,
0020
0000
0000
0230
0000
0000
0300
1000
,
0002
0000
1003
0200
0000
0000
0300
0010
,
0002
0000
0000
2003
0000
0000
3001
0000
0040
0000
0000
0000
0230
0000
1300
0000
,
0000
0000
0001
0200
0000
0000
0300
0010
,
2000
0000
0000
3002
0000
0000
0003
1000
,
0020
0000
1030
0002
0000
0000
0003
1000
,
0200
0320
0230
2300
3004
0000
0000
0000
,
0003
0000
2000
0000
3001
0100
0010
0200
,
0000
0000
0301
2000
0000
3200
0000
0320
,
0000
0000
0030
0000
,
0002
2003
3020
0230
,
0302
0000
0000
2003
0000
0000
3000
0000
,
0200
0320
0032
0023
0000
0000
0230
0000
,
2300
0000
0000
0000
3002
0103
0010
1000
,
0010
0100
0001
1000
0400
0000
0000
0000
,
0340
0000
0000
0000
,
0032
0000
0000
0000
1003
0100
2000
0000
,
3001
0000
0010
0000
0100
0000
1000
0000
0000
0100
0000
0000
0010
0000
0000
0100
0000
0000
2000
0000
0000
0000
0000
0000
,
3002
0000
0000
0000
2003
3020
0230
0320
,
2030
0000
3002
0203
0302
0000
2003
3020
,
0230
0304
0000
0003
4000
0000
3000
0002
,
0000
1003
0020
0130
0002
0000
1003
0100
,
0020
0000
0000
0000
0000
0130
1000
0002
,
0000
0000
0000
4003
,
0000
0000
0000
0000
,
3002
0000
0023
0000
0230
1300
0100
0020
,
0000
0000
0031
2000
0000
3002
0000
0203
,
0000
0000
0300
0000
,
0020
2030
3002
0203
,
0320
0000
0000
2030
0000
0000
3000
0000
,
0002
0013
0100
2000
0000
0000
3002
0000
,
0023
0000
0000
0000
0032
1003
0010
1000
,
0002
0023
0230
2300
3400
0000
0000
0000
,
0300
1000
2000
0000
3001
0002
0000
0003
,
0000
0100
0200
0000
0340
0000
2030
0000
,
3002
0000
0000
0203
0000
0000
0000
0000
,
0320
0000
4030
0000
,
3002
0000
0000
0023
0000
0000
0130
1000
,
0002
0203
0304
2003
,
3002
0000
0000
0023
0000
0000
0130
1000
,
0002
0000
0203
0000
0320
0000
0230
0300
,
0420
0000
0000
0000
,
0000
0000
0000
0000
,
0330
0000
0000
0000
;

//---------------dance-single - Easy----------------
#NOTES:
     dance-single:
     Ace Of Hearts (2013):
     Easy:
     4:
     0.233,0.078,0.007,0.411,0.000: // measure 1
0000
0000
0000
0000
,  // measure 2
0001
0001
0001
0000
,  // measure 3
0010
0010
0040
0030
,  // measure 4
0100
0100
0100
0000
,  // measure 5
1000
1000
4000
0000
,  // measure 6
3001
0001
0001
0000
,  // measure 7
0100
0100
0400
0300
,  // measure 8
0010
0010
0010
0000
,  // measure 9
1000
1000
1000
0000
,  // measure 10
0002
0000
0003
0002
0000
0000
0003
0000
,  // measure 11
0200
0000
0300
0200
0000
0300
0000
0000
,  // measure 12
0020
0000
0030
0020
0000
0030
0000
0000
,  // measure 13
2000
0000
3004
0003
,  // measure 14
0000
0200
0300
0000
,  // measure 15
0020
0000
0030
0020
0000
0030
0000
0000
,  // measure 16
2000
0000
3000
2000
0000
3000
0000
0000
,  // measure 17
0001
0001
0004
0000
,  // measure 18
0003
2000
0001
0001
,  // measure 19
3002
0100
0100
0100
,  // measure 20
0203
0000
0300
0000
,  // measure 21
0010
0010
0010
0000
,  // measure 22
2000
0000
3000
2000
0000
0000
3000
0000
,  // measure 23
0002
0000
0003
0002
0000
0003
0000
0000
,  // measure 24
0020
0000
0000
0030
0020
0000
0030
0000
,  // measure 25
0100
0100
0400
0000
,  // measure 26
1300
1000
1000
0000
,  // measure 27
0001
0001
0001
0000
,  // measure 28
0100
0100
0100
0000
,  // measure 29
0010
0010
0020
0030
,  // measure 30
0200
0000
0300
0200
0000
0300
0000
0000
,  // measure 31
0002
0000
0003
0002
0000
0003
0000
0000
,  // measure 32
2000
0000
3000
2000
0000
3000
0000
0000
,  // measure 33
0010
0010
0040
0030
,  // measure 34
0000
0200
0300
0000
,  // measure 35
0020
0000
0030
0020
0000
0030
0000
0000
,  // measure 36
2000
0000
3000
2000
0000
3000
0000
0000
,  // measure 37
0001
0001
0004
0000
,  // measure 38
0003
0020
0100
0100
,  // measure 39
0230
1000
1000
1000
,  // measure 40
2300
0000
3000
0000
,  // measure 41
0001
0001
0001
0000
,  // measure 42
0200
0000
0300
0200
0000
0300
0000
0000
,  // measure 43
0020
0000
0030
0020
0000
0030
0000
0000
,  // measure 44
2000
3000
2000
3000
,  // measure 45
0100
0100
0400
0000
,  // measure 46
0340
0000
0000
0000
,  // measure 47
0030
0000
0001
0001
,  // measure 48
1000
1000
4000
3000
,  // measure 49
0200
0000
0000
0300
0010
0000
0010
0000
,  // measure 50
0020
0030
0200
0300
,  // measure 51
0000
4000
0000
3000
0004
0000
0003
0100
,  // measure 52
0000
0200
0000
0300
0200
0000
0300
0000
,  // measure 53
0020
0000
0000
0000
0000
0000
0000
0230
,  // measure 54
0000
0000
0000
0304
,  // measure 55
0000
0000
0000
0000
,  // measure 56
0003
0000
1000
0000
1000
0000
0000
0020
,  // measure 57
0000
0000
0030
0100
0000
0100
0000
0200
,  // measure 58
0000
0000
0300
0000
,  // measure 59
0001
0001
0001
0000
,  // measure 60
2000
0000
3000
2000
0000
3000
0000
0000
,  // measure 61
0200
0000
0300
0200
0000
0300
0000
0000
,  // measure 62
0020
0030
0020
0030
,  // measure 63
0001
0001
0004
0000
,  // measure 64
0013
0010
0010
0000
,  // measure 65
0100
0100
0400
0300
,  // measure 66
1000
1000
1000
0000
,  // measure 67
0001
0001
0004
0000
,  // measure 68
1003
1000
1000
0000
,  // measure 69
0010
0010
0040
0030
,  // measure 70
0100
0100
0100
0000
,  // measure 71
0001
0001
0001
0000
,  // measure 72
4002
0000
0000
0000
,  // measure 73
0000
0000
0000
0000
,  // measure 74
3003
0000
0000
0000
;

//---------------dance-single - Novice----------------
#NOTES:
     dance-single:
     Ace Of Hearts (2013):
     Beginner:
     2:
     0.138,0.052,0.007,0.369,0.000: // measure 1
0000
0000
0000
0000
,  // measure 2
2000
0000
3000
0000
,  // measure 3
2000
0000
3000
0000
,  // measure 4
0002
0000
0003
0000
,  // measure 5
0002
0000
0003
0000
,  // measure 6
0020
0000
0030
0000
,  // measure 7
0020
0000
0030
0000
,  // measure 8
0200
0000
0300
0000
,  // measure 9
0200
0000
0300
0000
,  // measure 10
2000
0000
0000
3000
0000
0000
0000
0000
,  // measure 11
2000
0000
0000
3000
0000
0000
0000
0000
,  // measure 12
0002
0000
0000
0003
0000
0000
0000
0000
,  // measure 13
0001
0000
0000
0000
0002
0000
0000
0003
,  // measure 14
0000
0010
0000
0000
,  // measure 15
0020
0000
0000
0030
0000
0000
0000
0000
,  // measure 16
0020
0000
0000
0030
0000
0000
0000
0000
,  // measure 17
0200
0000
0300
0000
,  // measure 18
0000
0000
1000
0000
,  // measure 19
1000
0000
1000
0000
,  // measure 20
2000
0000
3000
0000
,  // measure 21
0001
0000
0001
0000
,  // measure 22
0002
0000
0000
0003
0000
0000
0000
0000
,  // measure 23
0002
0000
0000
0003
0000
0000
0000
0000
,  // measure 24
0020
0000
0030
0000
,  // measure 25
0020
0000
0000
0030
0000
0000
0000
0000
,  // measure 26
0200
0000
0300
0000
,  // measure 27
0200
0000
0300
0000
,  // measure 28
2000
0000
3000
0000
,  // measure 29
2000
0000
3000
0000
,  // measure 30
0002
0000
0000
0003
0000
0000
0000
0000
,  // measure 31
0002
0000
0000
0003
0000
0000
0000
0000
,  // measure 32
0200
0000
0000
0300
0000
0000
0000
0000
,  // measure 33
0200
0000
0300
0000
,  // measure 34
0000
0020
0030
0000
,  // measure 35
0020
0000
0000
0030
0000
0000
0000
0000
,  // measure 36
0020
0000
0000
0030
0000
0000
0000
0000
,  // measure 37
1000
0000
1000
0000
,  // measure 38
0000
0000
0001
0000
,  // measure 39
0001
0000
0001
0000
,  // measure 40
0002
0000
0003
0000
,  // measure 41
0010
0000
0010
0000
,  // measure 42
0200
0000
0000
0300
0000
0000
0000
0000
,  // measure 43
0200
0000
0000
0300
0000
0000
0000
0000
,  // measure 44
0020
0000
0030
0000
,  // measure 45
0100
0000
0100
0000
,  // measure 46
0400
0000
0000
0000
,  // measure 47
0300
0000
1000
0000
,  // measure 48
1000
0000
1000
0000
,  // measure 49
2000
0000
3001
0000
,  // measure 50
0001
0000
0001
0000
,  // measure 51
0004
0000
0000
0000
,  // measure 52
0003
0000
0010
0000
,  // measure 53
0020
0000
0030
0000
,  // measure 54
0200
0000
0000
0300
,  // measure 55
4000
0000
0000
0000
,  // measure 56
3000
0000
0001
0000
,  // measure 57
0001
0000
0001
0000
,  // measure 58
0002
0000
0000
0003
0000
0000
0000
0000
,  // measure 59
0010
0000
0010
0000
,  // measure 60
0020
0000
0000
0030
0000
0000
0000
0000
,  // measure 61
0020
0000
0000
0030
0000
0000
0000
0000
,  // measure 62
0200
0000
0300
0000
,  // measure 63
0200
0000
0000
0300
0000
0000
0000
0000
,  // measure 64
2000
0000
3000
0000
,  // measure 65
2000
0000
3000
0000
,  // measure 66
0002
0000
0003
0000
,  // measure 67
0002
0000
0003
0000
,  // measure 68
0020
0000
0030
0000
,  // measure 69
0020
0000
0030
0000
,  // measure 70
0002
0000
0003
0000
,  // measure 71
0002
0000
0003
0000
,  // measure 72
4002
0000
0000
0000
,  // measure 73
0000
0000
0000
0000
,  // measure 74
3003
0000
0000
0000
;
