#TITLE:Wing of Zero;
#SUBTITLE:;
#ARTIST:Kotoko;
#TITLETRANSLIT:;
#SUBTITLETRANSLIT:;
#ARTISTTRANSLIT:;
#GENRE:;
#CREDIT:Ace Of Hearts;
#BANNER:Wing of Zero - bn.png;
#BACKGROUND:Wing of Zero - bg.png;
#LYRICSPATH:;
#CDTITLE:Ace Of Hearts.png;
#MUSIC:Wing of Zero.ogg;
#OFFSET:1.420;
#SAMPLESTART:72.340;
#SAMPLELENGTH:12.000;
#SELECTABLE:YES;
#DISPLAYBPM:143.000;
#BPMS:0.000=143.000,12.000=286.000,12.250=143.000,13.000=286.000,13.250=143.000,14.000=286.000,14.250=143.000,15.000=286.000,16.000=143.000,29.500=286.000,30.500=143.000,31.000=286.000,32.000=143.000,63.000=286.000,64.000=143.000,142.500=286.000,142.750=143.000,143.250=286.000,144.000=143.000,207.000=286.000,208.000=143.000,222.500=286.000,224.000=143.000,238.000=286.000,240.000=143.000;
#STOPS:12.000=0.052
,13.000=0.052
,14.000=0.052
,15.000=0.052
,15.250=0.026
,15.375=0.026
,15.500=0.026
,15.625=0.026
,15.750=0.026
,15.875=0.026
,29.500=0.035
,29.667=0.035
,29.833=0.035
,30.000=0.035
,30.167=0.035
,30.333=0.035
,31.000=0.026
,31.125=0.026
,31.250=0.026
,31.375=0.026
,31.500=0.026
,31.625=0.026
,31.750=0.026
,31.875=0.026
,63.000=0.035
,63.167=0.035
,63.333=0.035
,63.500=0.035
,63.667=0.035
,63.833=0.035
,142.500=0.052
,143.250=0.157
,207.000=0.035
,207.167=0.035
,207.333=0.035
,207.500=0.035
,207.667=0.035
,207.833=0.035
,222.500=0.026
,222.625=0.026
,222.750=0.026
,222.875=0.026
,223.000=0.026
,223.125=0.026
,223.250=0.026
,223.375=0.026
,223.500=0.026
,223.625=0.026
,223.750=0.026
,223.875=0.026
,238.000=0.035
,238.167=0.035
,238.333=0.035
,238.500=0.035
,238.667=0.035
,238.833=0.035
,239.000=0.035
,239.167=0.035
,239.333=0.035
,239.500=0.035
,239.667=0.035
,239.833=0.035
;
#BGCHANGES:3.375=Baldr Sky Zero OP.avi=1.000=1=0=1===CrossFade==,
99999=-nosongbg-=1.000=0=0=0 // don't automatically add -songbackground-
;
#FGCHANGES:;
#KEYSOUNDS:;

//---------------dance-single - Hard----------------
#NOTES:
     dance-single:
     Ace Of Hearts (2012):
     Hard:
     10:
     0.653,0.117,0.106,1.000,0.288: // measure 1
0000
0000
0000
0000
,  // measure 2
0000
0000
2002
0000
,  // measure 3
0M10
0000
0000
0000
00M0
3003
0000
0000
,  // measure 4
100M
0100
0000
0000
10M0
0001
0000
0000
1M00
0010
0000
0000
M100
0004
0000
0000
,  // measure 5
2003
0000
3001
0010
0002
0000
2003
0000
3010
0100
0020
0000
2030
0000
3001
0010
,  // measure 6
0002
0000
2003
0000
3010
0100
0010
0100
0020
0000
1030
0001
2000
0000
3100
0010
,  // measure 7
0200
0000
1300
0100
2000
0000
3002
0000
1003
0010
2000
0000
3002
0000
0013
0100
,  // measure 8
0020
0000
0031
1000
0004
0000
0000
0000
0000
0000
0003
0000
0400
0000
0000
0000
,  // measure 9
0300
0000
0001
0000
2000
3010
0000
0200
,  // measure 10
0000
0302
0000
1003
0020
0000
0230
0000
,  // measure 11
0300
M00M
0100
1000
0002
0403
0000
0302
,  // measure 12
0000
2003
0000
3100
0010
0001
0020
0000
,  // measure 13
0030
M00M
0010
0100
0001
1000
0100
0020
,  // measure 14
0000
0230
0300
0010
0001
1000
0020
0000
,  // measure 15
0030
M00M
0010
0000
0200
0000
1300
0002
,  // measure 16
0000
0203
0000
0310
1000
0001
4000
0000
,  // measure 17
301M
0100
0000
02M2
0000
M010
0303
0001
,  // measure 18
1M00
0100
20M0
0002
0000
0M10
3003
0001
,  // measure 19
M100
0001
2000
02M0
0000
001M
3300
0100
,  // measure 20
M010
0001
20M0
0002
0000
0M10
3003
0001
,  // measure 21
0100
0010
0200
0000
0302
1003
0000
0200
,  // measure 22
0000
0340
0000
0130
2000
0000
3200
0000
,  // measure 23
0300
M00M
0100
0001
2000
3010
0000
0200
,  // measure 24
0000
0302
0000
1003
0010
0100
0020
0000
,  // measure 25
0030
M00M
0020
0030
0002
1003
0010
0200
,  // measure 26
0000
0000
0302
0000
0003
0000
1000
0100
0010
0000
0100
0000
0200
0000
0000
0000
,  // measure 27
0300
M00M
0100
0000
0002
0000
1003
0200
,  // measure 28
0000
0340
0000
0230
1300
0001
0020
0000
,  // measure 29
0030
0000
0100
2000
0000
0000
3001
0200
,  // measure 30
0000
0000
0301
2000
0000
3001
0010
0200
,  // measure 31
0000
0000
2300
0000
3002
0000
0013
0200
,  // measure 32
0000
0000
0310
0000
1000
0000
0010
0002
0000
0000
1003
0000
0020
0000
0130
0002
,  // measure 33
0003
MMMM
0100
0020
0000
0000
0130
0004
,  // measure 34
0000
0000
1003
0200
0000
0320
0000
0030
,  // measure 35
0022
0000
0030
2000
0000
0000
0000
0000
,  // measure 36
0020
0000
0000
0000
0000
0000
0000
0000
3033
0000
M202
0303
0000
1M10
0000
0000
,  // measure 37
10M2
0000
0000
M100
0000
0000
2M03
0000
0000
0000
3100
0000
0010
0000
0001
0000
,  // measure 38
2M00
0000
0000
001M
0000
0000
34M0
0000
0000
0000
0300
0000
0010
0000
0001
0000
,  // measure 39
0200
0000
0000
M010
0000
0000
03M2
0000
0000
0000
1003
0000
0010
0000
0100
0000
,  // measure 40
M002
0000
0000
0M10
0000
0000
10M3
0000
0200
0000
0000
0000
0300
0000
MMMM
0000
,  // measure 41
M020
0000
0000
010M
0000
0000
0M32
0000
0000
0000
1003
0000
0010
0000
0100
0000
,  // measure 42
002M
0000
0000
1M00
0000
0000
M430
0000
0000
0000
0300
0000
0002
0000
0003
0000
,  // measure 43
2002
0000
0000
3003
2020
0000
3000
0030
0220
0000
0030
0300
0202
0000
0300
0000
,  // measure 44
20M3
0000
0000
010M
0000
0000
3M02
0000
0000
0000
0000
0000
0403
0000
0000
0000
,  // measure 45
0310
0100
0010
0000
M00M
0000
0020
0000
0000
0000
0130
0000
1000
0000
0001
0000
,  // measure 46
2M00
0000
0000
001M
0000
0000
3001
0000
0200
0000
0000
0000
0320
0000
0000
0000
,  // measure 47
0130
0010
0100
0000
M00M
0000
0200
0000
0000
0000
0310
0000
0001
0000
1000
0000
,  // measure 48
002M
0000
0000
1M00
0000
0000
M130
0000
0002
0000
0000
0000
0003
0000
0000
0000
,  // measure 49
200M
0000
0000
01M0
0000
0000
3M02
0000
0000
M010
0000
0000
2M03
0000
0000
001M
,  // measure 50
0000
3M02
0000
M403
0000
0300
0020
0000
,  // measure 51
2030
0000
3001
0200
0000
0000
0000
0000
,  // measure 52
0300
0000
0000
0000
0010
0000
0100
0000
0002
0000
0M00
4003
00M0
0000
0M01
0000
,  // measure 53
3001
0020
0000
0200
0000
0000
0000
0000
,  // measure 54
0000
0000
0000
0000
0000
0000
0000
0300
0400
0000
0000
0000
0000
0000
0000
0000
0000
0000
0000
0000
0000
0000
0000
0000
0000
0000
0000
0000
0000
0000
0000
0000
0000
0000
0000
0000
0000
0000
0000
0000
0000
0000
0000
0000
0000
0000
0000
0000
0030
0000
0000
0000
0000
0000
0000
0000
0000
0000
0000
0000
0000
0000
0000
0000
,  // measure 55
0310
0001
0010
0000
0100
0000
1000
0000
0001
0100
0001
1000
0000
0001
0100
0000
,  // measure 56
0010
0100
0010
0100
0010
0000
1000
0000
0001
0000
0040
0000
0000
0000
0000
0000
,  // measure 57
0031
1000
0002
0000
0203
0000
0310
0100
0020
0000
2030
0000
3001
0100
0002
0000
,  // measure 58
1003
0100
1000
0100
0010
0001
0010
0001
1000
0001
2000
0000
3020
0000
0130
0001
,  // measure 59
0100
0010
0100
0010
1000
0001
1000
0001
0010
0100
0010
0100
1000
0100
1000
0100
,  // measure 60
0010
0001
0010
0100
2000
0000
3001
0100
0004
0000
0000
0000
0000
0000
0000
0000
,  // measure 61
2003
3010
0000
0220
0030
0001
0301
0000
;

//---------------dance-single - Expert----------------
#NOTES:
     dance-single:
     Ace Of Hearts (2012 w Hold Fix):
     Challenge:
     12:
     1.000,0.058,0.297,0.912,1.000: // measure 1
0000
0000
0000
0000
,  // measure 2
0000
0000
0000
0000
M002
0M00
00M0
0000
,  // measure 3
2220
0000
3330
00M0
M000
0M03
00M0
0M00
,  // measure 4
200M
0000
320M
0000
0310
0000
0100
0000
20M0
0000
30M2
0000
0103
0000
0010
0000
M200
0000
M302
0000
1003
0000
0100
0000
20M0
0000
30M1
0100
0001
0100
0001
0100
,  // measure 5
0001
1000
0010
0100
0002
0000
1003
0100
0010
0001
0010
0100
2000
0000
3010
1000
,  // measure 6
0001
0010
1M00
0010
0001
1000
0010
0100
0001
1000
0001
0010
0100
1000
0100
0010
,  // measure 7
0001
1000
0010
1000
0001
0100
0020
0000
0130
0010
1000
0001
1000
0010
0100
0001
,  // measure 8
1000
0000
0000
0000
0000
0000
0000
0000
0000
0000
0000
0000
0100
0000
0000
0000
0000
0000
0000
0000
0000
0000
0000
0000
0010
0000
0000
0000
0000
0000
0000
0000
0000
0000
0000
0000
0001
0000
0000
0000
0000
0000
0000
0000
0000
0000
0000
0000
2000
0000
0000
0000
0000
0000
0000
0000
0000
0000
0000
0000
0000
0000
0000
0000
0000
0000
0000
0000
0000
0000
0000
0000
3010
0000
0000
0000
0000
0000
0000
0000
0100
0000
0000
0000
0000
0000
0000
0000
0010
0000
0000
0000
0000
0000
0000
0000
0100
0000
0000
0000
0000
0000
0000
0000
0010
0000
0000
0000
0000
0000
0000
0000
0100
0000
0000
0000
0000
0000
0000
0000
0010
0000
0000
0000
0000
0000
0000
0000
0000
0000
0000
0000
1000
0000
0000
0000
0000
0000
0000
0000
0000
0000
0000
0000
0001
0000
0000
0000
0000
0000
0010
0000
0000
0000
0000
0000
0001
0000
0000
0000
0000
0000
0010
0000
0000
0000
0000
0000
0M01
0000
0000
0000
0000
0000
0010
0000
0000
0000
0000
0000
0001
0000
0000
0000
0000
0000
0010
0000
0000
0000
0000
0000
,  // measure 9
M004
0000
0M00
0000
1003
0010
1000
0010
0100
0001
1000
0100
1000
0100
0010
0001
,  // measure 10
0010
0001
1000
0010
1000
0010
0100
0010
1000
0001
1000
0001
1000
0100
M0M1
0100
,  // measure 11
1000
0100
1000
0100
1000
0001
0010
0100
1000
0100
0010
0001
0010
0001
1000
0010
,  // measure 12
1000
0010
0100
0001
0100
0001
1000
0001
0100
0010
1000
0001
1000
0010
MM01
0010
,  // measure 13
1000
0001
1000
0001
1000
0100
0010
0001
0010
0100
1000
0001
1000
0010
0100
0001
,  // measure 14
0100
0001
1000
0100
1000
0100
0010
0001
1000
0010
0100
0001
1000
0100
M0M1
0100
,  // measure 15
1000
0001
1000
0001
0100
0010
0100
0010
1000
0010
1000
0010
0100
0001
1000
0001
,  // measure 16
1000
0000
0000
0001
0000
0000
0010
0000
0000
0001
0000
0000
0010
0000
0000
0001
0000
0000
1000
0000
0000
0100
0000
0000
0010
0000
0000
0001
0000
0000
0010
0000
0000
0100
0000
0000
1000
0000
0100
0000
10M0
0000
0100
0000
1000
0000
0100
0000
,  // measure 17
001M
0M01
1000
101M
0000
M111
0000
0001
,  // measure 18
01M1
0100
0001
1M01
0000
111M
0000
0100
,  // measure 19
M110
0010
0001
10M1
0000
1M11
0000
1000
,  // measure 20
101M
0000
0000
0000
0000
0000
0010
0000
0000
0000
0000
0000
0100
0000
0000
0000
0000
0000
00M1
0000
0100
0000
0001
0000
M100
0000
0001
0000
0100
0000
00M1
0000
0000
1000
0000
0000
0100
0000
0000
0000
0000
0000
0100
0000
0000
0010
0000
0000
,  // measure 21
0M01
1000
0100
0010
0100
1000
0100
1000
0001
0100
0010
1000
0010
1000
0001
0010
,  // measure 22
0001
0010
0100
0010
0100
0010
0001
1000
0100
1000
0100
1000
0001
0100
10MM
0100
,  // measure 23
0001
1000
0001
1000
0010
0100
0001
0100
0010
1000
0001
0010
0001
0010
0100
1000
,  // measure 24
0100
1000
0001
0100
0001
0100
0010
1000
0001
0010
0100
0010
0001
0010
1M0M
0010
,  // measure 25
0001
1000
0001
1000
0010
0100
0010
0100
0001
0100
0010
1000
0001
0010
0100
1000
,  // measure 26
0100
1000
0001
0010
0001
0010
0100
1000
0001
0100
0010
0100
0001
0100
10MM
0100
,  // measure 27
0001
1000
0001
1000
0100
0010
0100
0010
0001
0010
0001
0010
0100
1000
0001
0100
,  // measure 28
0001
0000
0000
0100
0000
0000
0010
0000
0000
1000
0000
0000
0010
0000
0000
1000
0000
0000
0001
0000
0000
1000
0000
0000
0100
0000
0000
0010
0000
0000
0001
0000
0000
0010
0000
0000
0M01
0000
1000
0000
0001
0000
10M0
0000
0001
0000
1000
0000
,  // measure 29
0M02
0000
0000
0000
2003
000M
0020
0000
0000
0000
0000
3000
M002
0030
20M0
0000
,  // measure 30
0000
0000
0000
0003
020M
3000
M020
0000
0000
0300
2M00
0030
02M0
3000
M002
0000
,  // measure 31
0000
0000
0000
0000
2300
0M00
0000
0003
002M
0000
0000
3000
M002
0030
02M0
0000
,  // measure 32
0000
0003
200M
0300
0M02
3000
M020
2003
000M
0030
30M2
M000
0020
0003
023M
2300
,  // measure 33
3000
0000
MMMM
0000
0002
0000
0200
0000
0000
0000
0000
0003
002M
0300
0M04
0000
,  // measure 34
0000
0000
0030
00M0
0023
000M
2000
0000
0030
0000
30M2
0000
M000
0000
0000
0000
,  // measure 35
0200
0000
0003
0020
0000
0000
0000
0300
,  // measure 36
2030
0000
0000
0000
0000
0000
3001
0000
0000
0000
0000
0000
0010
0000
0100
0000
0010
0000
0100
0000
0000
0000
0000
0000
MMMM
0000
0000
0000
0000
0000
2200
0000
0000
3300
00MM
0000
0000
0000
0000
1001
0000
0000
0000
0000
MM00
0000
0000
0000
,  // measure 37
02M1
0000
0000
100M
0000
0300
M202
0000
0300
0000
1003
0000
0100
0000
0001
0000
,  // measure 38
M201
0000
0000
10M0
0000
0300
024M
0000
0300
0000
0030
0000
0001
0000
1000
0000
,  // measure 39
102M
0000
0000
0M01
0000
0030
M210
0000
0000
0000
0301
0000
1000
0000
0100
0000
,  // measure 40
M020
0000
0030
0M12
0000
0000
10M3
0000
1010
0000
0010
0000
1000
0001
0100
0001
,  // measure 41
20M0
0000
0000
010M
0000
3000
1M02
0000
0000
0000
0103
0000
0010
0000
1000
0000
,  // measure 42
120M
0000
0000
M010
0000
0300
41M0
0000
0000
0000
3000
0000
0002
0000
0003
0000
,  // measure 43
2000
3000
0000
0000
2020
0000
3030
0000
2220
0000
0000
3330
2222
0000
0000
3333
,  // measure 44
0102
0000
0000
0000
0000
0000
0000
0000
0000
0010
0000
0000
0000
0000
0000
0003
0000
0000
2001
0000
0000
0000
0000
0000
3100
0000
0000
0010
0000
0000
0100
0000
0000
0000
0000
0000
M010
0000
0001
0000
0010
0000
0M01
0000
0010
0000
0001
0000
,  // measure 45
0010
0100
0010
0000
M00M
0000
0020
0000
0000
0000
0130
0000
0001
0000
1000
0000
,  // measure 46
0020
0000
0030
0110
0000
0000
0100
0000
0002
0000
0000
0000
2003
0000
0000
0000
,  // measure 47
3100
0010
0100
0000
M00M
0000
0200
0000
0000
0000
0310
0000
1000
0000
0100
0000
,  // measure 48
0020
0000
0030
0110
0000
0000
0100
0000
1000
0000
0001
0000
0100
0001
1000
0100
,  // measure 49
002M
0000
0000
M002
0000
0000
1M00
0000
0003
0200
0000
0000
M001
0000
0030
200M
,  // measure 50
0000
00M1
0300
3040
0000
0030
0200
0000
,  // measure 51
0302
0000
0000
2003
0000
0000
3200
0000
0020
0000
0030
0000
2000
0000
3000
0000
,  // measure 52
0310
0000
0000
0001
0000
0000
1000
0000
0000
0010
0000
0000
0100
0000
0000
0001
0000
0000
10M0
0100
1000
010M
1000
0100
,  // measure 53
0020
0000
0032
0000
0000
0000
2003
0000
3010
0100
0010
0100
0001
1000
0001
1000
,  // measure 54
0010
0100
0001
1000
0001
0010
0100
1000
0100
0010
0001
0010
0000
0010
0200
0000
,  // measure 55
0310
0001
1000
0001
0100
0000
0010
0000
0100
0001
0000
1000
0000
1000
0100
0010
,  // measure 56
0100
0000
1000
0000
0001
0000
0100
0000
0001
0000
1000
0000
0100
0000
0010
0000
0100
0000
1000
0000
00M1
0100
0001
0100
M001
0100
0001
0100
00M1
0100
0001
0100
,  // measure 57
0001
1000
0100
0010
0100
1000
0001
0100
0010
0100
0001
1000
0100
0010
0100
1000
,  // measure 58
0001
0010
1M00
0010
0001
1000
0010
1000
0001
0100
10M0
0100
0001
1000
0001
0100
,  // measure 59
0001
1000
0100
0010
0100
1000
0001
0100
0010
0100
0001
1000
0100
0010
0100
1000
,  // measure 60
0001
0000
0000
0100
0000
0000
0010
0000
0000
1000
0000
0000
0010
0000
0000
0100
0000
0000
0001
0000
0000
1000
0000
0000
0M01
0000
0010
0000
0001
0000
M010
0000
0001
0000
0010
0000
0100
0000
1000
000M
0100
0000
1000
0000
0100
00M0
1000
0000
,  // measure 61
0001
0010
0000
220M
0000
0010
3310
0000
;

//---------------dance-single - Medium----------------
#NOTES:
     dance-single:
     Ace Of Hearts (2012):
     Medium:
     8:
     0.552,0.000,0.106,0.969,0.134:
0000
0000
0000
0000
,
0000
0000
0000
0000
,
220M
0000
0000
0000
0000
33M0
0000
0000
,
1000
0001
0M00
0000
1000
0010
000M
0000
0100
0001
M000
0000
1000
0400
0000
0000
,
0310
0100
1000
0001
1000
0010
0100
0001
,
4000
0004
0000
0000
0000
0000
0000
0000
0000
0000
0000
0000
3003
0000
0000
0000
,
0001
0100
0001
0100
0010
0100
0010
1000
,
0001
1000
0400
0000
0000
0300
0040
0000
,
0030
0000
0002
0000
2003
3010
0000
2000
,
0000
3002
0000
0013
0200
0000
2300
0000
,
3000
0M00
0001
0100
0001
1000
0000
0200
,
0000
0320
0000
0031
1000
0001
0200
0000
,
0300
000M
0020
0000
1030
0001
1000
0200
,
0000
0320
0000
0130
1000
0001
2000
0000
,
3000
0M00
0001
0000
0200
0000
0310
2000
,
0000
3002
0000
0013
0100
1000
0004
0000
,
1M03
0010
0100
M001
0000
10M1
0000
1000
,
010M
0010
0100
10M0
0000
1M01
0000
0001
,
M100
0010
1000
001M
0000
M110
0000
0100
,
00M1
1000
0001
M010
0000
011M
0000
0010
,
0100
1000
0001
0000
0200
0310
0000
2000
,
0000
3004
0000
0103
0020
0000
2030
0000
,
3000
00M0
0001
0010
0001
1000
0000
0020
,
0000
0230
0000
0301
1000
0001
0020
0000
,
0030
000M
0200
0000
1300
0001
1000
0020
,
0000
0000
0230
0000
0000
0000
0301
1000
0002
0000
0013
0000
0200
0000
0000
0000
,
0300
00M0
0020
0000
0032
0000
1003
0020
,
0000
4030
0000
3001
0100
0001
2000
0000
,
3000
0000
0001
0020
0000
0000
0130
2000
,
0000
0000
3010
0200
0000
0301
1000
0002
,
0000
0000
0203
0000
0320
0000
1030
0002
,
0000
0000
0013
0000
0100
0000
0010
0002
0000
0000
1003
0000
0020
0000
0130
0001
,
0000
0M0M
1000
0200
0000
0000
1300
0004
,
0000
0000
1003
0020
0000
0230
0000
0000
,
0302
0000
0000
2000
0000
0000
0000
0003
,
0020
0000
0000
0000
0000
0000
0000
0000
3030
0000
M101
0000
0000
1001
0000
0000
,
120M
0000
0000
0320
0000
0000
M032
0000
0000
0000
1003
0000
0010
0000
1000
0000
,
0M02
0000
0000
0023
0000
0000
M430
0000
0000
0000
0300
0000
0010
0000
0001
0000
,
2M00
0000
0000
3020
0000
0000
023M
0000
0000
0000
0301
0000
0100
0000
0001
0000
,
20M0
0000
0000
3200
0000
0000
0320
0000
M032
0000
0000
0000
0003
0000
0000
0000
,
M020
0000
0000
0230
0000
0000
230M
0000
0000
0000
3001
0000
0100
0000
0010
0000
,
M200
0000
0000
0302
0000
0000
40M3
0000
0000
0000
3000
0000
0002
0000
0000
0000
,
0023
0030
0220
0030
2300
3000
2002
3000
,
0203
0000
0000
0310
0000
0000
2000
0000
0000
0000
0000
0000
3004
0000
0000
0000
,
1003
0100
1000
0000
MM00
0000
0002
0000
0000
0000
1003
0000
0010
0000
1000
0000
,
00M2
0000
0000
0023
0000
0000
0130
0000
200M
0000
0000
0000
3002
0000
0000
0000
,
0013
0001
0010
0000
00MM
0000
0200
0000
0000
0000
1300
0000
0001
0000
1000
0000
,
002M
0000
0000
0230
0000
0000
0301
0000
20M0
0000
0000
0000
3000
0000
0000
0000
,
M002
0000
0000
0023
0000
0000
203M
0000
0000
3020
0000
0000
M032
0000
0000
0203
,
0000
23M0
0000
3400
0000
0300
0002
0000
,
2003
0000
3010
0200
0000
0000
0000
0000
,
0300
0000
0000
0000
0001
0000
1000
0000
0002
0000
0000
0023
0000
0000
0130
0000
,
1000
0002
0000
0200
0000
0000
0000
0000
,
0000
0000
0000
0000
0000
0000
0000
0300
0400
0000
0000
0000
0000
0000
0000
0000
0000
0000
0000
0000
0000
0000
0000
0000
0000
0000
0000
0000
0000
0000
0000
0000
0000
0000
0000
0000
0000
0000
0000
0000
0000
0000
0000
0000
0000
0000
0000
0000
0003
0000
0000
0000
0000
0000
0000
0000
0000
0000
0000
0000
0000
0000
0000
0000
,
0310
1000
0010
0000
1000
0000
0001
0000
0010
0000
0000
0010
0000
0000
0010
0000
,
0001
1000
0001
0000
0100
0000
0010
0000
0100
0000
0004
0000
0000
0000
0000
0000
,
1003
0100
0010
0001
0010
0100
1000
0001
,
4000
0004
0000
0000
0000
0000
0000
0000
0000
0000
0000
0000
3003
0000
0000
0000
,
1000
0010
1000
0010
0100
0001
0100
0001
,
1000
0100
0010
0001
4000
0000
0000
0000
,
3002
0013
0000
0220
0030
1000
1300
0000
;

//---------------dance-single - Easy----------------
#NOTES:
     dance-single:
     Ace Of Hearts (2012):
     Easy:
     5:
     0.328,0.000,0.019,0.643,0.000:
0000
0000
0000
0000
,
0000
0000
0000
0000
,
02M2
0000
0303
0000
,
M001
10M0
0M10
040M
,
0301
0001
1000
1000
,
0004
0000
0000
0003
,
0100
0100
0010
0010
,
1000
4000
0000
0000
,
3000
0000
0001
0000
0001
0000
0000
0010
,
0000
0020
0000
0000
0130
0000
0200
0000
,
0300
000M
1000
0000
1000
0000
0000
0001
,
0000
0002
0000
0000
0103
0000
0200
0000
,
0300
M000
0010
0000
0020
0000
0000
1030
,
0000
1000
0000
0000
0001
0000
0002
0000
,
0003
0M00
0010
0000
0020
0000
0000
0130
,
0000
0200
0000
0000
1300
0000
4000
0000
,
3002
0000
00M0
0103
0000
0100
0000
0000
,
0020
0000
0M00
1030
0000
1000
0000
0000
,
0002
0000
M000
0013
0000
0010
0000
0000
,
0200
0000
000M
1300
0000
1000
0000
0000
,
0002
0000
1003
0000
2000
0000
0000
3010
,
0000
0040
0000
0030
0100
0000
0200
0000
,
0300
M000
0001
0000
0001
0000
0000
1000
,
0000
2000
0000
0000
3010
0000
0020
0000
,
0030
000M
0100
0000
0200
0000
0000
0301
,
0000
0002
0000
0000
1003
0000
2000
0000
,
3000
00M0
0100
0000
0200
0000
0000
0310
,
0000
0020
0000
0000
0031
0000
0002
0000
,
0003
0000
0000
2000
0000
0000
0000
3002
,
0000
0000
0000
0203
0000
0000
0000
0302
,
0000
0000
1003
0000
2000
0000
0000
3002
,
0000
0013
0020
0031
,
0001
0M00
0000
2000
0000
0000
0000
3020
,
0000
0000
0000
0130
0000
0200
0000
0000
,
0302
0000
0000
2000
0000
0000
0000
3003
,
2002
0000
0000
3003
0000
0002
0000
0000
,
M103
0000
0000
0200
0000
0000
0310
0000
,
100M
0000
0000
4000
0000
3000
0001
0000
,
0M02
0000
0000
0203
0000
0000
0310
0000
,
100M
1000
2000
3000
,
00M1
0000
0000
0002
0000
0000
0013
0000
,
M100
0000
0000
0400
0000
0300
2000
0000
,
3002
0023
0230
2300
,
3001
0000
0000
0002
0000
0000
0003
0000
,
1000
1000
0000
MM02
0000
0000
0013
0000
,
0100
0100
0200
2300
,
3001
0001
0000
20MM
0000
0000
3010
0000
,
0100
0100
0200
0300
,
M002
0000
0000
20M3
0000
0000
302M
0000
,
0000
M230
0000
0000
0300
0000
0002
0000
,
2003
0000
0000
3200
0000
0000
0000
0000
,
0300
0010
0010
0020
,
0031
0000
0000
0002
0000
0000
0000
0000
,
0000
0000
0000
0000
0000
0000
0000
0003
0004
0000
0000
0000
0000
0000
0000
0000
0000
0000
0000
0000
0000
0000
0000
0000
0000
0000
0000
0000
0000
0000
0000
0000
0000
0000
0000
0000
0000
0000
0000
0000
0000
0000
0000
0000
0000
0000
0000
0000
0000
0000
0000
0000
0000
0000
0000
0000
0000
0000
0000
0000
0000
0000
0000
0000
,
1003
1000
0010
0010
,
0100
0100
0004
0000
,
1003
1000
0100
0100
,
0040
0000
0000
0030
,
0001
0001
1000
1000
,
0010
0010
0400
0000
,
0302
0003
0000
2000
0000
0000
3100
0000
;

//---------------dance-single - Novice----------------
#NOTES:
     dance-single:
     Ace Of Hearts (2012):
     Beginner:
     2:
     0.173,0.000,0.029,0.317,0.000:
0000
0000
0000
0000
,
0000
0000
0000
0000
,
2002
0000
3003
0000
,
1000
1000
0001
0001
,
0200
0000
0300
0000
,
0020
0000
0030
0000
,
2000
0000
3000
0000
,
0004
0000
0000
0000
,
0003
0000
1000
0000
,
1000
0000
2000
0000
,
3000
0000
0010
0000
,
0010
0000
0020
0000
,
0030
0000
0100
0000
,
0100
0000
0200
0000
,
0300
0000
0001
0000
,
0001
0000
0002
0000
,
1003
0M00
1000
0000
,
0010
000M
0010
0000
,
0100
M000
0100
0000
,
0001
00M0
0002
0000
,
0003
0000
1000
0000
,
1000
0000
2000
0000
,
3000
0000
0100
0000
,
0100
0000
0200
0000
,
0300
0000
0010
0000
,
0010
0000
0020
0000
,
0030
0000
0001
0000
,
0001
0000
0002
0000
,
0003
0000
1000
0000
,
1000
0000
0010
0000
,
0010
0000
0100
0000
,
0100
0000
0001
0000
,
0001
0000
1000
0000
,
1000
0000
0010
0000
,
0220
0000
0000
0000
,
0000
0000
0330
0000
,
0010
0000
0010
0000
,
0020
0000
0030
0000
,
1000
0000
1000
0000
,
2000
0000
3000
0000
,
0001
0000
0001
0000
,
0002
0000
0003
0000
,
0100
0000
0100
0000
,
0200
0000
0300
0000
,
0001
0000
100M
0000
,
2000
0000
3000
0000
,
1000
0000
M010
0000
,
0020
0000
0030
0000
,
020M
0300
M002
0003
,
20M0
0000
3000
0M00
,
0001
0000
0002
0000
,
0003
0000
4000
0000
,
3001
0000
0002
0000
,
0000
0000
0000
0000
,
0103
0000
0100
0000
,
0010
0000
0040
0000
,
2030
0000
3000
0000
,
0002
0000
0003
0000
,
0200
0000
0300
0000
,
0020
0000
0430
0000
,
0301
0000
2002
3003
;
