#TITLE:U;
#SUBTITLE:;
#ARTIST:Kotoko;
#TITLETRANSLIT:;
#SUBTITLETRANSLIT:;
#ARTISTTRANSLIT:;
#GENRE:;
#CREDIT:Ace Of Hearts;
#BANNER:U - bn.png;
#BACKGROUND:U - bg.png;
#LYRICSPATH:;
#CDTITLE:Ace Of Hearts.png;
#MUSIC:U.ogg;
#OFFSET:1.360;
#SAMPLESTART:61.260;
#SAMPLELENGTH:12.000;
#SELECTABLE:YES;
#BPMS:0.000=90.000,14.000=180.000,110.000=90.000,126.000=180.000;
#STOPS:;
#BGCHANGES:2.000=Material Brave Ignition OP.avi=1.000=1=0=1===CrossFade==,
99999=-nosongbg-=1.000=0=0=0 // don't automatically add -songbackground-
;
#FGCHANGES:;
#KEYSOUNDS:;

//---------------dance-single - Hard----------------
#NOTES:
     dance-single:
     Ace Of Hearts (2012):
     Hard:
     9:
     0.649,0.443,0.095,1.000,0.180:
0000
0000
0000
0000
,
0M02
0000
0013
M200
0000
0310
0001
20M0
0000
3010
0100
M004
0000
0000
0003
1000
,
0M20
0000
0230
0000
03M1
2000
0000
004M
0000
0000
0000
0000
0000
0000
0000
0000
,
0000
0000
0000
0000
3000
0130
0002
0000
2003
0000
0000
0000
3100
0000
0020
0000
,
0000
0130
1000
0002
0000
1003
0010
0200
,
0000
0000
0300
0000
0001
0100
0010
0100
0002
0000
0000
0000
1003
0000
0200
0000
,
0000
0310
0100
2000
0000
3001
0100
0020
,
0000
0000
0130
0000
0001
1000
0010
1000
0002
0000
0000
0000
0013
0000
0200
0000
,
0000
2300
0000
3002
0000
1003
0100
0010
,
0200
0000
1300
0002
0000
1003
0010
0100
,
0001
1000
0010
2000
0000
3001
0010
0100
,
0010
0001
1000
0020
0200
0030
0301
1000
,
0100
0010
0000
0200
0000
0000
1300
0002
,
0000
0000
0023
0000
0000
0030
0420
0000
0030
0000
1300
0000
0001
0000
00M1
0000
,
0100
0010
0000
2000
0000
3001
0010
0200
,
0000
0000
2300
0000
0000
3000
2004
0000
0000
0000
0000
0000
3003
0000
M000
0000
,
0200
0000
0301
2000
0000
3200
0000
0320
,
0000
0230
0000
4300
0000
0000
3000
0MM1
,
0040
0000
0000
0000
0030
0000
MM01
0000
2000
0000
0000
0000
3001
0000
0010
0100
,
0010
0001
1000
0010
0200
0000
0301
0100
,
1000
0100
0000
0002
0000
0000
1003
0200
,
0000
0000
0320
0000
0000
0030
4002
0000
0000
0000
0000
0003
3010
0000
0100
0000
,
0001
0020
M000
0230
0000
0000
1300
0002
,
0000
0000
0023
0000
0000
0030
0420
0000
0000
0000
0000
0030
2300
0000
0000
0000
,
3001
0020
0000
0032
0000
1003
0100
0040
,
0000
0000
0030
0100
0020
0000
0031
2000
,
0000
3002
0000
0400
0000
0000
0000
0003
,
0300
0000
0000
0000
0002
0000
0000
0000
2M03
0000
3200
0000
0302
0000
0103
40M0
,
0000
0000
0000
3000
0002
0000
0023
0000
M230
0000
0000
0000
000M
0000
1300
0004
,
0M00
0000
0000
0000
00M0
0003
0000
1000
0M20
0000
0000
0130
M004
0000
0000
1003
,
02M0
0000
0310
M004
0000
0000
0003
1000
002M
0000
0130
M002
0000
2003
0000
30M2
,
0000
0000
0000
0000
0M00
0000
1003
0100
1000
0000
0001
0010
0001
0010
0001
0000
2000
0000
0000
0000
0000
0000
0000
0000
00M0
0000
0000
0000
0000
0000
0000
0000
,
00M0
0000
3001
0400
0000
0000
0300
0000
,
0020
0230
0302
M000
,
M000
0000
0013
0200
0000
0000
000M
0000
,
000M
0000
1300
0001
2000
0000
3001
0020
,
0000
0230
0000
4300
0000
0000
3000
0000
,
0002
0000
0203
0000
0320
0000
0000
0130
,
0002
0000
0000
0000
0003
0000
2002
0000
0000
0000
0000
0000
3003
0000
4000
0400
,
0000
0000
0000
0000
0000
0000
0000
3000
0320
0000
0000
0000
0130
0000
2000
0000
,
0000
3001
0100
0020
0000
0130
0001
4000
,
0000
0000
3000
0100
0002
0000
0203
0000
,
1300
0000
0020
0000
0000
0030
0202
0000
0000
0000
0000
0000
0000
0000
0000
0000
,
0000
0000
0000
0000
0303
0000
0001
1000
,
0100
0020
0000
0230
0000
0300
0020
0000
,
2030
0000
3010
0004
0000
0000
0003
1000
,
0020
0000
0130
0004
0000
1000
0000
0103
,
0040
0400
0000
0000
0000
0000
0000
0030
0320
0000
0000
0000
1030
0000
0002
0000
,
0000
0013
0100
2000
0000
3001
0100
0040
,
0000
0000
0030
1000
0020
0000
0032
0000
,
0013
2000
3000
2200
0000
0000
0000
0000
,
0000
0000
0000
0000
3300
0000
0100
0001
,
0100
2000
0000
3002
0000
0103
0010
2000
,
0000
3001
0100
0020
0000
0000
0M00
0000
,
000M
0000
0M00
0000
000M
0000
0030
1000
,
0002
0000
0000
0000
0023
0000
0000
0030
0220
0000
0000
0000
0000
0000
0000
0000
,
0000
0030
1300
0000
0002
0000
0400
0000
0000
0000
0000
0000
0000
0000
0003
0000
,
0300
0010
0100
0002
0000
1003
0100
0001
,
0100
2000
0000
0002
0000
0000
0000
0000
,
0000
0000
0000
3003
0022
0003
0031
0010
,
1000
0020
0000
0034
0000
0003
0000
1000
,
0020
0000
0130
0002
0000
0000
M000
0000
,
0M00
0000
M000
0013
0100
1000
0001
0100
,
0040
4000
0000
0000
0000
0000
0000
0030
3020
0000
0000
0000
0130
0000
0002
0000
,
0000
1003
0100
0020
0000
0130
1000
0002
,
0000
0000
0000
0000
1003
0100
0010
0100
2000
0000
0000
0000
3001
0000
0200
0000
,
0000
0310
1000
0004
0000
4000
0000
0000
,
0000
0000
0000
0000
0000
3000
1003
0000
0020
0000
0000
0000
0130
0000
0002
0000
,
0000
1003
0100
2000
0000
3001
0100
0020
,
0000
0000
0000
0000
0130
0010
1000
0010
0100
0000
0001
0000
1000
0000
0100
0000
,
0010
0000
0100
0000
1000
0000
0002
0000
0000
0000
0013
0000
0100
0000
1000
0100
,
1000
0001
1000
2020
0000
0000
0000
3030
;

//---------------dance-single - Expert----------------
#NOTES:
     dance-single:
     Ace Of Hearts (2012):
     Challenge:
     11:
     0.924,0.443,0.550,1.000,0.294:
0000
0000
0000
0000
,
200M
0000
3010
M200
0000
0301
0100
2000
30MM
1000
0100
0004
MM00
0000
0003
1000
,
0M20
0000
023M
0000
M302
0020
0000
4M00
0000
0000
0000
0000
0000
0000
0000
0000
,
3000
0000
0000
0000
0000
0000
0000
0000
0033
0000
0002
0000
2200
3300
0003
0000
2002
0000
0000
0000
0003
0000
0000
0000
3001
0000
0000
0000
0202
0000
0000
0000
,
0003
0310
1000
2200
3000
0310
0001
0202
,
0003
0000
0310
0000
1000
0010
0100
0010
2000
0000
0000
0000
3001
0000
0022
0000
,
0003
0130
1000
2020
3000
0130
0001
0022
,
0003
0000
0130
0000
1000
0100
0010
0100
2000
0000
0000
0000
3001
0000
0011
0000
,
MM00
0110
00MM
2200
0300
3001
0100
0100
,
0010
0010
1000
2200
3000
0310
0001
0010
,
1000
0000
0010
0000
0001
0000
1000
0100
0010
0000
0001
0000
0021
0000
0130
0000
,
1000
1001
0101
0110
2020
0030
3001
0100
,
1000
0000
0200
0000
0000
0000
0320
0000
0000
0000
0000
0000
2000
0030
0002
0000
,
0000
3000
0020
0000
0000
0003
4000
0000
0030
0000
3010
0000
0001
0000
1000
0000
,
0010
0200
0000
0302
0000
1003
0100
0002
,
0000
2000
0003
0040
0000
3000
M030
0M00
,
00M2
0000
1003
0020
0000
2030
0000
0002
,
0000
0200
0000
0040
0000
0000
3333
0MM1
,
0401
0000
0000
0000
0300
0000
0M1M
0000
2010
0000
0000
0000
3001
0000
0010
0100
,
1000
0001
0100
0010
2010
3001
0010
0100
,
1000
0001
0100
0010
2020
0030
3001
0022
,
0003
0130
1000
2004
3000
0103
0010
1000
,
0001
0010
0100
1000
2020
3000
0130
0202
,
0300
1003
0010
1000
2200
0300
3001
0100
,
0010
1000
0001
0022
0030
1000
0100
4000
,
0003
0000
3010
0000
0110
0000
0100
0000
0102
0000
0000
0000
0020
0003
2000
0000
,
0000
0030
0200
0000
0000
3000
0004
0000
0300
0000
1003
0000
1100
0000
0100
0000
,
0110
0000
0010
0000
0001
0010
0100
0000
210M
0000
30M2
0000
2M03
0000
31M0
0004
,
M000
0000
0000
0003
M002
0000
02M3
0000
032M
0000
0000
0000
0000
0000
M031
40M0
,
0000
0000
0000
0000
0000
3000
0000
0M10
M002
0000
0000
0M13
400M
0000
0000
31M0
,
M002
0000
01M3
400M
0000
0000
3000
00M1
M200
0000
13M0
020M
0000
M320
0000
203M
,
0000
0000
3001
0000
1000
0000
0001
0010
0001
0000
1000
0100
0010
0001
0010
0100
2000
0000
0000
0000
3001
0000
0000
0000
0100
0000
0000
0000
0010
0000
0000
0000
,
1000
0001
1000
0010
0210
0301
1000
1020
,
0130
0001
0010
0100
2100
3001
0100
0010
,
1000
0100
0010
0001
0201
0310
1000
2200
,
3000
0310
0001
1000
2020
3000
0130
0002
,
0000
2000
0000
0040
0000
0000
3033
0000
,
2000
0000
3010
0100
0102
0000
2200
3300
,
1003
0000
2020
0000
0030
0000
0022
0000
0033
0000
3001
0000
0101
0000
0100
0010
,
1000
0010
0100
0001
1000
0100
0010
0001
M020
0000
0000
0000
0130
0000
200M
0000
,
0000
3001
0010
2000
300M
1000
0010
M004
,
0000
0000
0003
1000
0020
0000
0230
0000
,
0302
0020
0000
2000
0000
0000
0000
3000
,
0000
0000
0033
0000
0001
0100
0010
0100
0002
0000
0000
0000
1003
0000
0010
0000
,
0001
0020
0000
0200
0000
0030
2000
0300
,
0002
0000
3000
0000
0020
0003
4000
0000
0000
0000
0030
0000
3000
0000
0001
0000
,
0020
0000
0130
2000
0000
3001
0101
0100
,
0010
1000
0001
0100
0010
1000
0001
0010
M200
0000
0000
0000
1300
0000
0M02
0000
,
0000
1003
0100
0002
M003
0001
0100
400M
,
0000
0000
3000
0001
0020
0000
0230
0000
,
2300
0020
0000
0002
0000
0000
0000
0003
,
0000
0000
3030
0000
1000
0010
0100
0010
2000
0000
0000
0000
3001
0000
0010
0000
,
1000
0020
0000
0230
0000
1300
0010
0002
,
0000
0000
1003
0000
0100
0000
0020
0000
0000
0000
1030
0001
0010
0000
0100
0000
,
1000
0000
0001
0000
0100
0000
0220
0000
0300
0000
1030
0000
0001
0000
1000
0010
,
0100
0001
2002
3003
2100
3001
0100
0010
,
1000
0001
0010
0400
0000
1300
0001
0100
,
0010
1000
0001
0202
0003
0310
0001
0010
,
2000
3200
0000
0002
0003
1300
0001
0010
,
0110
0100
1000
0001
0022
0003
0130
0001
,
0100
2000
0000
3040
0000
0130
0101
0001
,
1000
0100
0010
0002
0000
1003
0010
0100
,
0001
1000
0100
0220
0300
0031
1000
1000
,
0020
0000
1030
0001
1000
0100
0010
0100
200M
0000
0000
0000
30M1
0000
0200
0000
,
0000
0301
0100
200M
0000
3001
0010
2M00
,
0000
0000
3001
0000
0010
0100
1000
0100
0010
0000
0100
0000
1000
0000
0002
0000
,
0000
0000
1003
0000
0010
0000
1000
0000
0001
0000
0010
0001
0010
0100
0010
0100
,
1000
0001
1000
0001
1000
0010
0100
0001
20M0
0000
0000
0000
3010
0000
M200
0000
,
0000
0301
0010
200M
0000
3001
0100
20M0
,
0000
3001
0100
0010
101M
1000
10M1
0001
,
0M11
0000
0010
0000
0100
0000
22MM
0000
0300
0000
3001
0000
01M1
0000
0100
0010
,
100M
0001
0010
M22M
0000
0000
0000
0330
;

//---------------dance-single - Medium----------------
#NOTES:
     dance-single:
     Ace Of Hearts (2012):
     Medium:
     7:
     0.485,0.000,0.000,1.000,0.047: // measure 1
0000
0000
0000
0000
,  // measure 2
0000
0000
0000
0000
,  // measure 3
0000
0000
0000
0000
,  // measure 4
0000
0000
0000
0000
0002
0000
1003
0200
,  // measure 5
0000
0000
1300
0002
0000
2003
0000
3020
,  // measure 6
0000
0030
0200
0000
0302
0000
0103
0020
,  // measure 7
0000
0000
0130
0002
0000
1003
0000
0200
,  // measure 8
0000
0000
0320
0000
0032
0000
1003
0010
,  // measure 9
0000
1000
0000
0002
0000
0000
2003
0000
,  // measure 10
3200
0000
1300
0002
0000
0000
1003
0000
,  // measure 11
0020
0000
1030
0002
0000
1003
0100
0000
,  // measure 12
1000
0001
1000
0000
0010
0000
1000
0000
,  // measure 13
0001
0200
0000
0320
0000
0000
1030
0001
,  // measure 14
0000
0020
0000
0430
0000
0310
0001
0000
,  // measure 15
1000
0001
0000
0200
0000
0000
0310
2000
,  // measure 16
0000
3002
0000
4003
0000
0000
3000
0000
,  // measure 17
0020
0000
1030
0002
0000
0203
0000
0320
,  // measure 18
0000
2030
0000
3004
0000
0003
0000
1000
,  // measure 19
0040
0000
0030
1000
0002
0000
1003
0020
,  // measure 20
0000
0000
0030
0200
,  // measure 21
0301
2000
0000
3200
0000
0000
0310
0002
,  // measure 22
0000
2003
0000
3400
0000
0300
0020
0000
,  // measure 23
0031
2000
0000
3020
0000
0000
0130
0002
,  // measure 24
0000
2003
0000
3400
0000
0300
0020
0000
,  // measure 25
0130
2000
0000
3002
0000
0000
1003
0040
,  // measure 26
0000
0000
0030
1000
0002
0000
0013
0200
,  // measure 27
0000
2300
0000
3004
0000
0000
0000
0000
,  // measure 28
0003
0000
0000
0000
2000
0000
0000
0000
3020
0000
0230
0000
0302
0000
1003
0400
,  // measure 29
0000
0000
0000
0300
2000
0000
3002
0000
0023
0000
0000
0000
0000
0000
0130
4000
,  // measure 30
0000
0000
0000
0000
0000
3000
0000
0001
0200
0000
0000
0301
4000
0000
0000
3001
,  // measure 31
0020
0000
0130
4000
0000
0000
3000
0001
0200
0000
0310
2000
0000
3002
0000
2003
,  // measure 32
0000
0000
0000
3000
0002
0000
0023
0000
0230
0000
0000
0000
0000
0000
0000
0000
,  // measure 33
0000
0000
1300
0004
0000
0000
0003
0000
,  // measure 34
2000
3020
0230
0000
,  // measure 35
0000
0000
0301
2000
0000
0000
0000
0000
,  // measure 36
0000
0000
3001
0000
0020
0000
0130
2000
,  // measure 37
0000
3001
0000
0400
0000
0000
0300
0000
,  // measure 38
0020
0000
2030
0000
3002
0000
0000
1003
,  // measure 39
0200
0000
0000
0020
0000
0000
0000
0000
,  // measure 40
0000
0000
0330
0000
0020
0000
0031
2000
,  // measure 41
0000
0000
3001
0200
0000
0000
0310
4000
,  // measure 42
0000
0000
3000
0001
0200
0000
0320
0000
,  // measure 43
1030
0002
0000
0020
0000
0000
0000
0000
,  // measure 44
0000
0000
0033
0002
,  // measure 45
1003
0200
0000
0320
0000
0000
0230
0000
,  // measure 46
2300
0000
3001
0400
0000
0000
0300
0010
,  // measure 47
2000
0000
3001
0040
0000
0000
0000
0000
,  // measure 48
0030
0001
2000
0000
3020
0000
0130
0002
,  // measure 49
0000
0000
1003
0200
0000
0000
0310
0004
,  // measure 50
0000
0000
0003
1000
0020
0000
0230
0000
,  // measure 51
0301
2000
0000
0020
0000
0000
0000
0000
,  // measure 52
0000
0000
3030
2000
,  // measure 53
3001
0020
0000
0230
0000
0000
1300
0002
,  // measure 54
0000
0000
0103
0020
0000
0000
0000
0000
,  // measure 55
0000
0000
0000
0000
0000
0000
0030
1000
,  // measure 56
0002
0023
0230
0000
,  // measure 57
0000
0000
1300
0004
0000
0000
0000
0000
,  // measure 58
0003
1000
0000
0020
0000
1030
0001
0000
,  // measure 59
0010
0200
0000
2300
0000
0000
0000
0000
,  // measure 60
0000
0000
3000
0002
,  // measure 61
1003
0010
0000
0400
0000
0300
0000
0001
,  // measure 62
2000
0000
3010
0200
0000
0000
0000
0000
,  // measure 63
0000
0000
0000
0000
,  // measure 64
0000
0000
0300
0000
0002
0000
1003
0200
,  // measure 65
0000
0000
0310
0002
0000
0000
1003
0020
,  // measure 66
0000
0000
1000
0000
,  // measure 67
0100
0000
1000
0000
,  // measure 68
0130
0000
0000
0010
0200
0000
0301
2000
,  // measure 69
0000
0000
3001
0020
0000
0230
0000
2300
,  // measure 70
0000
0000
3001
0100
,  // measure 71
0010
0000
1000
0002
0000
0103
0010
0000
,  // measure 72
0100
0000
0001
2000
0000
0000
0000
3000
;

//---------------dance-single - Easy----------------
#NOTES:
     dance-single:
     Ace Of Hearts (2012):
     Easy:
     5:
     0.240,0.000,0.009,0.341,0.000: // measure 1
0000
0000
0000
0000
,  // measure 2
0000
0000
0000
0000
,  // measure 3
0000
0000
0000
0000
,  // measure 4
0000
0000
0000
0000
1000
0000
0000
1000
,  // measure 5
0000
0000
0000
0001
0000
0000
0000
0001
,  // measure 6
0000
0000
0000
0000
0010
0000
0000
0010
,  // measure 7
0000
0000
0000
0100
0000
0000
0000
0100
,  // measure 8
0000
0000
0000
0000
1000
0000
0000
1000
,  // measure 9
0000
1000
0000
2000
0000
0000
0000
0000
,  // measure 10
3000
0000
0001
0000
,  // measure 11
0001
0000
0100
0000
,  // measure 12
0100
0000
0000
0000
,  // measure 13
0010
0000
0000
0020
0000
0000
0000
1030
,  // measure 14
0000
1000
0000
4000
0000
3000
0000
0000
,  // measure 15
0001
0000
0000
0001
0000
0000
0000
0010
,  // measure 16
0000
0010
0000
0040
0000
0000
0030
0000
,  // measure 17
0100
0000
0000
0200
0000
0000
0000
1300
,  // measure 18
0000
0000
0000
4000
0000
3000
0000
0000
,  // measure 19
0004
0000
0003
0000
0100
0000
0000
0200
,  // measure 20
0000
0000
0300
0000
,  // measure 21
0010
0000
0000
0020
0000
0000
0000
0130
,  // measure 22
0000
0100
0000
0400
0000
0300
0000
0000
,  // measure 23
0001
0000
0000
0002
0000
0000
0000
1003
,  // measure 24
0000
1000
0000
4000
0000
3000
0000
0000
,  // measure 25
0010
0000
0000
0020
0000
0000
0000
0030
,  // measure 26
0000
0000
0000
0000
1000
0000
0000
1000
,  // measure 27
0000
0000
0000
4000
0000
0000
0000
0000
,  // measure 28
3000
0000
0001
0001
,  // measure 29
0001
0100
0200
0300
,  // measure 30
0400
0300
0010
0010
,  // measure 31
1000
1000
0001
0001
,  // measure 32
1000
1000
0020
0000
,  // measure 33
0000
0000
0000
0430
0000
0000
0000
0000
,  // measure 34
0301
0001
0002
0000
,  // measure 35
0000
0000
0000
2003
0000
0000
0000
0000
,  // measure 36
0000
0000
0000
0000
3100
0000
0000
0010
,  // measure 37
0000
0010
0000
0040
0000
0000
0000
0000
,  // measure 38
0130
0100
0200
0000
,  // measure 39
2300
0000
0000
0002
0000
0000
0000
0000
,  // measure 40
0000
0000
3003
0000
2000
0000
0000
3200
,  // measure 41
0000
0000
0000
0310
0000
0010
0000
0040
,  // measure 42
0000
0000
0000
0030
0001
0000
0001
0000
,  // measure 43
0002
0000
0000
2000
0000
0000
0000
0000
,  // measure 44
0000
0000
3003
1000
,  // measure 45
1000
0000
0000
0020
0000
0000
0130
0000
,  // measure 46
0100
0000
0000
0400
0000
0000
0300
0000
,  // measure 47
0001
0000
0000
0004
0000
0000
0000
0000
,  // measure 48
0003
0000
0100
0000
0200
0000
0000
0320
,  // measure 49
0000
0000
0000
1030
0000
1000
0000
4000
,  // measure 50
0000
3000
0010
0010
,  // measure 51
0020
0000
0000
0200
0000
0000
0000
0000
,  // measure 52
0000
0000
0330
0100
,  // measure 53
0100
0000
0000
0002
0000
0000
0000
2003
,  // measure 54
0000
0000
0000
0020
0000
0000
0000
0000
,  // measure 55
0000
0000
0000
0000
0000
3030
0000
0000
,  // measure 56
0010
0010
0020
0000
,  // measure 57
0000
0130
0000
0400
0000
0000
0000
0000
,  // measure 58
0300
0000
0000
0002
0000
0000
1003
0000
,  // measure 59
1000
0000
0000
0200
0000
0000
0000
0000
,  // measure 60
0000
0000
0300
0010
,  // measure 61
0010
0000
0000
0004
0000
0000
0003
0000
,  // measure 62
2000
0000
0000
0200
0000
0000
0000
0000
,  // measure 63
0000
0000
0000
0000
,  // measure 64
0000
0000
3300
0000
0200
0000
0000
0310
,  // measure 65
0000
0000
0000
0001
0000
0001
0000
0004
,  // measure 66
0000
0000
0000
0000
,  // measure 67
0000
0000
0000
0000
,  // measure 68
0003
0000
0000
0000
1000
0000
0000
1000
,  // measure 69
0000
0000
0000
0010
0000
0010
0000
0020
,  // measure 70
0000
0000
1030
1000
,  // measure 71
1000
0000
0000
0002
0000
0000
0103
0000
,  // measure 72
0100
0000
0000
0220
0000
0000
0000
0330
;

//---------------dance-single - Novice----------------
#NOTES:
     dance-single:
     Ace Of Hearts (2012):
     Beginner:
     3:
     0.175,0.000,0.038,0.313,0.000: // measure 1
0000
0000
0000
0000
,  // measure 2
0000
0000
0000
0000
,  // measure 3
0000
0000
0000
0000
,  // measure 4
0000
0000
0001
0000
,  // measure 5
0001
0000
0001
0000
,  // measure 6
0000
0000
1000
0000
,  // measure 7
1000
0000
1000
0000
,  // measure 8
0000
0000
0020
0000
,  // measure 9
0000
0000
0030
0000
,  // measure 10
0000
0000
0100
0000
,  // measure 11
0000
0000
0100
0000
,  // measure 12
0000
0000
0000
0000
,  // measure 13
0001
0000
0001
0000
,  // measure 14
0002
0000
0003
0000
,  // measure 15
0100
0000
0100
0000
,  // measure 16
0200
0000
0300
0000
,  // measure 17
0010
0000
0010
0000
,  // measure 18
0000
0000
1000
0000
,  // measure 19
1000
0000
2000
0000
,  // measure 20
0000
0000
3000
0000
,  // measure 21
0001
0000
0001
0000
,  // measure 22
0002
0000
0003
0000
,  // measure 23
0010
0000
0010
0000
,  // measure 24
0020
0000
0030
0000
,  // measure 25
0100
0000
0200
0000
,  // measure 26
0300
0000
1000
0000
,  // measure 27
1000
0000
4000
0000
,  // measure 28
3000
0000
0001
0000
,  // measure 29
0001
0000
2000
3000
,  // measure 30
4000
3000
0020
0030
,  // measure 31
0020
0030
0100
0000
,  // measure 32
0200
0300
0002
0000
,  // measure 33
0003
0000
0001
0000
,  // measure 34
1000
0000
2000
0000
,  // measure 35
3000
0000
0020
0000
,  // measure 36
0030
0000
0100
0000
,  // measure 37
0200
0000
0300
0000
,  // measure 38
0001
0000
0002
0000
,  // measure 39
0003
0000
2002
0000
,  // measure 40
3003
0000
1000
0000
,  // measure 41
1000
0000
2000
0000
,  // measure 42
3000
0000
0100
0000
,  // measure 43
0100
0000
0220
0000
,  // measure 44
0000
0000
0330
0000
,  // measure 45
0010
0000
0010
0000
,  // measure 46
0020
0000
0030
0000
,  // measure 47
0001
0000
0004
0000
,  // measure 48
0003
0000
0100
0000
,  // measure 49
0100
0000
0200
0000
,  // measure 50
0300
0000
0001
0000
,  // measure 51
0001
0000
2002
0000
,  // measure 52
0000
0000
3003
0000
,  // measure 53
1000
0000
1000
0000
,  // measure 54
0010
0000
0020
0000
,  // measure 55
0000
0000
0030
0000
,  // measure 56
1000
0000
2000
0000
,  // measure 57
3000
0000
0400
0000
,  // measure 58
0300
0000
0010
0000
,  // measure 59
0010
0000
0020
0000
,  // measure 60
0000
0000
0030
0000
,  // measure 61
0001
0000
0001
0000
,  // measure 62
1000
0000
2000
0000
,  // measure 63
0000
0000
0000
0000
,  // measure 64
0000
3000
0001
0000
,  // measure 65
0001
0000
0010
0000
,  // measure 66
0040
0000
0000
0000
,  // measure 67
0000
0000
0000
0000
,  // measure 68
0030
0000
0100
0000
,  // measure 69
0100
0000
1000
0000
,  // measure 70
2000
0000
3001
0000
,  // measure 71
0001
0000
0002
0000
,  // measure 72
0003
0000
0000
0000
2002
0000
0000
3003
;
