#TITLE:Through the Fire and Flames;
#SUBTITLE:(Nightcore Mix);
#ARTIST:Dragonforce;
#TITLETRANSLIT:;
#SUBTITLETRANSLIT:;
#ARTISTTRANSLIT:;
#GENRE:Nightcore;
#CREDIT:Ace Of Hearts;
#BANNER:Through the Fire and Flames (Nightcore Mix) - bn.png;
#BACKGROUND:Through the Fire and Flames (Nightcore Mix) - bg.jpg;
#LYRICSPATH:;
#CDTITLE:Ace Of Hearts.png;
#MUSIC:Through the Fire and Flames (Nightcore Mix).ogg;
#OFFSET:-0.060;
#SAMPLESTART:67.000;
#SAMPLELENGTH:35.000;
#SELECTABLE:YES;
#BPMS:0.000=230.000,732.000=115.000,766.000=196.000,901.000=222.000,909.000=230.000,1165.000=115.400,1193.000=230.000,1321.000=228.600;
#STOPS:;
#BGCHANGES:;
#FGCHANGES:;
#KEYSOUNDS:;

//---------------dance-single - Expert----------------
#NOTES:
     dance-single:
     Ace Of Hearts (2012):
     Challenge:
     17:
     1.000,0.806,0.201,0.599,1.000:
0000
0000
0000
0000
,
1MM1
0001
0010
0100
1000
0001
0100
0010
,
1000
0000
0001
0000
0010
0000
0100
0000
0010
0000
0001
0000
10M0
0100
001M
0100
,
10M0
0001
0100
0010
1000
0001
0010
0001
,
1000
0010
0100
0010
1000
0001
0010
0100
,
2200
00M0
000M
00M0
000M
000M
00M0
000M
,
00M0
000M
000M
00M0
000M
00M0
000M
33M0
,
1001
0001
0100
0010
1000
0010
0100
0001
,
2002
0M00
00M0
0M00
00M0
00M0
0M00
30M3
,
1100
0100
0010
0001
1000
0010
0100
0010
,
1000
0000
0001
0000
0010
0000
0100
0000
0010
0000
0001
0000
001M
0100
10M0
0100
,
001M
0001
1000
0010
0100
0010
1000
0001
,
0010
0100
1000
0100
0010
0001
1000
0010
,
0220
000M
M000
M000
000M
M000
000M
000M
,
M000
000M
M000
000M
M000
000M
000M
M330
,
0101
0001
1000
0100
0010
0001
1000
0001
,
100M
0100
1000
0000
0MM1
0000
0000
0000
11M1
0000
0000
0000
MMMM
0000
0000
0000
,
1000
0100
1000
0100
0010
0001
0010
0001
1000
0010
1000
0010
0100
0001
0100
0001
,
1000
0001
1000
0001
0100
0010
0100
0010
1000
0001
1000
0001
0010
0100
0010
0100
,
1000
0100
1000
0100
0010
0001
0010
0001
1000
0010
1000
0010
0100
0001
0100
0001
,
1000
0001
1000
0001
0010
0001
0010
0001
1000
0100
1000
0100
0010
0001
0010
0001
,
1000
0010
1000
0010
0100
0001
0100
0001
1000
0001
1000
0001
0010
0001
0010
0001
,
1000
0100
1000
0100
0010
0001
0010
0001
1000
0010
1000
0010
0100
0001
0100
0001
,
1000
0100
1000
0100
0010
0001
0010
0001
1000
0001
1000
0001
0100
0001
0100
0001
,
1000
0010
1000
0010
1000
0000
0M01
0010
0100
0000
100M
0000
0100
0010
M001
0010
,
0100
1000
0100
1000
0001
0100
0001
0100
0010
1000
0010
1000
0001
1000
0001
1000
,
0010
0100
0010
0100
0001
0100
0001
0100
0010
1000
0010
1000
0001
0010
0001
0010
,
0100
1000
0100
1000
0001
0100
0001
0100
0010
0100
0010
0100
0010
1000
0010
1000
,
0001
0010
0001
0010
0100
0010
0100
0010
0100
1000
0100
1000
0001
0100
0001
0100
,
0010
1000
0010
1000
0001
1000
0001
1000
0001
0010
0001
0010
0100
1000
0100
1000
,
0001
0100
0001
0100
0010
1000
0010
1000
0001
0010
0001
0010
0100
1000
0100
1000
,
0001
0100
0001
0100
0010
1000
0010
1000
0001
0010
0001
0010
0100
1000
0100
1000
,
0001
0010
0001
0010
0100
1000
0100
1000
0001
0100
0001
0100
0010
1000
0010
1000
,
0M01
M000
0M10
010M
20M0
000M
3M01
01M0
,
M020
000M
2M30
000M
30M0
0M00
M010
010M
,
01M2
M000
1M03
02M0
M000
032M
M000
0M32
,
M000
0M00
00M3
M000
000M
0M00
10M0
0M00
,
102M
0M00
M130
000M
00M2
M000
2M03
00M0
,
320M
00M0
031M
M002
0M00
00M0
2M03
00M0
,
301M
0100
0010
0100
0001
0100
0001
0100
0010
0000
2000
0000
3001
0010
0001
0010
,
0100
0010
0100
0010
0001
0010
0100
1000
0100
0010
0001
0010
0100
1000
0001
1000
,
0002
0000
1003
0100
0010
0001
0010
0001
1000
0000
0002
0000
1003
0100
0010
0001
,
0010
0001
1000
0010
1000
0010
0100
0000
0010
0000
2000
0000
3001
1000
0100
0010
,
0100
0010
0001
0010
0001
0010
0100
1000
0100
1000
0001
0100
0001
0100
0010
1000
,
0010
1000
0001
0010
0001
0010
0100
1000
0100
1000
0001
0100
0001
0100
0010
1000
,
0010
0000
0200
0000
0301
1000
0001
1000
0001
0010
0001
0010
0100
1000
0100
1000
,
0001
0000
0200
0000
0310
1000
0010
1000
0001
0010
0001
0010
0100
0010
0100
0010
,
0001
0000
2000
0000
3010
0100
0010
0100
0001
0100
0001
0100
0010
1000
0010
1000
,
0001
0000
0200
0000
0301
0100
0010
1000
0010
0100
0001
1000
0001
0010
0100
1000
,
0001
0000
2000
0000
3001
0100
0001
0100
0001
1000
0001
1000
0010
0100
0010
0100
,
0001
1000
0001
1000
0100
0010
0100
0010
0001
0000
2000
0000
304M
0000
000M
0000
,
0130
0000
0001
0000
1000
0100
1000
0000
0010
0000
0100
0000
0001
1000
0001
0000
,
0010
0000
0001
0000
1000
0010
1000
0000
0001
0010
0100
1000
0100
0010
0001
1000
,
0001
0000
0100
0000
0010
0100
0010
0000
1000
0000
0001
0000
M400
0000
034M
0000
,
1030
0001
0010
0001
2000
3020
0230
0302
,
1003
0100
0010
0001
0010
0100
1000
0001
0100
0010
1000
0010
0100
0001
1000
0001
,
1000
1100
00MM
0110
MM00
0011
0MM0
0001
,
1000
0000
0010
0100
0010
1000
0010
1000
0001
0010
0001
0010
0100
1000
0100
1000
,
0001
0100
0001
0100
0010
1000
0010
1000
0001
1000
0001
1000
0100
1000
0100
1000
,
0001
0010
0001
0010
0100
0010
0100
0010
0001
1000
0001
1000
0010
0100
0010
0100
,
0001
0100
0010
1000
0010
0100
0001
1000
0001
0010
0100
1000
0100
0010
0001
1000
,
0001
0100
0001
0100
0010
1000
0010
1000
0001
0010
0001
0010
0100
1000
0100
1000
,
0001
1000
0001
1000
0010
0100
0010
0100
0001
1000
0001
1000
0001
0100
0001
0100
,
0020
0000
100M
010M
100M
100M
010M
103M
,
10M0
0001
1000
0000
2200
000M
3300
0000
0220
M000
0330
0000
0022
0M00
0033
0000
,
2001
0000
3010
0000
0100
0001
0100
0000
0010
0000
1000
0000
0001
0010
0001
0000
,
0010
0000
0100
0000
1000
0100
1000
0000
0001
0000
0100
0000
0010
0100
0010
0000
,
1000
0000
0001
0000
0010
0100
0010
0000
0001
0000
1000
0000
0001
0100
0001
0000
,
1000
0000
0001
0010
0001
0000
1000
0000
0001
0010
0100
0010
M004
0000
M000
0000
,
1003
0000
0010
0000
1000
0001
1000
0000
0100
0000
1000
0000
0001
0010
0001
0000
,
1000
0100
0010
0100
1000
0000
0001
0010
0100
0010
0001
0000
1000
0000
0001
0000
,
1000
0010
0100
0010
1000
0000
0001
0100
0010
0100
0001
1000
0001
0010
0100
1000
,
0100
0010
0100
0010
0001
1000
0001
1000
0010
1000
0010
1000
0001
0100
0001
0100
,
0010
0000
1000
0000
0001
0010
0001
0000
1000
0000
0010
0000
1000
0010
0100
0010
,
1000
0000
0001
0000
0010
0100
0010
0000
0001
0000
1000
0000
0001
0100
0010
0100
,
0001
0000
1000
0000
0100
0010
0100
0000
1000
0000
0001
0000
1000
0100
0010
0100
,
1000
0000
0001
0000
0100
0010
0100
0000
0001
0000
1000
0000
0100
0010
0100
0000
,
1000
0100
1000
0100
0010
0001
0010
0001
1000
0010
1000
0010
0100
0001
0100
0001
,
1000
0100
1000
0100
0010
0100
0010
0100
1000
0001
1000
0001
0100
0001
0100
0001
,
1000
0100
0010
0001
0010
0100
1000
0001
0010
0100
1000
0100
0010
0001
1000
0001
,
0020
0100
0001
0100
,
0031
0000
1000
0000
0010
0100
0010
0000
1000
0000
0001
0000
1000
0100
1000
0000
,
0001
0000
0100
0000
0010
0100
0010
0000
1000
0000
0001
0000
0010
0100
0010
0000
,
0001
0000
1000
0000
0010
1000
0010
0000
0100
0000
0001
0000
1000
0100
1000
0000
,
0001
0000
0100
0000
0010
1000
0010
0000
0100
0000
0001
0000
1000
0100
1000
0000
,
0001
0000
0010
0000
0100
0010
0100
0010
0001
1000
0001
1000
0010
0100
0010
0100
,
0001
0100
0001
0100
0010
1000
0010
1000
0001
0010
0001
0010
0100
1000
0100
1000
,
0001
0100
0010
1000
0010
0100
0001
1000
0001
0010
0100
1000
0100
0010
0001
1000
,
0001
0100
0001
0100
0010
1000
0010
1000
0001
0010
0100
1000
0100
0010
0001
1000
,
0001
0000
0100
0000
0010
1000
0010
0000
0100
0000
0001
0000
1000
0100
1000
0000
,
0001
0000
0010
0000
0001
1000
0001
0000
0100
0000
0010
0000
1000
0001
1000
0000
,
0010
0000
0100
0000
0001
1000
0001
0000
0010
0000
0100
0000
1000
0100
1000
0000
,
0001
0000
0100
0000
0010
0100
0010
0000
1000
0000
0001
0000
1000
0100
1000
0100
,
0010
0001
0010
0100
1000
0001
0100
0010
1000
0010
0100
0001
1000
0001
1000
0100
,
001M
M000
00M2
0M00
20M3
0M00
320M
00M0
,
M310
0001
0010
0001
1000
0000
0001
0000
0100
0000
0010
0000
2000
0000
3002
0000
,
0103
0020
0000
1030
0001
1000
0040
0000
,
0130
0001
1000
0100
0010
0100
1000
0001
,
0100
0010
2000
0002
0000
0000
0000
3000
,
0013
0100
1000
0001
0100
0010
0100
0001
,
1000
0100
0010
0100
00MM
1000
0001
0100
,
0010
M000
0010
0000
1000
0000
0001
0M00
0001
0000
0010
0000
0100
0000
1000
0000
,
0001
0010
0100
1000
0100
0010
0001
1000
0001
1000
0001
1000
0001
0100
0010
1000
,
0001
0100
0002
0000
0000
0000
0013
0000
0100
0000
1000
0000
0001
0000
0001
0000
,
1000
0100
2000
0000
0000
0000
3001
0000
0100
0000
0010
0000
1000
0000
1000
0000
,
0020
0000
0130
0010
0100
0010
1000
0001
1000
0001
0010
0100
0010
0100
0020
0000
,
0031
0010
0100
1000
0100
1000
0100
0010
0002
0000
0000
0000
0000
0000
0000
0000
,
2003
0000
3001
0010
0100
1000
0100
0010
0002
0000
1003
0100
0010
0001
0010
0100
,
2000
0000
3001
0100
0010
1000
0010
0100
0002
0000
1003
0010
0100
0001
0100
0010
,
1000
0001
1000
0001
0010
0100
0010
0100
1000
0001
1000
0001
0010
0100
0010
0100
,
200M
0000
0000
0000
0000
0000
0000
0000
0000
0000
0000
0000
3M20
0000
0000
0000
0000
0000
0000
0000
0000
0030
0000
0000
011M
0000
0000
0000
0000
0000
0000
0000
M101
0000
0000
0000
0000
0000
0000
0000
10M1
0000
0000
0000
0000
0000
0000
0000
,
202M
0M00
000M
0M00
303M
M000
00M0
000M
,
0M00
M000
00M0
000M
0M00
M000
00M0
000M
,
1002
0000
0013
0100
2000
0000
3001
0100
,
0020
0000
2030
0000
3000
0000
0001
0010
,
0200
0000
1300
0000
1001
0000
0002
0200
,
0000
0000
0000
0000
0303
0000
0001
1000
,
0200
0000
0320
0000
0032
0000
1003
0100
,
0010
0000
0010
0000
0100
0000
1000
0100
1000
0100
0010
0001
0010
0001
1000
0001
,
4M00
0040
0000
0000
0M00
0000
0000
0000
0M00
0000
0000
0000
0M00
0000
3030
0000
,
02M2
0000
00M0
0000
00M0
0000
00M0
0303
,
0001
1000
0001
1000
0100
0010
0100
0010
0001
0000
2000
0000
3001
0010
0001
0010
,
0100
1000
0100
1000
0001
1000
0001
1000
0010
0000
0200
0000
0301
1000
0001
1000
,
0100
0010
0100
0010
0001
1000
0001
1000
0100
0000
0020
0000
0031
1000
0001
1000
,
0100
0010
0100
0010
0100
1000
0100
1000
0001
0000
2000
0000
3010
0100
0010
0100
,
0001
0100
0001
0100
0010
1000
0010
1000
0001
0000
0020
0000
0130
1000
0100
1000
,
0001
0000
0200
0000
0310
1000
0010
1000
0001
0010
0001
0010
0100
1000
0100
1000
,
0001
0000
0020
0000
0031
1000
0001
1000
0100
0010
0100
0010
0001
1000
0001
1000
,
0010
0000
2000
0000
3001
0010
0100
1000
0100
0010
0001
1000
0M40
0000
0M00
0000
,
1030
0001
1000
0001
0010
0001
0010
0001
1000
0001
1000
0001
0100
0010
0100
0010
,
1000
0010
1000
0010
0100
0010
0100
0010
1000
0001
1000
0001
0010
0100
0010
0100
,
4000
0004
0000
0000
0000
0000
0000
0000
0000
0000
0000
0000
0000
0000
3003
0000
,
M011
0000
0M10
0000
010M
0000
11M0
0000
1M00
0000
00M1
0000
,
1000
0010
1000
0010
0100
0001
0100
0001
1000
0100
1000
0100
0010
0001
0010
0001
,
1000
0001
1000
0001
0010
0100
0010
0100
1000
0100
1000
0100
1000
0001
1000
0001
,
0020
0000
M001
M100
M001
M001
M100
M130
,
11M0
0000
2M02
3003
M202
0303
022M
0330
,
0010
0000
1000
0000
0001
0010
0001
0000
1000
0000
0001
0000
0010
0001
0010
0000
,
0100
0000
1000
0000
0001
0100
0001
0000
1000
0000
0100
0000
0010
0100
0010
0000
,
0001
0000
1000
0000
0010
1000
0010
0000
0100
0000
0001
0000
1000
0010
1000
0000
,
0001
0010
0001
0010
0100
1000
0100
1000
0001
1000
0001
1000
0M04
0000
0M00
0000
,
0013
0000
0100
0000
1000
0001
1000
0000
0010
0000
0100
0000
0001
0100
0001
0000
,
1000
0000
0100
0000
0010
0100
0010
0000
0001
1000
0001
0000
4M00
0000
0M00
0000
,
3001
0010
0100
0010
0001
0000
1000
0000
0001
0000
0010
0000
0001
1000
0001
1000
,
0001
0010
0001
0010
0100
1000
0100
1000
0001
1000
0001
1000
0010
0100
0010
0100
,
0001
0000
1000
0000
0100
0010
0100
0000
1000
0000
0001
0000
0100
0010
0100
0000
,
0001
0000
1000
0000
0001
0010
0001
0000
1000
0000
0010
0000
0100
0001
0100
0000
,
0010
0000
1000
0000
0001
0010
0001
0000
1000
0000
0010
0000
0100
0001
0100
0000
,
0010
0000
1000
0000
0001
1000
0001
0000
0010
0000
0100
0000
1000
0100
1000
0000
,
0001
0100
0001
0100
0010
1000
0010
1000
0001
0010
0001
0010
0100
1000
0100
1000
,
0001
0100
0001
0100
0010
1000
0010
1000
0001
1000
0001
1000
0100
0010
0100
0010
,
0001
0010
0100
0010
0001
1000
0001
1000
0001
0100
0010
0100
0001
1000
0001
1000
,
0004
1000
0100
0010
,
1003
0000
0010
0000
0100
0001
0100
0000
0010
0000
1000
0000
0001
0010
0001
0000
,
1000
0000
0010
0000
0100
0010
0100
0000
0001
0000
1000
0000
0100
0010
0100
0000
,
1000
0000
0001
0000
0100
0010
0100
0000
0001
0000
1000
0000
0001
0010
0001
0000
,
1000
0000
0100
0000
0010
0001
0010
0000
0100
0000
1000
0000
0001
0100
0001
0000
,
1000
0010
1000
0010
0100
0010
0100
0010
1000
0010
1000
0010
0100
0001
0100
0001
,
1000
0001
1000
0001
0010
0001
0010
0001
1000
0100
1000
0100
0010
0100
0010
0100
,
1000
0100
0010
0001
0010
0100
1000
0001
1000
0010
0100
0001
0100
0010
1000
0001
,
2000
0000
00M0
0000
3001
0010
0100
1000
0100
0010
0001
0010
0100
1000
0100
0010
,
0001
0000
1000
0000
0010
0100
0010
0000
1000
0000
0001
0000
0010
0100
0010
0000
,
0001
0000
1000
0000
0001
0100
0001
0000
1000
0000
0100
0000
0010
0001
0010
0000
,
0100
0000
1000
0000
0001
0100
0001
0000
1000
0000
0100
0000
0010
0100
0010
0000
,
0001
0000
1000
0000
0010
1000
0010
0000
0100
0000
0001
0000
1000
0100
1000
0100
,
0010
0001
0010
0001
1000
0001
1000
0001
0100
0010
0100
0010
1000
0001
1000
0001
,
01M0
0M02
20M3
320M
,
M310
0001
1000
0010
0100
0001
1000
0001
,
0100
0002
0000
1003
0100
0010
0M04
0M00
,
1003
0010
0010
0100
0001
1000
0100
0010
,
0100
1000
0001
2000
0M00
0000
000M
0000
,
3001
0001
0010
0200
0000
0310
0001
1000
,
0010
0000
0100
0000
0010
0000
1000
0000
0001
0000
1000
0100
0010
0100
1000
0000
,
0001
0100
0010
0100
0001
0000
1000
0000
0001
0000
0010
0100
1000
0100
0010
0000
,
0001
0010
0001
0010
0100
1000
0100
1000
00M1
0000
00M1
0000
1M00
0000
1M00
0000
,
0010
0100
0010
0100
0001
1000
0001
1000
0010
0000
0100
0000
0001
0000
1000
0000
,
0001
0010
0001
0010
0100
1000
0100
1000
0001
0000
0100
0000
0010
0000
0100
0000
,
0001
1000
0001
1000
0100
0010
0100
0010
0001
0000
1000
0000
0010
0100
0001
0100
,
0010
0000
1000
0000
0001
0010
0100
0010
0002
0000
0000
0000
0M00
0000
0000
0000
,
20M3
0000
3100
0010
0001
0010
0100
1000
0001
0010
0100
1000
0002
0000
0203
0000
,
0320
0000
1030
0010
0100
0001
0100
0010
1000
0001
0010
0100
2000
0000
0000
0000
,
3001
0100
0001
0100
0010
1000
0010
1000
0001
0010
0001
0010
0100
1000
0100
1000
,
00M2
0000
0000
M203
0000
0300
011M
0000
1M10
0000
10M1
0000
,
M022
0000
M033
0M00
00M0
0M0M
M000
2002
,
0010
0000
3003
0000
0002
0000
0000
0000
2003
0000
0000
0000
0200
0000
000M
0010
,
0011
33M0
2000
0000
3002
0000
0103
M202
,
1010
0000
03M3
0000
0200
0000
0000
0000
0320
0000
0000
2030
0000
0000
3002
0003
,
M2M1
0000
0000
0000
0000
0000
0300
M220
,
1001
0000
033M
0000
0020
0000
0000
0000
0230
0000
0000
0000
0302
0003
20M2
0000
,
0110
0000
3M03
0000
2000
0000
0000
0000
3002
0000
0000
0000
0200
0000
M000
0010
,
1010
0000
03M3
0000
0200
0000
0000
0000
0302
0000
0000
0023
0000
0000
0230
0300
,
2200
0000
0000
0000
0000
0000
3000
0000
0310
0001
0010
0100
1000
0100
0010
0001
,
1000
0000
0000
0010
0000
0000
0100
0000
0000
0001
0000
0000
0100
0000
0000
0010
0000
0000
1000
0000
0000
0001
0000
0000
4000
0000
0400
0000
0000
0000
0000
0000
0000
0000
0000
0000
0000
0000
0000
0000
0000
0000
0000
0000
0000
0000
0000
0000
,
0000
0000
3300
0000
0100
0010
0001
0000
2000
0000
3001
0100
0010
0000
0200
0000
,
0301
0000
1000
0000
0001
0010
0001
1000
0100
1000
0100
0010
0100
1000
0100
0010
,
0001
0010
0100
1000
0001
0010
0100
0000
2000
0000
3001
0010
0100
0000
0020
0000
,
0031
1000
0001
1000
0010
0100
0010
1000
0010
1000
0001
0010
0001
1000
0010
1000
,
0001
1000
0100
1000
0100
1000
0001
0000
0020
0000
0031
1000
0010
0000
0200
0000
,
0301
1000
0001
1000
0010
0100
0010
1000
0010
0100
0001
1000
0001
0010
0001
1000
,
0001
1000
0100
1000
0001
0100
0001
0000
2000
0000
3100
0010
0001
0000
0020
0000
,
0130
1000
0100
1000
0001
0100
0001
1000
0010
1000
0001
0010
0001
0010
0100
0010
,
0001
1000
0001
1000
0100
0000
0200
0000
0000
0000
0310
0000
0001
0000
1000
0000
,
0002
0000
0000
0000
1003
0000
2000
0000
0000
0000
3001
0000
1000
0100
0010
0100
,
2000
0000
0000
0000
3001
0100
0001
0100
0010
1000
0010
1000
0001
0010
0001
0010
,
0100
1000
0100
1000
0001
0100
0001
0100
0010
1000
0010
1000
0001
0010
0001
0010
,
0100
1000
0001
1000
0001
0000
0002
0000
0000
0000
1003
0000
0040
0000
0200
0000
,
0030
0000
0301
0000
1000
0000
1000
0000
0001
0000
0010
0000
0001
0010
0001
0010
,
0100
1000
0100
1000
0001
0100
0001
0100
0010
1000
0010
1000
0001
0010
0001
0010
,
0100
1000
0100
1000
0001
1000
0001
1000
0001
0010
0100
1000
0100
0010
0001
1000
,
0001
0100
0010
1000
0010
0100
0001
0000
2000
0000
3100
0010
0001
0000
0020
0000
,
0130
1000
0100
1000
0001
0100
0001
1000
0010
1000
0001
0010
0001
1000
0010
1000
,
0001
0010
0001
1000
0001
0010
0100
0000
2000
0000
3001
0100
0010
0000
0200
0000
,
0301
1000
0001
1000
0010
0100
0010
1000
0001
1000
0010
0100
0010
1000
0001
1000
,
0001
0010
0001
0010
0100
1000
0001
0000
2000
0000
3100
0010
0001
0000
0020
0000
,
0130
1000
0100
1000
0001
0100
0001
1000
0010
1000
0001
0010
0001
1000
0100
1000
,
0001
1000
0001
1000
0010
0100
0001
0000
2000
0000
3001
0010
0100
0000
0020
0000
,
0031
1000
0001
1000
0010
0100
0010
1000
0001
1000
0100
0010
0001
0010
0100
1000
,
0100
0010
0001
1000
0100
0000
0100
0000
0010
0000
0100
0000
1000
0000
0001
0000
,
0100
0010
1000
0001
0010
0001
40M0
0M00
,
000M
0000
0M00
0000
3010
0100
0010
0100
0001
0100
0001
0100
0010
1000
0010
1000
,
0001
0010
0001
0010
0100
1000
0100
1000
0001
0100
0001
0100
0010
1000
0010
1000
,
0004
0000
0000
0000
2003
0000
0040
3000
0000
0000
0130
0000
0001
0000
1000
0000
,
0400
0000
0000
0310
0000
0000
0100
0000
0000
1000
0000
0000
0002
0000
0000
0000
0000
0000
1003
0000
0100
0000
0010
0000
,
0002
0000
0000
1003
0010
0100
0001
1000
0100
0010
0001
1000
,
0010
0000
0000
0000
0100
0000
0000
0000
0001
0000
0000
0000
1000
0000
0000
0100
0000
0000
1000
0000
0000
0100
0000
0000
1000
0000
0000
0001
0000
0000
1000
0000
0000
0001
0000
0000
0100
0000
0000
0001
0000
0000
0100
0000
0000
0001
0000
0000
,
1000
0100
0010
0001
0020
0000
0000
0000
0130
0000
1000
0000
0001
0000
0100
0000
,
0010
1000
1002
0000
0013
0100
1000
0001
,
0200
0000
0000
0300
0120
0000
0000
0000
1030
0000
0001
0000
0010
0000
0100
0000
,
0010
0000
0001
0000
1000
0010
1000
0010
0100
0001
0100
0001
1000
0100
1000
0100
,
0010
0001
0010
0001
2000
0000
3001
0100
0010
0000
1000
0000
0001
0000
0010
0000
,
0100
0000
1000
0000
1001
0000
0001
0010
0100
0000
1000
0000
0001
0000
0010
0000
,
0200
0000
0000
0000
1300
0000
0001
0100
0010
0000
1000
0000
0001
0000
0010
0000
,
0100
0000
0010
0000
0001
0010
0001
0010
0100
1000
0100
1000
0001
0100
0001
0100
,
0010
0000
0000
0000
0000
0000
2000
0000
0000
0000
0000
0000
3001
0000
0000
0100
0000
0000
0010
0000
0000
0100
0000
0000
0001
0000
0000
0000
0000
0000
1000
0000
0000
0000
0000
0000
020M
0000
0000
0000
0300
0000
0000
0000
M200
0000
0000
0000
,
0300
0000
020M
0000
0300
0000
4M00
0000
0000
300M
0000
0000
04M0
0000
0000
M300
0000
0000
004M
0000
0000
0M30
0000
0000
,
M004
0000
00M3
0000
1000
0100
1000
0100
0010
0001
0010
0001
1000
0010
1000
0010
,
0100
0001
0200
0000
0000
0000
0301
0100
0010
1000
0010
0100
0001
1000
0100
0010
,
0001
1000
0002
0000
1003
0100
0010
0001
0010
0100
1000
0001
1000
0010
0100
0001
,
1000
0001
1000
0001
1000
0100
0010
0001
0010
0100
1000
0001
0M40
0000
000M
0000
,
M000
0000
0130
0000
1000
0001
1000
0001
0100
0001
0100
0001
1000
0100
1000
0100
,
001M
001M
0M01
0M01
10M0
10M0
010M
010M
,
0010
0100
0010
0100
1000
0100
1000
0100
1000
0001
1000
0001
0100
0001
0100
0001
,
1000
0100
1000
0100
0010
0001
0010
0001
1000
0001
1000
0001
0010
0100
0010
0100
,
1000
0100
0010
0001
2M00
0000
00M0
0000
310M
0000
M020
0000
0M00
0000
013M
0000
,
10M0
0M01
M100
001M
1M00
00M1
M010
0M01
,
10M0
001M
M100
01M0
M001
10M0
010M
M010
,
010M
10M0
0M02
M000
1M03
001M
M100
00M1
,
M200
0000
000M
0000
M310
0000
1000
0001
0100
0010
1000
0010
0100
0001
1000
0001
,
0010
0100
1000
0100
0010
0001
1000
0001
0100
0010
1000
0010
0100
0001
1000
0001
,
0020
0000
0000
0000
0130
1000
0100
1000
0001
0100
0001
0100
0010
1000
0010
1000
,
0001
1000
0001
1000
0010
1000
0010
1000
0001
1000
0001
1000
0200
0000
0000
0000
,
0320
0000
0000
0000
0130
1000
0100
1000
0001
0100
0001
0100
0010
1000
0010
1000
,
0001
0010
0001
0010
0100
1000
0002
0000
0000
0000
0013
0000
0100
0000
1000
0100
,
1000
0100
0010
0001
0010
0001
1M00
0000
0010
0100
0010
0100
M001
0000
1000
0001
,
1000
0001
0M20
0000
0000
0000
0130
1000
0100
1000
00M1
0000
1000
0000
0001
0010
,
0001
0010
010M
0000
1000
0001
1000
0001
0100
0001
0100
0001
1000
0010
1000
0010
,
0100
0010
0100
0010
1000
0001
1000
0001
0010
0100
0010
0100
1000
0100
1000
0100
,
0010
0001
0010
0001
1000
0100
0010
0001
0010
0100
1000
0001
0200
0000
0000
0000
,
M0MM
0000
0000
0000
0310
1000
0010
1000
0001
1000
0001
1000
0400
0000
0000
0000
,
0000
0000
0320
0000
0000
0034
0000
0000
,
0000
0000
1003
0100
0010
0000
0100
0000
1000
0000
0002
0000
0000
0000
0000
0000
,
0000
0000
0013
0100
1000
0000
0001
0000
0100
0000
0010
0000
1000
0000
0001
0000
,
0010
0100
0010
0001
1000
0100
4000
0000
,
0000
3000
0002
2003
,
3200
0320
0000
0200
0000
0000
0030
1300
,
0001
0100
0010
1000
0001
0010
0100
1000
,
0001
0200
0000
0000
0310
1000
0001
1000
,
0200
0000
0310
0100
1000
0001
0010
0100
,
0010
0100
1000
0001
1000
0100
0010
0100
,
2000
3004
0043
0430
,
4300
0000
3001
0100
0010
1000
0001
0010
,
0020
0000
0000
0000
0031
1000
0001
1000
0010
0100
0010
0100
0001
1000
0001
1000
,
0010
0100
0010
0100
0001
0100
0010
1000
0010
0100
0001
1000
0001
0010
0100
1000
,
0100
0010
0001
1000
0001
0010
0001
0010
0100
1000
0100
1000
0001
0010
0100
1000
,
0100
0010
0001
1000
0001
0100
0010
1000
0010
0100
0001
1000
0001
0010
0100
1000
,
0100
0010
0001
1000
0M02
0000
0000
0003
0M02
0000
0000
0003
00M1
0000
0M40
0000
,
M230
0000
0000
0000
13M0
0000
0M01
0000
0000
M020
0000
0000
0000
023M
0000
0000
,
0000
23M0
0000
0000
3001
0100
0001
0100
0010
1000
0010
1000
0001
1000
0001
1000
,
0100
1000
0100
1000
0001
0000
0100
0000
0010
0000
2000
0000
000M
0000
000M
0000
,
000M
0000
000M
0000
3100
0010
0100
0010
0001
1000
0001
1000
0001
0100
0001
0100
,
0010
1000
0010
1000
0001
0010
0001
0010
0100
1000
0100
1000
0001
1000
0001
1000
,
0040
0000
0000
0000
0130
0001
1000
0001
0100
0000
0010
0000
1000
0000
0001
0000
,
1000
0001
0100
0001
1000
0100
1000
0100
0010
0001
0010
0001
1000
0010
1000
0001
,
1000
0001
0010
0001
1000
0100
0010
0001
1000
0100
0010
0001
1000
0100
0010
0001
,
1000
0100
0010
0001
1000
0010
0100
0001
1000
0010
0100
0001
1000
0010
0100
0001
,
1000
0000
0000
0010
0000
0000
0100
0000
0000
0001
0000
0000
1000
0000
0000
0000
0000
0000
0000
0000
0100
0000
0000
0000
M00M
0000
0000
0000
0010
0000
0000
0000
0000
0000
0000
0000
0001
0000
0000
0010
0000
0000
0001
0000
0000
0010
0000
0000
,
0100
1000
0100
1000
0001
0100
0001
0100
0010
1000
0010
1000
0001
0000
0020
0000
,
0000
0000
0130
1000
0001
0200
03M0
0001
,
1000
0001
0100
0002
0000
1003
0010
0100
,
0010
0000
1000
0000
0001
0010
0001
0010
0100
1000
0100
1000
0001
0100
0001
0100
,
0010
1000
0010
1000
0001
1000
0001
1000
0010
0100
0010
0100
0001
1000
0001
1000
,
0100
0010
0100
0010
M002
0000
0000
10M0
0000
0000
1M00
0000
01M0
0000
0M00
1000
,
0000
M103
02M1
0000
0000
0000
0000
M001
,
001M
0000
03M1
0000
2M01
0000
0000
01M0
0000
0000
0M01
0000
002M
0000
0030
0M01
,
0000
0000
310M
0000
M220
0000
0030
001M
0000
0000
001M
0000
001M
0000
10M0
0000
,
M010
0000
130M
0000
1M02
0000
0000
01M0
0000
0000
0M10
0000
10M0
0000
0000
M100
,
0000
0000
10M3
0000
2M01
0000
0000
01M0
0000
0000
001M
0000
0M02
0000
0003
0000
,
0000
0000
3M01
0000
M022
0003
0000
1M00
0000
0000
010M
0000
0M02
0000
0003
M200
,
0300
0000
0M31
0000
40M0
0004
0M00
0000
00M0
0000
0M00
0000
00M0
0000
0M00
0000
,
00M0
0000
0M00
0000
30M3
0000
0M00
0000
1000
0100
1000
0100
0010
0001
0010
0001
,
1000
0010
1000
0010
0100
0000
0001
0000
1000
0100
1000
0000
0001
0000
0100
0000
,
0010
0100
0010
0000
1000
0000
0001
0000
0010
0001
0010
0000
0100
0000
1000
0000
,
0001
0100
0001
0000
1000
0000
0100
0000
0010
0100
0010
0000
0001
0000
1000
0000
,
0010
0100
0010
0000
1000
0000
0001
0000
1000
0100
1000
0000
0001
0000
0010
0000
,
0100
0010
0100
0000
1000
0001
1000
0001
1000
0010
1000
0010
0100
0001
0100
0001
,
1000
0100
1000
0100
0010
0001
0010
0001
1000
0001
1000
0001
0010
0100
0010
0100
,
1000
0100
1000
0100
0010
0001
0010
0001
1000
0010
0100
0001
0100
0010
1000
0001
,
1000
0100
0010
0001
0010
0100
1000
0001
1000
0100
0010
0001
0010
0100
1000
0001
,
1000
0100
1000
0100
0010
0000
0001
0000
1000
0010
1000
0000
0001
0000
0010
0000
,
0100
1000
0100
0000
1000
0000
0001
0000
0100
0010
0100
0000
0001
0000
1000
0000
,
0001
0010
0001
0000
1000
0000
0010
0000
0100
0010
0100
0000
0001
0000
1000
0000
,
0001
0010
0001
0000
1000
0010
1000
0010
0100
0001
0100
0001
1000
0100
1000
0100
,
0010
0001
0010
0001
1000
0100
0010
0001
0010
0100
1000
0001
1000
0010
0100
0001
,
0100
0010
1000
0001
0M10
0000
0000
0000
02M0
0000
0000
0000
230M
0000
0000
0000
,
3M02
0000
0000
0000
1003
0010
1000
0010
0100
0001
0100
0001
1000
0100
1000
0100
,
0010
0001
0010
0001
1000
0001
1000
0001
0100
0010
0100
0010
1000
0010
1000
0010
,
0100
0001
0100
0001
1000
0001
1000
0001
1000
0100
1000
0100
0010
0100
0010
0100
,
1000
0001
1000
0001
0100
0001
0100
0001
1000
0010
1000
0010
0100
0001
0100
0001
,
1000
0100
1000
0100
0010
0001
0010
0001
1000
0100
1000
0100
0010
0001
0010
0001
,
1000
0010
1000
0010
0100
0001
0100
0001
1000
0100
1000
0100
0010
0001
0010
0001
,
1000
0010
1000
0010
0100
0001
0100
0001
1000
0010
1000
0010
0100
0001
0100
0001
,
1000
0001
1000
0001
1000
0100
0010
0001
0010
0100
1000
0001
1000
0010
0100
0001
,
0100
0010
1000
0001
1000
0100
1000
0100
0010
0001
0010
0001
1000
0001
1000
0001
,
0100
0010
0100
0010
1000
0010
1000
0010
0100
0001
0100
0001
1000
0100
1000
0100
,
0010
0001
0010
0001
1000
0010
1000
0010
0100
0001
0100
0001
1000
0010
1000
0010
,
1000
0001
1000
0001
0010
0001
0010
0001
0010
0100
0010
0100
1000
0001
1000
0001
,
0100
0001
0100
0001
1000
0001
1000
0001
0010
0100
0010
0100
1000
0001
1000
0001
,
1000
0010
1000
0010
0100
0001
0100
0001
1000
0001
1000
0001
0010
0001
0010
0001
,
1000
0100
1000
0100
1000
0001
0100
0001
1000
0001
0100
0001
1000
0001
0010
0001
,
1000
0001
0010
0001
1000
0100
0010
0001
0010
0100
1000
0001
1000
0010
0100
0001
,
0100
0010
1000
0001
1000
0000
0100
0000
0010
0000
0011
0000
0MM0
0000
1100
0000
,
0M0M
1010
0MM0
0101
M000
0M01
10M1
1000
,
1100
0100
0110
M010
0M01
10M1
0M00
110M
,
00M0
M011
0M00
10M1
0M00
100M
1M10
001M
,
M110
000M
01M1
M001
1M00
1100
0M0M
0110
,
M0M0
0011
0M0M
0110
M0M0
010M
11M0
100M
,
1M01
0000
00M0
0000
0001
0010
0100
1000
0100
0010
0001
0010
0100
1000
0100
0010
,
0001
0010
0100
1000
0100
0010
0001
0010
0100
1000
0100
0010
0001
0010
0100
1000
,
0100
0010
0001
0010
0100
1000
0100
0010
0001
0010
0100
1000
0100
0010
0001
0010
,
0100
1000
0100
0010
0001
0010
0100
1000
0100
0010
0001
0010
0100
1000
0100
0010
,
0001
0010
0100
1000
0001
0000
0100
0000
0010
0000
1000
0000
0001
0000
0010
0000
,
0100
1000
0002
0000
0000
0000
0203
0000
,
0000
0000
0000
0000
0000
0000
0000
0000
0000
0000
0000
0000
0310
0000
0000
1000
0000
0000
0010
0000
0000
1000
0000
0000
0001
0000
0000
1000
0000
0000
0001
0000
0000
1000
0000
0000
0200
0000
00M0
0000
0300
0000
0000
0000
0220
0000
M00M
0000
,
0330
0000
0022
0M00
0033
0000
2002
0000
0000
0MM0
0000
0000
0000
0000
0000
0MM0
0000
0000
3003
0000
0000
0000
0000
0000
;

//---------------dance-single - Hard----------------
#NOTES:
     dance-single:
     Ace Of Hearts (2012):
     Hard:
     14:
     1.000,0.806,0.083,0.758,0.781: // measure 1
0000
0000
0000
0000
,  // measure 2
100M
0100
0010
0001
0010
0100
1000
0001
,  // measure 3
1000
0000
0010
0000
0100
0000
0001
0000
1000
0000
0100
0000
0010
M001
0010
M001
,  // measure 4
0010
0100
1000
0001
0100
0010
1000
0001
,  // measure 5
0010
0100
1000
0001
0100
0010
1000
0001
,  // measure 6
0202
M000
00M0
M000
,  // measure 7
M000
0000
00M0
0000
M000
0000
00M0
0303
,  // measure 8
1001
0000
1000
0010
0100
0001
1000
0100
,  // measure 9
0220
0000
000M
0000
M000
0000
M000
0330
,  // measure 10
0011
0000
0001
1000
0010
0100
0010
1000
,  // measure 11
0001
0000
0010
0000
0100
0000
1000
0000
0001
0000
0010
0000
0100
100M
0100
100M
,  // measure 12
0100
0010
0001
1000
0010
0100
0001
1000
,  // measure 13
0100
0010
0001
1000
0010
0100
0001
1000
,  // measure 14
2200
000M
000M
00M0
,  // measure 15
00M0
0000
000M
0000
000M
0000
00M0
3300
,  // measure 16
0011
0000
0010
0100
1000
0001
0100
0010
,  // measure 17
100M
00M1
1MM1
M00M
,  // measure 18
1000
0010
1000
0000
0001
0000
0010
0100
0010
0000
0001
0000
1000
0100
1000
0000
,  // measure 19
0001
0010
0001
0000
1000
0000
0010
0100
0010
0000
1000
0000
0001
0010
0001
0000
,  // measure 20
1000
0100
1000
0000
0001
0000
0100
0010
0100
0000
0001
0000
1000
0100
1000
0000
,  // measure 21
0001
1000
0001
0000
0010
0000
0001
1000
0001
0000
1000
0000
0010
0100
0010
0000
,  // measure 22
1000
0010
1000
0000
0001
0000
1000
0010
1000
0000
0001
0000
0010
0100
0010
0000
,  // measure 23
0001
0010
0001
0000
1000
0000
0010
0100
0010
0000
1000
0000
0001
0010
0001
0000
,  // measure 24
0010
0100
0010
0000
0001
0000
1000
0010
1000
0000
0001
0000
1000
0100
1000
0000
,  // measure 25
0001
0010
M001
0010
0001
0000
1000
0100
100M
0100
1000
0000
0001
0100
0001
0000
,  // measure 26
1000
0001
1000
0000
0100
0000
0010
0001
0010
0000
0100
0000
1000
0001
1000
0000
,  // measure 27
0010
1000
0010
0000
0100
0000
0001
1000
0001
0000
1000
0000
0100
1000
0100
0000
,  // measure 28
0010
0001
0010
0000
0100
0000
1000
0001
1000
0000
0010
0000
0100
0010
0100
0000
,  // measure 29
0001
0100
0001
0000
1000
0000
0001
0010
0001
0000
1000
0000
0010
0100
0010
0000
,  // measure 30
1000
0010
1000
0000
0001
0000
0010
0100
0010
0000
0001
0000
1000
0010
1000
0000
,  // measure 31
0001
0100
0001
0000
1000
0000
0100
0010
0100
0000
1000
0000
0001
0100
0001
0000
,  // measure 32
1000
0010
1000
0010
1000
0000
0001
0100
0001
0100
0001
0000
1000
0001
1000
0000
,  // measure 33
0001
0010
0001
0010
0001
0000
1000
0100
1000
0100
1000
0000
0001
1000
0001
0000
,  // measure 34
0M11
0000
001M
0100
20M0
0000
3M01
0010
,  // measure 35
M200
0000
032M
0000
M000
0000
013M
1000
,  // measure 36
0M02
0000
01M3
0020
000M
2030
0M00
3002
,  // measure 37
00M0
M003
00M0
100M
,  // measure 38
M200
032M
0M32
20M3
,  // measure 39
302M
0000
M130
0002
0M00
0000
20M3
0000
,  // measure 40
3M01
0010
0001
0000
1000
0010
1000
0000
0001
0000
0010
0000
0000
0000
0100
0000
,  // measure 41
1000
0001
1000
0000
0001
0100
0001
0000
1000
0100
1000
0100
1000
0000
0001
0100
,  // measure 42
0002
0000
1003
0100
0020
0000
0130
1000
,  // measure 43
0002
0000
1003
0200
0000
0000
0310
0100
,  // measure 44
2000
0000
3002
0000
0013
0100
0000
2000
,  // measure 45
0000
0040
0000
0000
3030
0000
2000
0000
,  // measure 46
3002
0000
1003
0200
0000
0000
0320
0000
,  // measure 47
0031
0000
1000
0200
0000
0000
2300
0000
,  // measure 48
3001
0000
0100
0020
0000
0000
2030
0000
,  // measure 49
3001
0100
0001
0100
0001
0000
1000
0100
1000
0100
1000
0000
0001
1000
0001
1000
,  // measure 50
0002
0000
0013
0100
2000
0000
3001
0100
,  // measure 51
0010
2000
0000
3001
0020
0000
043M
1300
,  // measure 52
0001
0000
0020
0000
0130
2000
0000
3002
,  // measure 53
0000
0020
0000
0000
0033
0000
0002
0000
,  // measure 54
1003
0100
0000
2000
0000
0000
310M
M010
,  // measure 55
0002
0000
1003
0200
00M0
M000
0310
0001
,  // measure 56
1000
0010
1000
0010
1000
0000
0001
0010
0001
0010
0001
0000
1000
0001
1000
0000
,  // measure 57
0010
0100
00M0
0101
0M00
1010
000M
1000
,  // measure 58
0001
0000
1000
0100
1000
0000
0002
0000
0000
0000
0103
0000
0010
0000
1000
0000
,  // measure 59
0001
0000
0010
0100
0010
0000
0200
0000
0000
0000
1300
0000
0001
0100
0001
0000
,  // measure 60
1000
0000
0010
0100
0010
0000
2000
0000
0000
0000
3001
0000
0100
0010
0100
0000
,  // measure 61
0002
0000
1003
0200
0000
0000
0320
0000
,  // measure 62
0031
0000
1000
0010
1000
0000
0002
0000
0000
0000
0013
0000
0100
1000
0100
0000
,  // measure 63
0010
0000
0001
1000
0001
0000
0200
0000
0000
0000
0310
0000
200M
0000
0000
0000
,  // measure 64
3001
0010
0001
0010
0M01
0000
1000
0001
1M00
0001
1000
0000
0M10
1000
0010
1000
,  // measure 65
0M10
020M
M302
2M03
,  // measure 66
3010
0000
0100
0000
0001
0100
0001
0000
1000
0000
0001
0000
0010
0001
0010
0000
,  // measure 67
0100
0000
1000
0000
0001
0100
0001
0000
1000
0000
0100
0000
0010
0100
0010
0000
,  // measure 68
0001
0000
1000
0000
0010
1000
0010
0000
0100
0000
0001
0000
1000
0100
1000
0000
,  // measure 69
0001
0000
0100
0000
0010
1000
0010
0000
1000
0000
0001
0000
0040
0000
M000
0000
,  // measure 70
0130
0000
1000
0000
0001
0100
0001
0000
1000
0000
0100
0000
0010
0100
0010
0000
,  // measure 71
0001
0000
0010
0000
0100
1000
0100
0000
1000
0000
0001
0000
0100
0010
0100
0000
,  // measure 72
0001
1000
0001
1000
0001
0000
1000
0100
1000
0100
1000
0000
0001
1000
0001
0000
,  // measure 73
0010
0001
0010
0001
0010
0000
0100
1000
0100
1000
0100
0000
0010
0100
0010
0000
,  // measure 74
0001
0000
1000
0000
0010
0100
0010
0000
1000
0000
0001
0000
0010
0001
0010
0000
,  // measure 75
0100
0000
1000
0000
0001
0100
0001
0000
1000
0000
0100
0000
0010
0100
0010
0000
,  // measure 76
0001
0000
1000
0000
0010
0100
0010
0000
1000
0000
0001
0000
0100
0010
0100
0000
,  // measure 77
0001
0000
1000
0000
0001
0010
0001
0000
1000
0000
0010
0000
0100
0001
0100
0000
,  // measure 78
0010
0000
1000
0000
0001
0010
0001
0000
1000
0000
0100
0000
0010
0100
0010
0000
,  // measure 79
0001
0000
1000
0000
0100
1000
0100
0000
0010
0000
0001
0000
1000
0010
1000
0000
,  // measure 80
0001
0100
0001
0100
0001
0000
1000
0010
1000
0010
1000
0000
0001
1000
0001
1000
,  // measure 81
00M1
002M
M230
23M0
,  // measure 82
3010
0000
0100
0000
0001
0100
0001
0000
1000
0000
0100
0000
0010
0100
0010
0000
,  // measure 83
0001
0000
1000
0000
0010
0100
0010
0000
1000
0000
0001
0000
0010
0001
0010
0000
,  // measure 84
0100
0000
1000
0000
0001
0100
0001
0000
1000
0000
0100
0000
0010
0100
0010
0000
,  // measure 85
0001
0000
1000
0000
0010
0100
0010
0000
1000
0000
0001
0000
1000
0100
1000
0000
,  // measure 86
0001
0000
0100
0000
0010
1000
0010
0000
0100
0000
0001
0000
1000
0100
1000
0000
,  // measure 87
0001
0000
0100
0000
0010
1000
0010
0000
1000
0000
0001
0000
0010
0100
0010
0000
,  // measure 88
0001
0010
0001
0010
0001
0000
1000
0010
1000
0010
1000
0000
0001
1000
0001
0000
,  // measure 89
1M00
M020
023M
03M2
,  // measure 90
1003
0000
0100
0000
0010
0001
0010
0000
0100
0000
1000
0000
0001
0100
0001
0000
,  // measure 91
1000
0000
0010
0000
0100
0001
0100
0000
0010
0000
1000
0000
0001
0010
0001
0000
,  // measure 92
1000
0000
0010
0000
0100
0001
0100
0000
0010
0000
1000
0000
0001
0010
0001
0000
,  // measure 93
1000
0000
0100
0000
0010
0100
0010
0000
0001
0000
1000
0000
0010
0100
0010
0000
,  // measure 94
1000
0010
1000
0010
1000
0000
0001
0010
0001
0010
0001
0000
1000
0001
1000
0001
,  // measure 95
1M00
00M2
M203
032M
,  // measure 96
1M30
0002
0000
0013
0100
1000
0001
0100
,  // measure 97
0010
2000
0000
3001
0100
0010
0400
0000
,  // measure 98
0301
1000
0100
0010
0100
1000
0001
0100
,  // measure 99
0010
1000
0002
2000
0000
0000
0000
0003
,  // measure 100
3010
0100
0001
1000
0100
0010
0100
1000
,  // measure 101
0001
0100
0010
0100
0001
1000
0100
0010
,  // measure 102
0001
0M00
0001
0000
1000
0000
0010
000M
0010
0000
0100
0000
0001
0000
0100
0000
,  // measure 103
0020
0000
0000
2030
0000
0000
3M02
0000
M023
0000
023M
0000
,  // measure 104
13M0
2000
0000
3010
0100
0001
1000
0100
,  // measure 105
0010
0010
0100
1000
0001
0100
0020
0000
,  // measure 106
0130
0001
1000
0100
1000
1000
0001
0100
,  // measure 107
0010
1000
0001
1000
0020
0000
0000
0000
,  // measure 108
0130
0200
0000
0301
1000
0100
0010
0001
,  // measure 109
0010
0020
0000
0130
1000
0001
0100
0010
,  // measure 110
0100
0001
0100
0000
0010
0000
0100
0010
0100
0000
0001
0000
1000
0100
1000
0000
,  // measure 111
00M2
0000
0000
M023
0000
0000
023M
0000
23M0
0000
3M01
0000
,  // measure 112
02M2
M000
03M3
M000
,  // measure 113
000M
0M00
M000
000M
,  // measure 114
1010
0000
1000
0001
0200
0000
0301
1000
,  // measure 115
0200
0000
0320
0000
0030
0000
0001
0010
,  // measure 116
0001
0000
2000
3000
1010
0000
0020
0200
,  // measure 117
0000
0000
0000
0000
0330
0000
0010
0100
,  // measure 118
0002
0000
2003
0000
3200
0000
1300
0001
,  // measure 119
0010
0010
0001
2000
0000
0000
3010
0000
,  // measure 120
044M
0000
M000
0000
M000
0000
000M
0330
,  // measure 121
M202
0000
00M0
0000
00M0
0000
00M0
0303
,  // measure 122
1M01
0000
100M
0100
M020
0000
013M
1000
,  // measure 123
0M01
0002
00M0
0103
M020
0000
013M
0001
,  // measure 124
2M00
0000
310M
0020
M000
0230
000M
2300
,  // measure 125
00M0
0000
0M00
3000
000M
0000
M002
0000
,  // measure 126
01M3
0020
000M
1030
0M02
0000
M013
0100
,  // measure 127
100M
0001
0M00
0202
M000
0303
010M
0010
,  // measure 128
2M00
0000
30M1
0020
M000
0230
000M
1300
,  // measure 129
00M1
0100
0001
0100
0001
0000
1000
0100
1000
0100
1000
0000
0001
1000
0001
0000
,  // measure 130
0010
0000
0001
1000
0001
0000
0200
0000
0000
0000
0310
0000
1000
0001
1000
0000
,  // measure 131
0001
0000
1000
0100
1000
0000
0002
0000
0000
0000
1003
0000
0100
0010
0100
0000
,  // measure 132
4000
0004
0000
0000
0000
0000
0000
0000
0000
0000
0000
0000
0000
0000
3003
0000
,  // measure 133
0M11
0000
M010
0000
010M
0000
11M0
0000
100M
0000
0M01
0000
,  // measure 134
M100
0000
0010
0100
0010
0000
2000
0000
0000
0000
3001
0000
0010
0001
0010
0000
,  // measure 135
0001
0000
1000
0010
1000
0000
0002
0000
0000
0000
0013
0000
0100
1000
0100
0000
,  // measure 136
0010
0100
0010
0100
0010
0000
0001
0010
0001
0010
0001
0000
1000
0100
1000
0100
,  // measure 137
100M
00M2
M203
032M
,  // measure 138
1030
0000
0001
0000
0010
0100
0010
0000
0001
0000
1000
0000
0010
1000
0010
0000
,  // measure 139
0100
0000
0001
0000
1000
0100
1000
0000
0001
0000
0100
0000
0010
1000
0010
0000
,  // measure 140
1000
0000
0001
0000
0010
0100
0010
0000
0001
0000
1000
0000
0010
1000
0010
0000
,  // measure 141
0100
0000
0010
0000
1000
0001
1000
0000
0001
0000
0100
0000
0040
0000
M000
0000
,  // measure 142
0130
0000
0001
0000
1000
0100
1000
0000
0001
0000
0010
0000
0100
1000
0100
0000
,  // measure 143
0010
0000
0001
0000
1000
0010
1000
0000
0001
0000
0010
0000
0001
1000
0001
0000
,  // measure 144
1000
0010
1000
0010
1000
0000
0001
0010
0001
0010
0001
0000
1000
0001
1000
0000
,  // measure 145
0001
0100
0001
0100
0001
0000
1000
0100
1000
0100
1000
0000
0001
1000
0001
0000
,  // measure 146
0100
0000
0010
0000
1000
0001
1000
0000
0001
0000
0010
0000
0100
1000
0100
0000
,  // measure 147
1000
0000
0001
0000
0100
0010
0100
0000
0001
0000
1000
0000
0001
0010
0001
0000
,  // measure 148
0010
0000
0100
0000
1000
0001
1000
0000
0010
0000
0100
0000
0001
0100
0001
0000
,  // measure 149
1000
0000
0100
0000
0010
0001
0010
0000
0100
0000
1000
0000
0001
0100
0001
0000
,  // measure 150
1000
0000
0010
0000
0100
0010
0100
0000
0001
0000
1000
0000
0001
0010
0001
0000
,  // measure 151
1000
0000
0010
0000
0100
0010
0100
0000
0001
0000
1000
0000
0100
0010
0100
0000
,  // measure 152
1000
0100
1000
0100
1000
0000
0001
0100
0001
0100
0001
0000
1000
0001
1000
0001
,  // measure 153
10M0
M200
032M
0M32
,  // measure 154
10M3
0000
0100
0000
0010
0001
0010
0000
0100
0000
1000
0000
0001
0100
0001
0000
,  // measure 155
1000
0000
0100
0000
1000
0001
1000
0000
0010
0000
0100
0000
0001
0100
0001
0000
,  // measure 156
1000
0000
0100
0000
0010
0001
0010
0000
0001
0000
1000
0000
0010
0100
0010
0000
,  // measure 157
1000
0000
0001
0000
0010
0001
0010
0000
0100
0000
1000
0000
0001
0100
0001
0000
,  // measure 158
1000
0000
0010
0000
0100
0001
0100
0000
0010
0000
1000
0000
0001
0100
0001
0000
,  // measure 159
1000
0000
0100
0000
0010
0001
0010
0000
0100
0000
1000
0000
0001
0100
0001
0000
,  // measure 160
1000
0010
1000
0010
1000
0000
0010
0100
0010
0100
0010
0000
0100
0001
0100
0000
,  // measure 161
0001
1000
0001
1000
0001
0000
0010
0001
0010
0001
0010
0000
0100
1000
0100
0000
,  // measure 162
0010
0000
0001
0000
1000
0100
1000
0000
0001
0000
0100
0000
0010
1000
0010
0000
,  // measure 163
1000
0000
0001
0000
0010
0100
0010
0000
0001
0000
1000
0000
0001
0100
0001
0000
,  // measure 164
1000
0000
0100
0000
0010
0100
0010
0000
0001
0000
1000
0000
0010
0100
0010
0000
,  // measure 165
1000
0000
0001
0000
1000
0100
1000
0000
0100
0000
0010
0000
0001
1000
0001
0000
,  // measure 166
1000
0100
1000
0100
1000
0000
0001
0010
0001
0010
0001
0000
1000
0100
1000
0100
,  // measure 167
10M0
M002
02M3
032M
,  // measure 168
1M30
0001
0010
0001
1000
0010
0100
0010
,  // measure 169
1000
0002
0000
1003
0010
0100
0040
000M
,  // measure 170
1030
0001
0010
0001
1000
0010
0100
0001
,  // measure 171
1000
0100
0010
0002
M000
0000
0M00
0000
,  // measure 172
1003
0010
0000
0200
0000
0301
1000
0100
,  // measure 173
0010
0000
0100
0000
1000
0000
0001
0000
0000
0000
1000
0100
1000
0000
0001
0000
,  // measure 174
0100
0010
0100
0000
0000
0000
0002
0000
0000
0000
1003
0000
0100
0000
0010
0000
,  // measure 175
0001
1000
0010
2000
000M
0000
000M
0000
,  // measure 176
3001
0100
0001
0000
1000
0000
0001
0000
1000
0000
0010
0000
2000
0000
0000
0000
,  // measure 177
3001
0100
0001
0000
1000
0000
0010
0000
0100
0000
0001
0000
0200
0000
0000
0000
,  // measure 178
0301
1000
0001
1000
0001
0000
0010
0000
0100
0000
1000
0000
0001
0000
0100
0000
,  // measure 179
0010
1000
0001
0020
M000
0000
000M
0000
,  // measure 180
0130
0000
0200
0000
0000
0000
1300
0001
1000
0000
0100
0000
0010
0000
0001
0000
,  // measure 181
1000
0000
2000
0000
0000
0000
3001
0100
0001
0000
1000
0000
0100
0000
0010
0000
,  // measure 182
0100
000M
0100
0000
1000
00M0
1000
0000
0001
0M00
0001
0000
0010
M000
0010
0000
,  // measure 183
020M
0000
0000
23M0
0000
0000
3M02
0000
02M3
0000
M310
0000
,  // measure 184
202M
0000
0M00
0000
303M
0000
00M0
0000
0M00
0000
00M0
0000
000M
0000
20M0
3000
,  // measure 185
110M
0000
0000
0000
0200
0000
0000
0000
0320
0000
0000
0000
0032
0000
0000
10M3
,  // measure 186
10M0
0000
0000
0000
0020
0000
0000
0000
0230
0000
0000
0000
0302
0000
2M03
3000
,  // measure 187
101M
0000
0000
0000
0020
0000
0000
0000
0230
0000
0000
0302
0000
0000
2003
3000
,  // measure 188
12MM
0000
0000
0000
0000
0000
0000
0000
0000
0000
0000
0000
0000
0000
M320
0030
,  // measure 189
0M11
0000
0000
0000
0002
0000
0000
0000
2003
0000
0000
0000
3020
0000
M230
0300
,  // measure 190
01M1
0000
0000
0000
0002
0000
0000
0000
2003
0000
0000
0000
3200
0000
0000
031M
,  // measure 191
001M
0000
0000
0000
0002
0000
0000
0000
2003
0000
0000
3200
0000
0000
0320
0000
,  // measure 192
M23M
0000
0000
0000
0000
0000
0000
0000
4300
0004
0000
0000
0000
0000
0000
0000
,  // measure 193
0000
0000
0000
0000
,  // measure 194
0000
0000
3003
0000
1000
0100
1000
0000
0002
0000
1003
0100
1000
0000
0002
0000
,  // measure 195
0103
0000
0010
0000
2000
0000
0000
3020
0000
0000
0130
0000
0002
0000
0000
2003
,  // measure 196
0000
0000
3100
0000
0010
0001
0010
0000
0200
0000
0310
0001
0010
0000
0200
0000
,  // measure 197
1300
0000
0001
0000
0200
0000
0000
0320
0000
0000
1030
0000
0002
0000
0000
0023
,  // measure 198
0000
0000
0130
0000
1000
0001
1000
0000
0020
0000
1030
0001
1000
0000
0020
0000
,  // measure 199
0130
0000
0001
0000
2000
0000
0000
3020
0000
0000
0130
0000
0002
0000
0000
2003
,  // measure 200
0000
0000
3100
0000
0010
0100
0010
0000
0002
0000
0013
0100
0010
0000
0002
0000
,  // measure 201
1003
0000
0010
0000
0200
0000
0000
0302
0000
0000
1003
0000
0200
0000
0000
2300
,  // measure 202
0000
3001
0010
0020
0000
0130
1000
0001
,  // measure 203
0200
0000
0000
0000
0310
0000
0020
0000
0000
0000
1030
0000
0001
0100
0001
0100
,  // measure 204
0002
0000
0000
0000
1003
0100
1000
0100
1000
0000
0002
0000
0013
0100
0010
0100
,  // measure 205
0010
0000
0002
0000
1003
0010
1000
0010
1000
0000
0001
0000
0010
0000
0001
1000
,  // measure 206
0001
0020
0130
0200
0000
1300
0004
0203
,  // measure 207
0000
0000
0310
0000
1000
0000
1000
0000
0001
0000
0010
0000
0100
1000
0100
1000
,  // measure 208
0200
0000
0000
0000
0310
0001
0010
0000
0100
0000
1000
0000
0001
1000
0001
0000
,  // measure 209
0100
0000
0000
0010
0000
0000
1000
0000
0100
0000
0010
0000
0001
0000
1000
0000
0010
0000
1000
0000
0000
0001
0000
0000
,  // measure 210
0020
0000
0000
0000
0031
0010
0001
0000
2000
0000
3001
0010
0001
0000
2000
0000
,  // measure 211
3010
0000
0100
0000
0002
0000
0000
2003
0000
0000
3100
0000
0020
0000
0000
0230
,  // measure 212
0000
0000
1300
0000
0100
1000
0100
0000
0020
0000
0130
1000
0100
0000
0020
0000
,  // measure 213
0031
0000
1000
0000
0020
0000
0000
0230
0000
0000
0301
0000
2000
0000
0000
3200
,  // measure 214
0000
0000
0310
0000
0001
0100
0001
0000
2000
0000
3001
0100
0001
0000
2000
0000
,  // measure 215
3100
0000
0010
0000
0002
0000
0000
0023
0000
0000
0130
0000
2000
0000
0000
3002
,  // measure 216
0000
0000
0103
0000
0010
0100
0010
0000
2000
0000
3010
0100
0010
0000
2000
0000
,  // measure 217
3001
0000
0010
0000
0001
0010
0001
0010
0001
0000
1000
0001
1000
0001
1000
0000
,  // measure 218
0010
1000
0010
0000
1000
0001
1000
0000
0020
0000
1030
0000
0002
0000
0023
0000
,  // measure 219
0130
2000
3001
0100
0010
1000
0M04
0000
,  // measure 220
0M00
0000
0000
0000
0013
0100
0010
0100
1000
0100
1000
0100
0010
0001
0010
0001
,  // measure 221
1000
0001
1000
0001
0010
0100
0010
0100
1000
0001
1000
0001
0100
0001
0100
0001
,  // measure 222
4000
0000
3100
0040
0000
0031
1000
0100
,  // measure 223
0040
0000
0000
0130
0000
0000
1000
0000
0000
0001
0000
0000
2000
0000
0000
0000
0000
0000
3001
0000
0010
0000
0100
0000
,  // measure 224
2000
0000
0000
3001
0010
0100
1000
0100
0010
0001
0010
0100
,  // measure 225
1000
0000
0000
0000
0100
0000
0000
0000
0010
0000
0000
0000
0001
0000
0000
0010
0000
0000
0001
0000
0000
0010
0000
0000
0001
0000
0000
0000
0000
0000
1000
0000
0000
0010
0000
0000
1000
0000
0000
0010
0000
0000
1000
0000
0000
0000
0000
0000
,  // measure 226
0001
1000
0001
1000
0002
0000
0000
0000
1003
0000
0100
0000
0010
0000
0100
0000
,  // measure 227
1000
0001
0200
0000
0310
1000
0001
0010
,  // measure 228
0200
0000
2300
0000
3001
0100
0010
1000
,  // measure 229
0001
0000
0010
0000
0400
4000
0000
0000
0000
0000
0000
0000
0000
0000
0000
0000
,  // measure 230
3300
0000
0000
0000
2000
0000
3001
0100
0001
0000
1000
0000
0100
0000
0010
0000
,  // measure 231
0001
0000
1000
0000
0010
0000
0100
0010
0100
0000
0001
0000
1000
0000
0010
0000
,  // measure 232
0200
0000
0000
0000
0301
0000
1000
0100
1000
0000
0001
0000
1000
0000
0100
0000
,  // measure 233
0010
0000
0001
0000
1000
0010
1000
0010
1000
0000
0001
1000
0001
1000
0001
0000
,  // measure 234
0010
0000
0000
0001
0000
0000
0010
0000
0000
0000
0000
0000
0100
0000
0000
1000
0000
0000
0100
0000
0000
1000
0000
0000
0100
0000
0000
0000
0000
0000
0010
0000
0000
0000
0000
0000
0001
0000
0000
0000
0M00
0000
0000
0000
0001
0000
0000
0000
,  // measure 235
0M00
0000
0001
0000
0000
0000
40M0
0000
0000
3000
0000
0000
040M
0000
0000
0300
0000
0000
M040
0000
0000
0030
0000
0000
,  // measure 236
0M04
0000
0003
0000
1000
0010
1000
0000
0001
0000
0010
0000
0100
1000
0100
1000
,  // measure 237
0100
0000
0010
0000
0001
1000
0001
1000
0001
0000
1000
0000
0010
0100
0010
0100
,  // measure 238
0020
0000
0000
0000
1030
0001
1000
0000
0100
0000
0010
0001
0010
0000
0100
0000
,  // measure 239
1000
0000
0001
0100
0001
0000
1000
0000
0100
0000
1000
0000
0004
0000
0000
0000
,  // measure 240
0MM0
0000
0000
0000
1003
0M00
1000
0000
0010
000M
0010
0000
0100
M000
0100
0000
,  // measure 241
0001
00M0
0001
0000
1000
0M00
1000
0000
0001
00M0
0001
0000
0010
0000
0010
0000
,  // measure 242
0100
0000
0000
0010
0000
0000
0100
0000
0000
0010
0000
0000
0100
0000
0000
0000
0000
0000
1000
0000
0000
0000
0000
0000
0001
0000
0000
0000
0100
0000
0000
0000
0010
0000
0000
0000
1000
0000
0000
0000
0010
0000
0000
0000
0100
0000
0000
0000
,  // measure 243
0001
1000
0001
1000
0100
0010
0001
0010
0100
1000
0001
1000
,  // measure 244
0001
0000
0010
0000
0100
0000
200M
0000
0000
0000
0000
0000
31M0
0000
0000
0020
0000
0000
M000
0000
0000
0130
0000
0000
,  // measure 245
10M0
0001
M100
0010
010M
0001
10M0
0100
,  // measure 246
M010
0100
400M
0000
3M01
0010
010M
1000
,  // measure 247
0M02
0000
M023
0000
000M
0130
10M0
0001
,  // measure 248
M200
0000
0000
0000
03M4
4000
0000
0000
0000
0000
0000
0000
0000
0000
0000
0000
,  // measure 249
0000
0000
0000
0000
,  // measure 250
3003
0000
0000
0000
0001
0100
0001
0100
0001
0000
1000
0100
1000
0100
1000
0000
,  // measure 251
0001
1000
0001
0000
0010
0001
0010
0001
0010
0000
0001
1000
0001
1000
0001
0000
,  // measure 252
1000
0010
1000
0000
0001
1000
0001
1000
0001
0000
0010
0000
0100
0000
1000
0000
,  // measure 253
0001
0100
0010
0100
0001
1000
0001
0100
,  // measure 254
0200
0000
0000
0000
0000
0000
M301
0000
1000
0100
10M0
0000
0001
0100
M001
0000
,  // measure 255
1000
0000
02M0
0000
0000
0000
031M
0000
0001
0010
0M01
0000
1000
0010
100M
0000
,  // measure 256
0001
0000
M020
0000
0000
0000
013M
0000
1000
0100
1000
0000
0001
0100
0001
0000
,  // measure 257
1000
0000
0200
0000
0000
0000
0310
0000
0001
0010
0001
0000
1000
0010
1000
0000
,  // measure 258
0001
0000
0100
0000
0001
1000
0001
1000
0001
0000
0010
0000
0200
0000
0000
0000
,  // measure 259
M00M
0000
0000
0000
1300
0100
1000
0000
0001
0010
0001
0000
1000
0010
1000
0000
,  // measure 260
0001
0100
0001
0000
2000
0000
0000
0000
0000
0000
3400
0000
0000
0000
0000
0000
,  // measure 261
0000
0000
0310
0001
0010
0000
0100
0000
1000
0000
0002
0000
0000
0000
0000
0000
,  // measure 262
0000
0000
1003
0100
1000
0000
0001
0000
0100
0000
0010
0000
0100
0000
0001
0000
,  // measure 263
1000
0100
0010
0001
0010
0100
4000
0000
,  // measure 264
0000
3000
0002
2003
,  // measure 265
3002
0023
0000
0200
0000
0000
0030
1300
,  // measure 266
0001
1000
0100
0010
0100
1000
0001
0100
,  // measure 267
0010
0200
0000
0000
0301
1000
0100
1000
,  // measure 268
0002
0000
1003
0010
0100
0010
1000
0001
,  // measure 269
0010
0100
0010
0001
1000
0010
0100
0001
,  // measure 270
2000
3040
0430
0304
,  // measure 271
4003
0000
3001
0100
0100
0001
1000
0010
,  // measure 272
0020
0000
0000
0000
1030
0001
1000
0001
1000
0000
0100
0000
0010
0000
0100
0000
,  // measure 273
1000
0000
0000
0100
0000
0000
1000
0000
0000
0100
0000
0000
1000
0000
0000
0000
0000
0000
0001
0000
0000
0000
0000
0000
0100
0000
0000
0000
0000
0000
0010
0000
0000
0000
0000
0000
1000
0000
0000
0000
0010
0000
0000
0000
0100
0000
0000
0000
,  // measure 274
0002
0000
0000
0000
1003
0010
1000
0010
1000
0000
0001
0000
0010
0000
0100
0000
,  // measure 275
1000
0000
0000
0001
0000
0000
1000
0000
0100
0000
0010
0000
0001
0000
0010
0000
0100
0000
2000
0000
0000
0000
0000
0000
,  // measure 276
3001
0100
0001
0000
1000
0000
0100
0000
0010
0000
0100
0000
2000
0000
3004
0000
,  // measure 277
0103
0000
0010
0000
1000
0000
0001
0000
0000
M020
0000
0000
0000
023M
0000
0000
,  // measure 278
0000
23M0
0000
0000
3001
0010
0001
0000
1000
0100
1000
0000
0001
0100
0001
0000
,  // measure 279
1000
0100
1000
0000
0001
1000
0001
1000
0001
0000
0020
0000
0000
0000
0000
0000
,  // measure 280
0M0M
0000
0130
1000
0001
0200
0000
0310
,  // measure 281
1000
0001
0010
0100
000M
1000
00M0
0001
,  // measure 282
M040
0000
0000
0000
0130
0000
1000
0001
1000
0001
1000
0000
0010
0000
0100
0000
,  // measure 283
0001
0100
0001
0100
0001
0000
1000
0000
0100
0000
0010
0000
0001
0010
0001
0010
,  // measure 284
0001
0000
1000
0000
0001
0000
0100
0000
0001
0100
0001
0000
1000
0000
0100
0000
,  // measure 285
1000
0100
1000
0000
0001
0000
1000
0000
0001
1000
0001
0000
0010
0000
0100
0000
,  // measure 286
0010
0000
0000
0100
0000
0000
0010
0000
0000
0000
0000
0000
M001
0000
0000
0000
0000
0000
0000
0000
001M
0000
0000
0000
0000
0000
0000
0000
01M0
0000
0000
0000
0000
0000
0000
0000
1M00
0000
0000
0001
0000
0000
1000
0000
0000
0001
0000
0000
,  // measure 287
1000
0000
0010
0000
0100
0001
0100
0001
0100
0000
0010
0000
1000
0000
0002
0000
,  // measure 288
0000
M000
0013
0100
1000
0200
0300
10M0
,  // measure 289
0001
1000
0001
0002
0000
1003
0010
0100
,  // measure 290
0001
0000
0100
0000
0010
1000
0010
0000
1000
0000
0001
0000
0010
0100
0010
0100
,  // measure 291
0010
0000
0001
0000
1000
0010
1000
0010
1000
0000
0001
0100
0001
0100
0001
0000
,  // measure 292
1000
0100
1000
0100
20M0
0000
0000
0001
0000
0000
0M10
0000
0001
0000
0000
0100
,  // measure 293
0000
3001
02M1
0000
0000
0000
M000
0010
,  // measure 294
0001
0000
0310
0000
201M
0000
0000
0001
0000
0000
0100
0000
0M02
0000
0003
0100
,  // measure 295
0000
0000
3001
0000
0M21
0000
0000
0100
0000
0000
0100
0000
M100
0000
0001
0000
,  // measure 296
0100
0000
0031
0000
2M01
0000
0000
0010
0000
0000
0001
0000
00M1
0000
0000
0100
,  // measure 297
0000
0000
3001
0000
1M02
0000
0000
0100
0000
0000
1000
0000
01M0
0000
0000
0000
,  // measure 298
0000
0000
1003
0000
2M01
0000
0000
0100
0000
0000
0001
0000
00M1
0000
0000
0010
,  // measure 299
0000
0000
3001
0000
4M00
0040
0000
0000
000M
0000
0000
0000
0M00
0000
0000
0000
,  // measure 300
000M
3M30
200M
30M2
,  // measure 301
0M23
0000
0000
0000
0130
0000
1000
0000
0001
0100
0001
0000
1000
0000
0100
0000
,  // measure 302
0010
0100
0010
0000
0001
0000
1000
0000
0010
0100
0010
0000
1000
0000
0001
0000
,  // measure 303
1000
0100
1000
0000
0001
0000
0100
0000
0010
1000
0010
0000
1000
0000
0001
0000
,  // measure 304
0010
0100
0010
0000
0001
0000
1000
0000
0001
0100
0001
0000
1000
0000
0100
0000
,  // measure 305
1000
0001
1000
0000
0010
0000
0100
0000
0001
0100
0001
0000
1000
0000
0100
0000
,  // measure 306
0010
0001
0010
0000
0100
0000
1000
0000
0001
0100
0001
0000
1000
0000
0100
0000
,  // measure 307
0010
0100
0010
0000
0001
0010
0001
0010
0001
0000
1000
0010
1000
0010
1000
0000
,  // measure 308
0001
1000
0001
0000
0010
0001
0010
0001
0010
0000
0100
1000
0100
1000
0100
0000
,  // measure 309
1000
0001
1000
0000
0010
0000
0100
0000
0001
0100
0001
0000
1000
0000
0100
0000
,  // measure 310
0010
0100
0010
0000
0001
0000
1000
0000
0010
0100
0010
0000
1000
0000
0001
0000
,  // measure 311
0010
0001
0010
0000
0100
0000
1000
0000
0001
0100
0001
0000
1000
0000
0100
0000
,  // measure 312
0010
0100
0010
0000
0001
0000
1000
0000
0001
0100
0001
0000
1000
0000
0100
0000
,  // measure 313
0010
0001
0010
0000
0100
1000
0100
1000
0100
0000
0010
0001
0010
0001
0010
0000
,  // measure 314
0001
1000
0001
1000
0001
0000
0000
0000
200M
0000
0000
0000
3M20
0000
0000
0000
,  // measure 315
M230
0000
0000
0000
03M1
1000
0001
0000
0010
0000
0100
1000
0100
0000
0010
0000
,  // measure 316
0001
0010
0001
0000
1000
0100
1000
0000
0001
0000
0100
0010
0100
0000
0001
0000
,  // measure 317
1000
0100
1000
0000
0001
0010
0001
0000
0010
0000
0100
1000
0100
0000
0010
0000
,  // measure 318
0001
1000
0001
0000
1000
0010
1000
0000
0001
0000
0100
0010
0100
0000
0010
0000
,  // measure 319
1000
0010
1000
0000
0001
0010
0001
0000
0010
0000
0100
0010
0100
0000
1000
0000
,  // measure 320
0001
0100
0001
0000
1000
0100
1000
0000
0001
0000
0010
0100
0010
0000
0001
0000
,  // measure 321
1000
0010
1000
0000
0001
0010
0001
0000
0010
0000
0100
1000
0100
0000
0010
0000
,  // measure 322
0001
0010
0001
0000
1000
0010
1000
0010
1000
0000
0001
0100
0001
0100
0001
0000
,  // measure 323
1000
0001
1000
0000
0001
0010
0001
0000
1000
0000
0100
0010
0100
0000
1000
0000
,  // measure 324
0001
0100
0001
0000
1000
0001
1000
0000
0100
0000
0010
0001
0010
0000
0100
0000
,  // measure 325
1000
0001
1000
0000
0010
0100
0010
0000
1000
0000
0001
0100
0001
0000
1000
0000
,  // measure 326
0010
0100
0010
0000
1000
0001
1000
0000
0001
0000
0010
0001
0010
0000
0100
0000
,  // measure 327
1000
0100
1000
0000
0001
0100
0001
0000
1000
0000
0001
1000
0001
0000
0010
0000
,  // measure 328
0100
0010
0100
0000
1000
0100
1000
0000
0001
0000
0100
0010
0100
0000
0001
0000
,  // measure 329
1000
0010
1000
0000
0001
0010
0001
0010
0001
0000
1000
0001
1000
0001
1000
0000
,  // measure 330
0001
0100
0001
0000
1000
0100
1000
0100
1000
0000
0001
0100
0001
0100
0001
0000
,  // measure 331
1000
0010
1000
0000
0001
0000
0001
0000
0100
0000
0010
0000
0M00
0000
1000
0000
,  // measure 332
00M0
0001
M000
0100
000M
0010
0100
0001
,  // measure 333
1000
0100
0010
0010
0100
1000
0M00
0001
,  // measure 334
M000
0100
000M
0010
0M00
1000
0001
0010
,  // measure 335
0001
1000
0010
0010
0100
0001
0M00
1000
,  // measure 336
000M
0100
M000
0010
000M
0100
1000
0001
,  // measure 337
0100
0000
000M
0000
0040
0400
0000
0000
0000
0000
0000
0000
0000
0000
0000
0000
,  // measure 338
0000
0000
0000
0000
,  // measure 339
0000
0000
0000
0000
,  // measure 340
0000
0000
0000
0000
,  // measure 341
0330
0000
0010
1000
0001
0010
0100
1000
,  // measure 342
0001
0100
0020
0000
0000
0000
0230
0000
,  // measure 343
0000
0000
0000
0000
0000
0000
0000
0000
0000
0000
0000
0000
0301
0000
0000
0100
0000
0000
0001
0000
0000
0100
0000
0000
0010
0000
0000
1000
0000
0000
0010
0000
0000
1000
0000
0000
00M2
0000
0000
0000
0000
0000
0000
0000
0M23
0000
0000
0000
,  // measure 344
0000
0000
M032
0000
0003
0000
2002
0000
0000
0M00
0000
0000
00M0
0000
0000
0M00
0000
0000
3003
0000
0000
0000
0000
0000
;

//---------------dance-single - Medium----------------
#NOTES:
     dance-single:
     Ace Of Hearts (2012):
     Medium:
     11:
     0.768,0.627,0.214,1.000,0.206:
0000
0000
0000
0000
,
1001
0000
1000
0010
0100
0010
1000
0001
,
0010
0001
1000
0001
0100
0010
4000
0000
,
3001
0000
0010
0001
0010
0100
1000
0001
,
1000
0010
0100
0010
1000
0001
0010
0100
,
2200
000M
0000
00M0
,
0000
0000
000M
0000
0000
0000
00M0
3300
,
1001
0000
0001
0100
0010
1000
0001
0010
,
0220
0000
000M
0000
M000
0000
000M
0330
,
1100
0000
1000
0001
0100
0010
0100
0001
,
1000
0001
0010
0100
1000
0100
0040
0000
,
0031
0000
1000
0010
0100
0010
1000
0001
,
0010
0001
1000
0010
1000
0001
0010
0001
,
2002
00M0
0000
0M00
,
0000
0000
00M0
0000
0000
0000
0M00
3003
,
1010
0000
0010
0100
0001
1000
0100
0010
,
M001
100M
10M1
0000
,
2000
0000
3100
0020
0000
0130
1000
0001
,
0200
0000
0301
2000
0000
3100
0010
0001
,
0020
0000
0130
2000
0000
3001
0100
0010
,
0200
0000
0301
2000
0000
3100
0010
0001
,
0020
0000
0130
2000
0000
3001
0100
0010
,
0200
0000
0301
2000
0000
3001
0010
0100
,
4000
0004
0000
0000
0000
0000
0000
0000
0000
0000
0000
0000
0000
0000
0000
0000
,
0000
0000
0000
0000
0000
0000
0000
3003
,
0002
0000
0103
0020
0000
1030
0001
0010
,
0200
0000
1300
0002
0000
1003
0010
0100
,
0020
0000
1030
0002
0000
0013
0100
1000
,
0200
0000
0310
0002
0000
1003
0010
0100
,
0020
0000
1030
0002
0000
0013
0100
1000
,
0002
0000
1003
0020
0000
0130
0001
1000
,
0040
0400
0000
0000
0000
0000
0000
0000
0000
0000
0000
0000
0000
0000
0000
0000
,
0000
0000
0000
0330
,
10M1
0000
1000
0010
020M
0000
0301
1000
,
0M02
0000
0023
0000
M030
0000
0100
1000
,
00M2
0000
0103
0020
M000
0230
0000
0302
,
00M0
0003
0M00
2000
,
302M
0230
M302
2003
,
32M0
0000
0310
0002
M000
0000
2003
0000
,
30M4
0400
0000
0000
0000
0000
0000
0000
00M0
0000
0000
0000
0000
0000
0000
0000
,
M000
0000
M000
0000
,
0303
0000
0100
0010
2000
0000
3001
0010
,
0200
0000
0310
0002
0000
0000
0013
0100
,
2000
0000
3002
0000
1003
0020
0000
0230
,
0000
0304
0000
0000
0003
0000
2000
0000
,
3200
0000
0310
0002
0000
0000
2003
0000
,
3002
0000
0013
0200
0000
0000
0320
0000
,
0032
0000
1003
0200
0000
0000
0320
0000
,
0430
4000
0000
0000
0000
0000
0000
0000
0000
0000
0000
0000
0000
0000
0000
0000
,
3300
0000
1000
0001
0200
0000
0310
1000
,
0001
0020
0000
0031
2000
0000
3010
0100
,
0002
0000
2003
0000
3100
0020
0000
0230
,
0000
2300
0000
0000
3000
0000
0001
0000
,
0100
0010
0000
2000
0000
0000
3001
0010
,
0100
0000
0010
0002
0000
0000
1003
0100
,
0040
0004
0000
0000
0000
0000
0000
0000
0000
0000
0000
0000
0000
0000
0000
0000
,
0033
0MM0
0001
1000
,
1010
0000
0010
0200
0000
0000
0301
0000
,
1001
0000
1000
0200
0000
0000
0310
0000
,
0011
0000
0001
2000
0000
0000
3010
0000
,
0110
0000
0100
0002
0000
0000
1003
0000
,
1010
0000
0010
0200
0000
0000
0301
0000
,
1001
0000
1000
0200
0000
0000
0310
0000
,
0022
M000
0M00
M000
,
M033
0000
0020
0000
0230
0000
2300
3000
,
1002
0000
0000
0203
0000
0000
0310
0000
,
2020
0000
3030
1000
,
1002
0000
0013
0200
0000
0000
2300
3000
,
1001
0000
0000
0000
0001
0000
0200
0000
0000
0000
0000
0000
0340
0000
0000
0030
,
1010
0000
1000
0002
0000
0000
0013
0000
,
0110
0000
0100
2000
0000
0000
3001
0000
,
0101
0000
0000
0200
0000
0000
0320
0000
,
4030
0004
0000
0000
0000
0000
0000
0000
0000
0000
0000
0000
3003
0000
0000
0000
,
0101
0000
0001
2000
0000
0000
3001
0000
,
0201
0000
0000
0020
0000
0000
0330
0000
,
1010
0000
0010
2000
0000
0000
3001
0000
,
0021
0000
0000
0200
0000
0000
0330
0000
,
1100
0000
1000
0002
0000
0000
0203
0300
,
0110
0000
0010
2000
0000
0000
3001
0000
,
0202
M000
00M0
00M0
,
03M3
0200
0320
1030
,
2002
0000
0003
3020
,
0130
0000
0000
0002
0000
0000
1003
0000
,
1020
0000
0230
0002
0000
0000
0000
0000
,
0000
0000
0300
0000
2003
0000
3200
0300
,
0110
0000
0000
0020
0000
0000
0031
0000
,
1001
0000
0000
2000
0000
0000
3200
0000
,
0340
0000
0000
0000
,
0030
0002
2003
3010
,
0220
0000
0000
0000
0030
0000
0301
1000
,
0100
0000
0000
0020
0000
0000
0130
0000
,
2000
0000
3001
0200
0000
0000
0301
0000
,
2000
0000
3200
0310
,
0004
4000
0000
0000
0000
0000
0000
0000
0000
0000
0000
0000
0000
0000
0000
0000
,
3003
0002
0023
0230
,
0310
0002
0000
1003
0010
1000
0001
0010
,
0100
2000
0000
3001
0100
0010
0100
0001
,
1000
0001
0010
0100
1000
0100
0010
0001
,
1000
0010
1000
2000
0000
0000
0000
0000
,
3001
0100
0000
0002
0000
1003
0100
0010
,
0100
1000
0001
0020
0000
0031
0010
0100
,
1000
0001
0100
0001
1000
0100
1000
0001
,
0200
0000
0000
0302
0000
0000
2003
0000
3200
0000
0320
0000
,
0031
0002
0000
1003
0010
1000
0001
0010
,
0001
2000
0000
3001
0010
0001
2000
0000
,
3001
0100
0010
0100
0001
1000
0001
0010
,
0100
1000
0001
1000
0200
0000
0000
0000
,
0310
0002
0000
1003
0010
0100
0001
1000
,
0010
2000
0000
3001
0100
0020
0000
0130
,
0004
4000
0000
0000
0000
0000
0000
0000
0000
0000
0000
0000
0000
0000
0000
0000
,
3M03
0000
0000
101M
0000
0000
0M10
0000
100M
0000
0M01
0000
,
M022
0M00
M033
0M00
,
00M0
000M
00M0
000M
,
1100
0000
1000
0001
0200
0000
0310
1000
,
0002
0000
0023
0000
0030
0000
0100
1000
,
0002
0000
1003
0000
1010
0000
0010
0200
,
0000
0000
0000
0000
0300
0000
0001
0100
,
0010
0000
1000
0000
0002
0000
0013
0100
,
0010
0010
0001
2000
0000
0000
3001
0000
,
M040
0400
0000
0000
000M
0000
0000
0000
M000
0000
0000
0000
033M
0000
0000
0000
,
22M0
000M
00M0
330M
,
1M01
0000
0001
0010
M200
0000
1300
0001
,
01M0
0002
0000
1003
0M20
0000
0130
0001
,
20M0
0000
3100
0010
000M
0200
0000
2000
,
00M0
0000
0000
3300
000M
0000
2000
0000
,
3M01
0200
0000
0310
200M
0000
3001
0100
,
00M1
1000
0000
0200
M000
0000
0310
0001
,
1M00
0000
0000
0000
0010
0000
0200
0000
00M0
0000
0302
0000
0000
0000
4003
0400
,
0000
0000
0000
3300
,
0110
0000
0010
0002
0000
0000
1003
0000
,
1010
0000
0010
0200
0000
0000
0301
0000
,
4000
0004
0000
0000
0000
0000
0000
0000
0000
0000
0000
0000
3003
0000
0000
0000
,
100M
0000
001M
0000
010M
0000
M010
0000
M100
0000
M001
0000
,
1000
0000
0010
0200
0000
0000
0301
0000
,
1001
0000
1000
0002
0000
0000
0103
0000
,
0240
M000
000M
000M
,
033M
0000
0020
0000
2030
0000
3002
0003
,
0021
0000
0000
0230
0000
0000
1300
0000
,
2002
0000
3003
1000
,
1020
0000
0130
0002
0000
0000
2003
3000
,
1200
0000
0000
0000
0310
0000
0002
0000
0000
0000
0000
0000
4003
0000
0000
3000
,
1100
0000
0100
0020
0000
0000
0031
0000
,
1001
0000
1000
0020
0000
0000
0130
0000
,
0102
0000
0000
2003
0000
0000
3020
0000
,
0430
0004
0000
0000
0000
0000
0000
0000
0000
0000
0000
0000
0303
0000
0000
0000
,
1001
0000
1000
0020
0000
0000
0130
0000
,
0202
0003
0302
2000
0000
0000
3003
0000
,
1100
0000
0100
0020
0000
0000
0032
0003
,
2002
0000
0003
0200
0000
0000
3300
0000
,
0200
0310
0000
0001
2000
0000
3001
0000
,
0010
0000
0100
0000
1000
0000
0000
0000
0001
0000
0000
0000
1000
0000
0040
0400
,
0000
0000
0000
0000
,
0330
0200
0302
1003
,
2020
0000
3000
0230
,
0301
0000
0000
2000
0000
0000
3100
0000
,
0120
0000
0032
2000
0000
0000
0000
0000
,
3003
0000
0000
0000
2000
0000
3020
0030
,
0110
0000
0000
0200
0000
0000
0302
0003
,
1001
0000
0000
2000
0000
0000
3200
0000
,
0340
0004
0000
0000
0000
0000
0000
0000
0000
0000
0000
0000
0000
0000
0000
0000
,
0033
0002
2003
3100
,
0220
0000
0000
0000
0300
0000
0031
1000
,
0010
0000
0000
0200
0000
0000
0301
0000
,
2000
0000
3100
0020
0000
0000
0130
0000
,
2000
3000
0002
0203
,
0340
4000
0000
0000
0000
0000
0000
0000
0000
0000
0000
0000
0000
0000
0000
0000
,
3030
2000
3002
0203
,
0310
1000
0001
0010
0100
0010
0001
1000
,
0001
0020
0000
0031
1000
0100
0040
0000
,
0130
1000
0001
0100
0001
1000
0001
0010
,
0100
1000
0001
2000
0000
0000
0000
0000
,
3001
0010
0000
0200
0000
0310
0001
1000
,
0010
0100
0001
0002
0000
1003
0100
0010
,
0100
1000
0000
0002
0000
0013
0100
0010
,
0001
0010
0100
2000
0000
0000
0000
0000
,
3010
0100
0001
1000
0100
0010
0002
0000
,
1003
0010
0100
0001
1000
0100
0020
0000
,
0034
4000
0000
0000
0000
0000
0000
0000
0000
0000
0000
0000
3003
0000
0000
0000
,
1000
0010
0100
0002
0000
0000
0000
0000
,
1003
2000
0000
3001
0100
0010
0100
0001
,
0100
0200
0000
0310
1000
0001
0010
0001
,
1000
00M0
1000
0000
0001
0M00
0001
0000
0010
M000
0010
0000
0100
000M
0100
0000
,
20M0
0000
0000
3M02
0000
0000
20M3
0000
320M
0000
M310
0000
,
0M22
0000
M033
0M00
00M0
000M
0M00
00M1
,
1M01
0000
0000
0000
2000
0000
0000
0000
3020
0000
0000
0000
0230
0000
0000
M301
,
M001
0000
0020
0000
0230
0000
2300
30M1
,
01M1
0000
0000
0000
0200
0000
0000
0000
0320
0000
0000
2030
0000
0000
3002
0000
,
02M3
0000
0000
0000
0000
0000
0300
0010
,
1010
0000
2000
0000
3002
0000
0023
013M
,
110M
0000
0000
0000
2000
0000
0000
0000
3002
0000
0000
0000
0203
0000
0000
M310
,
M010
0000
0000
0000
2000
0000
0000
0000
3002
0000
0000
0023
0000
0000
0230
0000
,
230M
0000
0000
0000
0000
0000
0000
0000
3004
4000
0000
0000
0000
0000
0000
0000
,
0000
0000
0000
0000
,
3003
0000
0000
0000
0001
0010
0001
0000
2000
0000
3001
0010
0001
0000
2000
0000
,
3010
0000
0100
0000
0002
0000
0000
2003
0000
0000
3100
0000
0020
0000
0000
0230
,
0000
0000
1300
0000
0100
0010
0100
0000
2000
0000
3100
0010
0100
0000
2000
0000
,
3001
0000
0100
0000
0020
0000
0000
2030
0000
0000
3001
0000
0020
0000
0000
0230
,
0000
0000
1300
0000
0001
0100
0001
0000
2000
0000
3001
0100
0001
0000
2000
0000
,
3100
0000
0010
0000
0002
0000
0000
2003
0000
0000
3010
0000
0200
0000
0000
0302
,
0000
0000
1003
0000
0010
0100
0010
0000
2000
0000
3010
0100
0010
0000
2000
0000
,
3001
0000
0100
0000
0040
0400
0000
0000
0000
0000
0000
0000
0000
0000
0000
0000
,
0330
0000
0010
0020
0000
1030
0001
1000
,
0200
0000
0000
0000
0310
0000
0020
0000
0000
0000
0031
0000
1000
0100
1000
0100
,
2000
0000
0000
0000
3001
0000
0100
0000
0010
0100
0010
0000
1000
0000
0001
0000
,
0010
0100
0010
0001
1000
0001
0001
1000
,
0100
0020
0130
1000
0001
1000
0020
0230
,
0000
0301
1000
0100
1000
0001
0100
0010
,
2000
3004
0000
0000
,
0000
0000
0000
0000
0000
0000
1003
0000
0100
0000
0010
0000
0001
0000
0010
0000
0100
0000
1000
0000
0000
0001
0000
0000
,
0020
0000
0000
0000
0130
0010
0100
0000
2000
0000
3100
0010
0100
0000
2000
0000
,
3001
0000
0100
0000
0020
0000
0000
0230
0000
0000
0301
0000
2000
0000
0000
3200
,
0000
0000
0310
0000
0001
1000
0001
0000
0200
0000
0301
1000
0001
0000
0200
0000
,
0310
0000
1000
0000
0002
0000
0000
0023
0000
0000
0130
0000
2000
0000
0000
3002
,
0000
0000
0103
0000
0010
0100
0010
0000
2000
0000
3010
0100
0010
0000
2000
0000
,
3001
0000
0010
0000
0002
0000
0000
2003
0000
0000
3010
0000
0200
0000
0000
0302
,
0000
0000
1003
0000
0001
0010
0001
0000
2000
0000
3001
0010
0001
0000
2000
0000
,
3010
0000
0100
0000
0004
4000
0000
0000
0000
0000
0000
0000
0000
0000
0000
0000
,
3003
0000
0000
0000
0001
0100
0001
0000
1000
0000
0001
0000
0100
0000
0010
0000
,
0100
0001
1000
0100
0010
0100
4000
0000
,
0000
0000
0000
0000
3004
0040
0000
0000
0000
0000
0000
0000
0000
0000
0000
0000
,
0000
0000
0000
0000
,
0033
0000
0010
0001
1000
0001
0010
0001
,
1000
0000
0000
0010
0000
0000
0100
0000
0000
0001
0000
0000
2000
0000
0000
0000
0000
0000
3001
0000
0010
0000
0100
0000
,
2000
0000
0000
3001
0010
0100
1000
0100
0010
0001
0010
0100
,
1000
0000
0000
0000
0100
0000
0000
0000
0010
0000
0000
0000
0004
0000
0000
4000
0000
0000
0000
0000
0000
0000
0000
0000
0000
0000
0000
0000
0000
0000
0000
0000
0000
0000
0000
0000
0000
0000
0000
0000
0000
0000
0000
0000
0000
0000
0000
0000
,
3003
0000
2000
0000
3010
0100
0001
1000
,
0100
0010
0002
0000
1003
0010
0100
0010
,
2000
0000
3002
0000
0013
0100
0010
0001
,
1000
0000
0010
0000
0400
0004
0000
0000
0000
0000
0000
0000
0000
0000
0000
0000
,
0303
0000
0000
0000
0002
0000
0000
1003
0100
0000
0010
0000
0001
0000
1000
0000
,
0001
0000
0010
0000
0200
0000
0000
0310
0001
0000
1000
0000
0010
0000
0100
0000
,
0002
0000
0000
0000
2003
0000
0000
3100
0010
0000
0001
0000
1000
0000
0010
0000
,
0100
0000
0001
0000
4000
0400
0000
0000
0000
0000
0000
0000
0000
0000
0000
0000
,
3300
0000
0000
0000
4000
0004
0000
0000
0000
0000
0000
0000
0000
0000
0000
0000
,
3003
0000
4M00
3000
04M0
0300
004M
0030
,
M004
0000
0003
0000
4000
0400
0000
0000
0000
0000
0000
0000
0000
0000
0000
0000
,
3300
0000
0000
0000
0400
0040
0000
0000
0000
0000
0000
0000
0000
0000
0000
0000
,
0300
0000
0000
0030
0040
0004
0000
0000
0000
0000
0000
0000
0000
0000
0000
0000
,
0000
0000
0000
0030
,
0000
0000
0000
0000
1003
00M0
1000
0000
0010
000M
0010
0000
0100
M000
0100
0000
,
0001
00M0
0001
0000
1000
0M00
1000
0000
0100
000M
0100
0000
0010
M000
0010
0000
,
0001
0000
0000
0M00
0000
0000
0001
0000
0000
0000
0000
0000
1000
0000
0000
0000
0000
0000
0001
0000
0000
0000
0000
0000
1000
0000
0000
0000
0100
0000
0000
0000
1000
0000
0000
0000
0001
0000
0000
0000
0010
0000
0000
0000
0001
0000
0000
0000
,
1000
0010
1000
0001
0100
0001
1000
0100
1000
0001
0010
0001
,
1000
0000
0100
0000
0010
0000
M002
0000
0000
0000
0000
0000
1003
0000
0000
0020
0000
0000
000M
0000
0000
0130
0000
0000
,
0001
1000
01M0
0010
0100
2000
0M00
3001
,
0100
0010
010M
0100
0001
1000
10M0
0100
,
0010
0001
1M00
1000
0100
0010
M001
1000
,
0200
0000
0000
0000
034M
0400
0000
0000
0000
0000
0000
0000
0000
0000
0000
0000
,
0000
0000
0000
0000
,
0330
0040
0034
4003
,
3400
0000
0000
0000
4300
0004
0000
0000
0000
0000
0000
0000
3003
0000
0000
0000
,
0002
0000
0000
0000
4003
0400
0000
0000
0000
0000
0000
0000
0000
0000
0000
0000
,
0000
0000
3300
0000
0100
0010
0100
1000
,
0001
0000
0100
0000
0010
0000
000M
00M0
0000
0000
1000
0000
0001
0000
0010
0000
,
0100
0000
2000
0000
3000
0000
1001
0000
0M00
M000
0001
0000
0100
0000
0010
0000
,
1000
0002
0003
0010
0100
1000
0001
0100
,
0040
0400
0000
0000
0000
0000
0000
0000
0000
0000
0000
0000
0000
0000
0330
0000
,
0000
0400
0000
0000
0000
0000
0302
0000
,
0000
4003
3040
0430
,
0304
0000
2003
0000
0000
3400
0000
0000
,
0000
0000
0310
0001
0010
0000
0100
0000
1000
0000
0002
0000
0000
0000
0000
0000
,
1003
0100
1000
0000
0001
0000
0100
0000
0010
0000
0100
0000
0001
0000
1000
0000
,
0100
0020
0000
0130
1000
0001
0040
0000
,
0000
0030
0200
2300
,
3001
0020
0000
0200
0030
0000
0000
1300
,
0001
0100
0010
0100
0001
1000
0010
1000
,
0001
0200
0000
0000
0301
1000
0002
0000
,
0203
0000
0310
1000
0001
0010
0100
0010
,
0001
1000
0010
0100
0010
1000
0001
0010
,
0200
0340
0430
4300
,
3004
0000
1003
0100
0100
1000
0001
0010
,
0020
0000
0000
0000
0034
4000
0000
0000
0000
0000
0000
0000
0000
0000
0000
0000
,
3003
0000
0000
0000
0004
0400
0000
0000
0000
0000
0000
0000
0000
0000
0000
0000
,
0303
0000
0100
0010
1000
0001
0010
0100
,
1000
0000
0000
0001
0000
0000
1000
0000
0100
0000
1000
0000
0001
0000
0010
0000
0001
0000
2000
0000
0000
0000
0000
0000
,
3001
0100
0010
0100
0001
1000
0100
0010
,
0100
0000
1000
0000
0001
0000
0010
0000
0000
M002
0000
0000
0000
20M3
0000
0000
,
0000
302M
0000
0000
0430
0004
0000
0000
0000
0000
0000
0000
0000
0000
0000
0000
,
0000
0000
0000
0303
0000
0002
0000
0MM0
,
0000
1003
0010
0100
0010
1000
0001
0010
,
0100
1000
0001
0100
M000
0001
00M0
1000
,
0040
0000
0000
0030
4000
0040
0000
0000
0000
0000
0000
0000
0000
0000
0000
0000
,
0000
0000
3030
0000
0400
0004
0000
0000
0000
0000
0000
0000
0000
0000
0000
0000
,
0000
0303
0001
0100
0010
0100
0001
0100
,
0010
1000
0001
1000
0100
1000
0001
1000
,
0100
0000
0000
0000
0000
0000
1000
0000
0000
0000
0000
0000
0001
0000
0000
0000
0000
0000
0000
0000
0010
0000
0000
0000
0000
0000
0000
0000
0100
0000
0000
0000
0000
0000
0000
0000
4000
0000
0000
0004
0000
0000
0000
0000
0000
0000
0000
0000
,
0000
0000
0000
0000
,
3003
0000
1000
0010
0100
0001
0100
0010
,
1000
0001
0010
0020
0000
0130
1000
0001
,
1000
0000
0010
0000
0100
0000
0010
0000
1000
0000
0001
0000
0040
0400
0000
0000
,
0000
0000
0000
0330
0200
0000
2300
0000
,
3002
0000
0003
0000
M021
0000
0000
0100
0000
0000
0001
0000
M001
0000
0000
0100
,
0000
0031
2002
0000
0MM0
0000
3003
1000
,
0010
0000
0100
0000
01M2
0000
0000
1000
0000
0000
0100
0000
02M0
0300
0000
1000
,
0000
0000
1003
0000
120M
0000
0000
0010
0000
0000
0010
0000
001M
0000
1000
0000
,
1000
0000
0310
0000
0M12
0000
0000
1000
0000
0000
0010
0000
0M10
0000
0000
1000
,
0000
0000
0103
0000
012M
0000
0000
1000
0000
0000
0100
0000
010M
0000
0000
0000
,
0000
0000
1030
0000
1002
0000
0000
0023
0000
0000
0130
0000
2000
0000
0000
3002
,
0000
0000
0103
0000
M040
0400
0000
0000
000M
0000
0000
0000
M000
0000
0000
0000
,
000M
M330
0020
2030
,
3002
0003
0022
0000
0000
0000
0003
0000
,
0130
0000
1100
0000
0000
2000
0000
0000
,
3001
0000
0201
0000
0320
0200
0000
0000
,
0000
0000
0330
0200
,
0302
0003
1001
0000
0000
2000
0000
0000
,
3100
0000
0110
0000
0000
0020
0000
0000
,
0032
0000
0000
0000
4003
0400
0000
0000
0000
0000
0000
0000
0000
0000
0000
0000
,
0000
3300
0200
0320
,
0032
0003
2002
0000
0000
0000
0003
0000
,
3010
0100
0001
0000
0000
2000
0000
0000
,
3100
0000
0020
0000
0130
2000
0000
0000
,
3100
0020
0030
0200
,
2300
0000
0000
0000
3004
0400
0000
0000
0000
0000
0000
0000
0000
0000
0000
0000
,
0000
0303
0200
0320
,
2030
0000
3002
0000
0103
0020
0000
0130
,
0001
1000
0200
0000
0310
0002
0000
1003
,
0100
0010
0200
0000
1300
0002
0000
1003
,
0010
0100
0020
0000
1030
0002
0000
1003
,
0100
0010
0002
0000
1003
0020
0000
0130
,
0001
1000
0002
0000
0013
0200
0000
1300
,
0001
1000
0200
0000
0310
0002
0000
1003
,
0010
0000
0100
0000
0004
0400
0000
0000
0000
0000
0000
0000
0000
0000
0000
0000
,
0303
0000
0200
0000
0310
2000
0000
3001
,
0010
0100
0020
0000
0031
2000
0000
3010
,
0100
0001
0200
0000
0310
2000
0000
3001
,
0010
0100
0020
0000
0031
2000
0000
3001
,
0100
0010
0200
0000
0301
2000
0000
3001
,
0010
0100
0020
0000
0031
2000
0000
3010
,
0100
0000
0001
0000
4000
0040
0000
0000
0000
0000
0000
0000
0000
0000
0000
0000
,
0000
0000
0000
0000
,
3030
0000
1000
1000
0001
0010
M000
0100
,
000M
1000
0M00
0001
M000
0100
0010
1000
,
0001
0010
0100
0100
1000
0001
0M00
0010
,
M000
0001
00M0
1000
000M
0010
0100
0100
,
0001
1000
0010
0010
1000
0001
0M00
1000
,
000M
0010
M000
0100
00M0
0001
1000
1000
,
0010
0440
0000
0000
,
0000
0000
0000
0000
,
0000
0000
0000
0000
,
0000
0000
0000
0000
,
0330
0000
0100
0001
1000
0100
0010
0100
,
1000
0001
0020
0000
0000
0000
0230
0000
,
0000
0000
0000
0000
0000
0000
0000
0000
0000
0000
0000
0000
4300
0000
0000
0004
0000
0000
0000
0000
0000
0000
0000
0000
0000
0000
0000
0000
0000
0000
3003
0000
0000
0000
0000
0000
10M0
0000
0000
0000
0000
0000
0000
0000
001M
0000
0000
0000
,
0000
1M00
0000
2002
0000
0000
0MM0
0000
0000
3003
0000
0000
;

//---------------dance-single - Easy----------------
#NOTES:
     dance-single:
     Easy:
     Easy:
     9:
     0.673,0.358,0.083,1.000,0.060:
0000
0000
0000
0000
,
1001
0001
0010
0001
,
1000
0010
0100
0004
,
1003
0100
0010
0100
,
1000
0001
1000
0001
,
0202
0000
00M0
0000
,
M000
0000
00M0
0303
,
1010
1000
0001
1000
,
2200
000M
00M0
3300
,
0011
0001
1000
0010
,
1000
0001
0010
0400
,
1300
0001
0100
0010
,
0100
0001
1000
0100
,
0220
0000
M000
0000
,
000M
0000
M000
0330
,
0011
0001
1000
0010
,
1000
0001
1001
0000
,
2000
0000
3001
0020
0000
0031
2000
0000
,
3002
0000
1003
0200
0000
0310
0002
0000
,
2003
0000
3001
0020
0000
0130
2000
0000
,
3002
0000
0103
0020
0000
1030
0002
0000
,
2003
0000
3100
0020
0000
0130
2000
0000
,
3002
0000
1003
0020
0000
1030
0002
0000
,
0403
0000
0000
0000
,
0000
0000
0300
0000
,
0002
0000
1003
0200
0000
0310
0002
0000
,
2003
0000
3010
0200
0000
0301
2000
0000
,
3200
0000
0310
0002
0000
1003
0020
0000
,
0230
0000
0301
2000
0000
3010
0200
0000
,
0302
0000
1003
0200
0000
0310
0002
0000
,
0023
0000
0130
2000
0000
3001
0200
0000
,
0340
0000
0000
0000
,
0000
0000
0000
0000
,
0M30
0000
1000
0010
2000
0000
3001
0010
,
M002
0000
2003
0000
3000
0000
0001
0010
,
0M02
0000
1003
0200
0000
0320
0000
0032
,
M000
0003
0000
200M
,
3002
0023
0230
0320
,
M032
0000
1003
0200
0000
0000
2300
0000
,
30M2
0000
1003
0200
0000
2300
0000
3002
,
0000
0000
0000
0003
0000
0000
0000
0000
,
0000
0000
1000
0100
2000
0000
3001
0100
,
0002
0000
1003
0200
0000
0000
0310
0001
,
0020
0000
0230
0000
1300
0002
0000
2003
,
0000
3040
0000
0000
0030
0000
2000
0000
,
3002
0000
0013
0200
0000
0000
2300
0000
,
3001
0000
0010
0200
0000
0000
0320
0000
,
0031
0000
1000
0020
0000
0000
2030
0000
,
3002
0000
0003
0000
,
0000
0000
1000
0100
2000
0000
3001
0010
,
0001
2000
0000
3001
0020
0000
0031
1000
,
0001
0000
0200
0000
0301
2000
0000
3200
,
0000
0320
0000
0000
0030
0000
0100
0000
,
1000
0001
0000
0200
0000
0000
0301
1000
,
0001
0000
0010
0200
0000
0000
1300
0001
,
2000
0000
3001
0020
0000
0230
0000
2300
,
0000
30M0
0002
0203
,
0310
0000
1000
0002
0000
0000
2003
0000
,
3010
0000
0100
0002
0000
0000
2003
0000
,
3100
0000
0010
0002
0000
0000
2003
0000
,
3020
0000
0130
0002
0000
0000
2003
0000
,
3100
0000
0010
0002
0000
0000
2003
0000
,
3010
0000
0100
0002
0000
0000
1003
0000
,
0020
0000
M000
0000
,
003M
0200
0302
2003
,
3020
0000
0000
0230
0000
0000
0302
0000
,
2003
0000
3000
0001
,
0020
0000
0130
2000
0000
0000
3001
0000
,
0100
0000
0001
2000
0000
0000
3000
0000
,
0001
0000
1000
0020
0000
0000
0130
0000
,
0001
0000
1000
0200
0000
0000
0310
0000
,
0001
0000
0000
2000
0000
0000
3020
0000
,
0230
0000
0000
0300
,
0002
0000
1003
0020
0000
0000
1030
0000
,
0020
0000
0000
0200
0000
0030
0000
0000
,
0301
0000
1000
0200
0000
0000
0310
0000
,
0002
0000
0000
2000
0000
0003
0000
0000
,
3020
0000
0130
0002
0000
0000
1003
0000
,
0200
0000
0310
0002
0000
0000
1003
0000
,
0020
0000
M000
0000
,
0030
0100
0002
1003
,
2020
0000
3000
0130
,
0001
0000
0000
2000
0000
0000
3100
0000
,
0020
0000
0000
0230
0000
0000
0000
0000
,
0300
0000
2000
3002
,
0103
0000
0000
0020
0000
0000
2030
0000
,
3001
0000
0000
0020
0000
0000
0130
0000
,
2000
0000
0000
0000
,
3000
0001
1000
0100
,
0220
0000
0000
0000
0300
0000
0031
1000
,
0001
0000
0000
0200
0000
0000
0310
0000
,
2000
0000
3001
0020
0000
0000
0130
0000
,
2000
0000
3002
0203
,
0320
0000
1030
0002
0000
0000
0013
0000
,
0100
2000
3002
0203
,
0320
0000
0000
0030
,
1000
0002
0000
1003
0100
0000
0010
0000
,
0100
2000
0000
3001
0100
0000
0010
0000
,
1000
0000
0001
0020
0000
0000
0000
0000
,
0031
1000
0000
0002
0000
0000
1003
0000
,
0010
0100
0000
0020
0000
0000
1030
0000
,
0002
0000
1003
0020
0000
0130
0002
0000
,
2003
0000
0000
3002
0000
0000
1003
0000
0100
0000
0010
0000
,
0001
2000
0000
3100
0020
0000
0230
0000
,
1300
0002
0000
1003
0020
0000
0230
0000
,
0304
0000
2003
3200
,
0320
0000
0130
2000
0000
0000
0000
0000
,
3001
0200
0000
0310
2000
0000
3002
0000
,
0013
0200
0000
1300
0002
0000
0203
0000
,
0340
0000
0000
0000
,
203M
0000
0000
3M02
0000
0000
10M3
0000
0010
0000
0100
0000
,
M0M2
0M00
M003
00M0
,
000M
00M0
0M00
00M0
,
000M
0000
1000
0100
0020
0000
0031
0010
,
0200
0000
2300
0000
3000
0000
0001
1000
,
0001
0000
0020
0000
0130
0000
1000
0002
,
0000
0000
0000
0000
0003
0000
1000
0100
,
0010
0000
0001
0000
2000
0000
3010
1000
,
0010
0100
0010
0200
0000
0000
0301
10M0
,
0020
0000
2M30
0000
3001
0020
000M
0230
,
0000
M000
0000
03M0
,
0000
0000
100M
0100
0020
0000
0M31
1000
,
0001
0200
M000
0310
2000
0000
3M01
0010
,
0200
0000
M310
0001
0000
1000
00M0
0200
,
0000
0000
M000
0300
0000
0000
0M20
0000
,
0130
2000
00M0
3001
0200
0000
031M
1000
,
0010
0100
M000
0002
0000
0000
1M03
0010
,
0200
0000
03M1
2000
0000
3200
000M
0320
,
0000
0030
0200
2300
,
3001
0000
0010
0200
0000
0000
2300
0000
,
3001
0000
0010
0200
0000
0000
0320
0000
,
0031
0000
1000
0020
0000
0000
0230
0000
,
0302
0000
0000
2003
0000
0000
3200
0000
,
0310
0000
0100
2000
0000
0000
3002
0000
,
0103
0000
0010
2000
0000
0000
3002
0000
,
0043
0000
M000
0000
,
0M30
0002
2003
3020
,
0230
0000
0000
0302
0000
0000
1003
0000
,
2020
0000
3030
0010
,
0200
0000
0301
2000
0000
0000
3200
0000
,
0320
0000
0031
2000
0000
0000
3000
0000
,
0002
0000
1003
0020
0000
0000
0230
0000
,
0301
0000
1000
0020
0000
0000
0230
0000
,
0302
0000
0000
2003
0000
0000
3010
0000
,
0400
0000
0000
0300
,
0001
0000
1000
0200
0000
0000
0310
0000
,
0002
0000
1003
0020
0000
0000
0030
0000
,
0100
0000
0001
2000
0000
0000
3100
0000
,
0020
0000
0000
0200
0000
0000
0030
0000
,
1300
0001
0000
1000
0020
0000
1030
0000
,
0001
0010
0100
0000
0010
0000
0001
2000
,
0000
0400
0000
0000
0000
0000
3000
0000
,
0300
0020
0032
1003
,
2020
0000
3000
0130
,
0001
0000
0000
0020
0000
0000
0130
0000
,
2100
0000
0000
3002
0000
0000
0000
0000
,
0003
0000
2000
3020
,
0130
0000
0000
0002
0000
0000
2003
0000
,
3100
0000
0000
0020
0000
0000
0031
0000
,
4000
0000
0000
0000
,
3000
0002
2003
3100
,
0220
0000
0000
0000
0300
0000
0031
1000
,
0100
0000
0000
0020
0000
0000
0130
0000
,
2000
0000
3001
0200
0000
0000
0310
0000
,
2000
3000
0002
0203
,
0320
0000
0130
0002
0000
0000
1003
0000
,
0100
0020
0032
2003
,
3001
0020
0000
0130
2000
0000
3002
0000
,
1003
0020
0000
0130
0002
0000
2003
0000
,
3020
0000
0130
0001
0100
0000
0002
0000
,
1003
0010
1000
0002
0000
0000
0003
0000
,
1000
0010
0000
0200
0000
0302
0000
1003
,
0100
1000
0000
0002
0000
1003
0400
0000
,
0000
0000
0000
0000
,
0000
0000
0310
0002
0000
2000
0003
0000
,
0000
3010
0100
0000
0020
0000
0000
2030
,
0000
3001
0010
0000
0200
0000
2300
0000
,
3004
0000
0000
0003
,
1000
0100
1000
0002
0000
0000
0000
0000
,
1003
0010
1000
0000
0002
0000
0023
0000
,
0130
0010
0100
0000
2000
0000
3200
0000
,
230M
3002
M203
0320
,
203M
0000
0000
3002
0000
0000
10M3
0000
0100
0000
0010
0000
,
M002
0000
0003
0000
0000
0000
0000
1000
,
101M
0000
0000
0000
0020
0000
0000
0000
0230
0000
0000
0000
0302
0000
0000
1003
,
01M0
0000
0020
0000
0230
0000
2300
3001
,
0M11
0000
0000
0000
0020
0000
0000
0000
0032
0000
0000
2003
0000
0000
3020
0000
,
020M
0000
0000
0000
0030
0000
0000
0301
,
10M1
0000
2000
0000
3200
0000
0320
0031
,
1M01
0000
0000
0000
2000
0000
0000
0000
3020
0000
0000
0000
0230
0000
0000
0301
,
10M0
0000
0000
0000
0200
0000
0000
0000
0320
0000
0000
0230
0000
0000
2300
0000
,
00M2
3000
0403
0000
,
0000
0000
0000
0000
,
0300
0000
0010
1000
1000
0001
0010
0100
,
1000
0000
0001
0000
0020
0000
0000
0230
0000
0000
1300
0000
0002
0000
0000
2003
,
0000
3010
0100
0001
0001
1000
0010
0100
,
0001
0000
1000
0000
0020
0000
0000
2030
0000
0000
3001
0000
0020
0000
0000
0230
,
0000
1300
0001
0010
0010
0001
1000
0010
,
0100
0000
0001
0000
2000
0000
0000
3200
0000
0000
0310
0000
0002
0000
0000
2003
,
0000
3010
0100
0001
0001
1000
0100
0010
,
0100
1000
0004
0000
0000
0000
0000
0000
,
0003
0000
1000
2000
0000
3010
0100
0001
,
0200
0000
0310
0020
0000
1030
0001
0100
,
0002
4003
0000
3040
,
0000
0430
0000
0304
,
0003
0000
1000
2000
0000
3001
0010
0200
,
0000
1300
0001
1000
0010
1000
0010
1000
,
0002
0043
0000
0000
,
0000
0000
0430
0000
0000
0000
1300
0001
,
2000
0000
3010
0100
0100
0001
1000
0100
,
0010
0000
0100
0000
2000
0000
0000
3002
0000
0000
0103
0000
0020
0000
0000
0230
,
0000
0301
1000
0100
0100
0010
0001
0010
,
0100
0000
1000
0000
0002
0000
0000
2003
0000
0000
3010
0000
0200
0000
0000
0320
,
0000
1030
0001
0010
0010
0001
1000
0010
,
0100
0000
0010
0000
2000
0000
0000
3002
0000
0000
0013
0000
0200
0000
0000
2300
,
0000
3001
0100
0010
0010
0100
0001
1000
,
0100
0010
0400
0000
0000
0000
0000
0000
,
0300
0000
0010
0001
0010
0100
1000
0001
,
1000
0010
0100
0010
1000
0001
4000
0000
,
0000
0000
0000
0000
3004
0040
0000
0000
0000
0000
0000
0000
0000
0000
0000
0000
,
0000
0000
0000
0000
,
0033
0000
0001
2000
0000
3100
0020
0000
,
0032
1003
0010
1000
0001
0010
0200
0000
,
2300
3400
0000
0000
,
0300
0000
0000
0000
4000
0004
0000
0000
0000
0000
0000
0000
0000
0000
0000
0000
,
3003
0000
0002
0000
2003
0000
3010
0100
,
0020
0000
2030
0000
3002
0000
0103
0010
,
0200
0000
0302
0000
2003
0000
3001
0010
,
0001
1000
0400
0000
0000
0000
0000
0000
,
0300
0000
0020
0000
0032
0000
1003
0010
,
2000
0000
3002
0000
0023
0000
0130
0010
,
0200
0000
2300
0000
3002
0000
1003
0010
,
2000
3004
0000
0000
,
0003
0000
0000
0000
4000
0004
0000
0000
0000
0000
0000
0000
0000
0000
0000
0000
,
3003
0000
400M
3000
04M0
0300
M040
0030
,
0M04
0000
0003
0000
4000
0040
0000
0000
0000
0000
0000
0000
0000
0000
0000
0000
,
3030
0000
0000
0000
0040
0400
0000
0000
0000
0000
0000
0000
0000
0000
0000
0000
,
0330
0000
0000
0000
0400
0004
0000
0000
0000
0000
0000
0000
0000
0000
0000
0000
,
0000
0000
0000
0303
,
M000
00M2
2M03
320M
,
M320
0M32
20M3
3M20
,
203M
0000
0000
0000
3004
0400
0000
0000
0000
0000
0000
0000
0000
0000
0000
0000
,
0000
0000
0000
0000
,
0000
0000
0303
0000
M100
0020
0000
1030
,
0M01
1000
0400
0000
000M
0000
0310
0001
,
M020
0000
0130
1000
02M0
0000
2300
0000
,
3M02
0000
0013
0200
M000
0310
0002
0000
,
20M3
0000
0000
0000
3040
0400
0000
0000
0000
0000
0000
0000
0000
0000
0000
0000
,
0000
0000
0000
0000
,
0330
0400
0304
4003
,
3040
0430
0000
0300
,
0002
4003
0000
0000
,
0000
0000
3000
0000
0001
0010
0001
0000
,
2000
3000
110M
0000
00M0
0000
M000
0000
,
0000
0200
0300
0110
000M
0000
M000
0000
,
0M00
0040
0000
0000
,
0034
0000
0000
0000
,
0000
4003
0000
0000
0000
0000
3200
0000
,
0000
0340
0430
4300
,
3004
0000
0023
0000
0000
0034
0000
0000
,
0000
1003
0010
1000
0001
0200
0000
0000
,
0310
1000
0020
0000
2030
0000
3001
0010
,
0002
0000
2003
0000
3010
0100
0040
0000
,
0000
0030
2000
3002
,
1003
0020
0000
0200
0030
0000
0000
0301
,
1000
0002
0000
0023
0000
0031
1000
0002
,
0000
0203
0000
0304
0000
0000
0000
0000
,
0003
0000
1000
0100
2000
0000
3002
0000
,
0203
0000
0310
1000
0020
0000
0230
0000
,
0302
4003
3040
0430
,
0304
0000
1003
0100
2000
0000
3001
0010
,
0002
4003
0000
0000
,
3000
0040
0000
0000
,
0030
0000
0100
0001
0400
0000
0000
0000
,
0000
0000
0000
0000
,
0300
0000
0002
0000
0000
2003
0000
3010
,
0200
0000
0000
0000
0301
0000
1000
0000
0000
0020
0000
0000
0000
0230
0000
0000
,
0000
0302
0000
0000
4003
0004
0000
0000
0000
0000
0000
0000
0000
0000
0000
0000
,
0000
0000
0000
3003
0000
2000
0000
00MM
,
0000
3001
0100
0002
0000
2003
0000
3100
,
0010
0200
0000
2300
0000
3002
0000
0043
,
0000
0430
0000
0000
,
0000
4300
0000
0000
,
0000
0000
3001
0100
0002
0000
2003
0000
,
3200
0340
0000
0000
,
0030
0000
0100
0010
0100
0000
2000
0000
,
3001
0100
0004
0000
0000
0000
0000
0000
,
0003
0000
1000
0001
1000
0200
0000
2300
,
0000
3001
0010
0002
0000
4003
0000
0000
,
0000
3040
0000
0430
,
0000
0300
0002
0203
,
0320
0000
0000
0000
203M
0000
0000
3002
0000
0000
0013
0000
M200
0000
0000
2300
,
0000
3001
02M2
0000
0000
0303
0000
0100
,
0010
0000
1000
0000
1M01
0000
0000
0002
0000
0000
0103
0000
002M
0000
0000
2030
,
0000
0000
3001
0000
M021
0000
0000
0100
0000
0000
0130
0000
010M
0000
1000
0000
,
0001
0000
0100
0000
M120
0000
0000
2030
0000
0000
3001
0000
0M20
0000
0000
0130
,
0000
0000
1000
0000
10M1
0000
0000
0002
0000
0000
0013
0000
M200
0000
0300
0000
,
0000
0000
0010
0000
0M12
0000
0000
2003
0000
0000
3010
0000
020M
0000
0000
0302
,
0000
1003
0M40
0000
000M
0000
M000
0000
,
000M
0M30
2000
3002
,
0013
0220
0000
0030
,
1300
0000
0001
0000
0000
0020
0000
0000
,
0130
0000
2100
0000
0000
0002
0000
0000
,
3000
0000
0003
0200
,
0320
0000
1030
0000
0000
0002
0000
0000
,
0013
0000
0100
0000
0000
2000
0000
0000
,
3001
0040
0000
0000
,
0000
0030
0002
2003
,
3001
0022
0000
0003
,
0130
1000
0001
0000
0000
0200
0000
0000
,
0310
0000
2000
0000
3001
0020
0000
0000
,
0031
2000
3000
0020
,
1030
0000
0002
0000
0013
0200
0000
0000
,
1300
1001
0002
0203
,
0320
0000
2030
0000
3001
0020
0000
0130
,
2000
0000
3002
0000
1003
0020
0000
0130
,
0002
0000
2003
0000
3100
0020
0000
0130
,
2000
0000
3002
0000
0103
0020
0000
1030
,
0002
0000
0023
0000
0130
2000
0000
3001
,
0200
0000
0320
0000
1030
0002
0000
0013
,
0200
0000
2300
0000
3001
0200
0000
0310
,
2000
3004
0000
0000
,
0003
0000
2000
0000
3100
0020
0000
0130
,
2000
0000
3002
0000
0103
0020
0000
0130
,
0002
0000
2003
0000
3100
0020
0000
0031
,
2000
0000
3020
0000
0130
0002
0000
1003
,
0200
0000
0320
0000
0031
2000
0000
3010
,
0200
0000
0302
0000
1003
0200
0000
0310
,
0002
4003
0000
0000
,
0000
0000
0000
0000
,
3000
0000
0001
0010
0001
1000
000M
0010
,
0M00
1000
00M0
0001
0M00
1000
0100
1000
,
0001
0M00
1000
0010
1000
0001
0M00
0010
,
M000
0001
00M0
1000
000M
0010
0100
0010
,
1000
0M00
0001
0100
0001
1000
00M0
0100
,
M000
0010
0M00
0001
00M0
1000
0010
1000
,
0001
4004
0000
0000
,
0000
0000
0000
0000
,
0000
0000
0000
0000
,
0000
0000
0000
0000
,
3003
0000
1000
0100
2000
0000
3001
0100
,
0002
0203
0000
0302
,
0000
0000
0000
4003
0000
0000
0000
0000
0000
30M1
0000
0100
,
M000
0001
0000
2002
0000
0000
0MM0
0000
0000
3003
0000
0000
;

//---------------dance-single - Novice----------------
#NOTES:
     dance-single:
     Ace Of Hearts (2012):
     Beginner:
     6:
     0.364,0.313,0.086,0.688,0.005:
0000
0000
0000
0000
,
0001
0010
0001
0000
,
1000
0010
1000
0004
,
1003
0100
1000
0000
,
0001
0100
0001
0000
,
2002
0000
0000
00M0
,
0000
0000
3003
0000
,
1000
0010
1000
0000
,
2002
0M00
3003
0000
,
0001
0100
0001
0000
,
1000
0001
1000
0400
,
0310
0001
0010
0000
,
0001
1000
0001
0000
,
2002
0000
0000
00M0
,
0000
0000
3003
0000
,
1000
0010
1000
0000
,
0001
10M0
1001
0000
,
0001
0000
0000
0002
0000
0000
0003
0000
,
1000
0000
0000
2000
0000
0000
3000
0000
,
0100
0000
0000
0200
0000
0000
0300
0000
,
0010
0000
0000
0020
0000
0000
0030
0000
,
0100
0000
0000
0200
0000
0000
0300
0000
,
1000
0000
0000
2000
0000
0000
3000
0000
,
0004
0000
0000
0000
,
0000
0000
0003
0000
,
1000
0000
0000
2000
0000
0000
3000
0000
,
0010
0000
0000
0020
0000
0000
0030
0000
,
0100
0000
0000
0200
0000
0000
0300
0000
,
0001
0000
0000
0002
0000
0000
0003
0000
,
1000
0000
0000
2000
0000
0000
3000
0000
,
0100
0000
0000
0200
0000
0000
0300
0000
,
4000
0000
0000
0000
,
0000
0000
3000
0000
,
0M00
0001
0010
0001
,
1000
1000
0000
0010
,
200M
0000
0000
3001
0000
0010
0000
0002
,
0000
0003
0000
1000
,
0M10
1000
0010
0100
,
0020
0000
0000
2030
0000
0000
3001
0000
,
0200
0000
0000
0320
0000
0000
0000
0230
,
0000
0000
0300
0000
,
0000
0010
1000
1000
,
0002
0000
0000
0203
0000
0000
0301
0000
,
1000
0000
0001
0000
1000
0000
0000
2000
,
0000
0000
3000
0010
,
0100
0000
0000
0200
0000
0000
0301
0000
,
0001
0000
0000
0002
0000
0000
1003
0000
,
1000
0000
0000
2000
0000
0000
3100
0000
,
0200
0000
0300
0000
,
0000
0010
0001
0010
,
0001
0000
0001
1000
,
0010
0000
1000
0000
0020
0000
0000
0230
,
0000
0000
0300
0001
,
0001
0000
0000
0002
0000
0000
1003
0000
,
1000
0000
0000
2000
0000
0000
3010
0000
,
0020
0000
0000
0130
0000
0001
0000
0200
,
0000
0300
0001
1000
,
0001
0000
0000
0002
0000
0000
1003
0000
,
0100
0000
0000
0200
0000
0000
0310
0000
,
0001
0000
0000
0002
0000
0000
1003
0000
,
0200
0000
0300
0010
,
0001
0000
0000
2000
0000
0000
3001
0000
,
0100
0000
0000
0020
0000
0000
1030
0000
,
0002
0000
00M0
0000
,
0003
0000
0000
0000
,
0202
0000
0000
0303
,
2020
0000
0000
3030
,
2002
0000
0000
0000
,
3003
0000
0000
0000
,
0001
0000
0000
0002
0000
0000
0013
0000
,
0100
0000
0000
2000
0000
0000
3001
0000
,
0100
0000
0000
0020
0000
0000
1030
0000
,
0002
0000
0000
0003
,
1000
0000
0000
2000
0000
0000
3001
0000
,
0100
0000
0000
0200
0000
0000
0300
0000
,
0001
0000
0000
0002
0000
0000
1003
0000
,
0010
0000
0000
0020
0000
0000
0030
0000
,
0100
0000
0000
0200
0000
0000
0301
0000
,
2000
0000
0000
3002
0000
0000
0103
0000
,
0020
0000
000M
0000
,
0030
0000
0000
0000
,
2020
0000
0000
0000
,
0000
0000
3030
0000
,
0202
0000
0000
0000
,
0000
0000
0303
0000
,
0001
0000
0000
0002
0000
0000
1003
0000
,
0100
0000
0000
0020
0000
0000
0130
0000
,
2000
0000
0000
0000
,
3000
0000
0000
0000
,
2002
0000
0000
0000
,
0000
0000
3003
0000
,
0202
0000
0000
0000
,
0000
0000
0303
0000
,
0002
0000
0000
2003
0000
0000
0000
0000
,
3001
0100
0001
1000
,
0020
0000
0130
0000
,
0002
0000
1003
0000
,
0200
0000
0310
0000
,
0001
0000
0000
0002
0000
0000
0003
0000
,
1000
0000
0000
0200
0000
0000
0300
0000
,
0010
0000
0000
0002
0000
0000
0003
0000
,
1000
0000
0000
1000
0000
0000
0001
0000
,
0004
0000
0000
0003
,
0100
0000
0000
0200
0000
0000
0300
0000
,
0010
0000
0000
0020
0000
0000
0030
0000
,
4000
0000
3000
0000
,
0001
0000
0000
0002
0000
0000
0003
0000
,
0010
0000
0020
0030
,
0100
0000
0200
0300
,
0040
0000
0000
0000
,
0031
1000
0001
0000
,
02M2
0000
M303
0000
,
00M0
0000
0M00
0000
,
M000
0001
1000
0001
,
0100
0200
0300
0001
,
1000
0000
0001
0000
1000
0000
0000
0200
,
0000
0000
0300
0010
,
0001
0010
0001
0000
,
0010
0000
0000
0020
0000
0000
013M
0000
,
1000
0000
0100
0000
1000
0000
0000
0M02
,
0000
0000
0000
0000
,
00M3
1000
0010
1000
,
0M01
0000
0001
0100
,
00M1
0000
0000
1000
0000
0100
0000
2000
,
000M
0000
0000
3000
0000
0000
0001
0000
,
M100
0000
0100
0010
,
010M
0000
0000
0200
0000
0000
0310
0000
,
2M00
0000
0000
3001
0000
0100
0000
0002
,
0000
0000
1003
0100
,
1000
0000
0000
2000
0000
0000
3001
0000
,
0001
0000
0000
0200
0000
0000
0310
0000
,
0010
0000
0000
2000
0000
0000
3001
0000
,
0002
0000
0003
1000
,
1000
0000
0000
0020
0000
0000
0130
0000
,
0100
0000
0000
0002
0000
0000
1003
0000
,
2000
0000
00M0
0000
,
3000
0000
0000
0000
,
2200
0000
0000
3300
,
0022
0000
0000
0033
,
2002
0000
0000
0000
,
0000
0000
3003
0000
,
1000
0000
0000
2000
0000
0000
3001
0000
,
0100
0000
0000
0200
0000
0000
0310
0000
,
1000
0000
0000
2000
0000
0000
3001
0000
,
0002
0000
0003
0000
,
1000
0000
0000
2000
0000
0000
3100
0000
,
0200
0000
0000
0310
0000
0000
0000
0000
,
0001
0000
0000
0002
0000
0000
0013
0000
,
0020
0000
0000
0230
0000
0000
0300
0000
,
1000
0000
1000
0010
,
2000
0000
0000
0000
3001
0000
0000
0020
,
0000
0000
0000
0000
,
0030
0000
0000
0000
,
0220
0000
0000
0000
,
0000
0000
0330
0000
,
2200
0000
0000
0000
,
0000
0000
3300
0000
,
1000
0000
0000
2000
0000
0000
3001
0000
,
0100
0000
0000
0200
0000
0000
0301
0000
,
2000
0000
0000
0000
,
3000
0000
0000
0000
,
2020
0000
0000
0000
,
0000
0000
3030
0000
,
0202
0000
0000
0000
,
0000
0000
0303
0000
,
0002
0000
0000
2003
0000
0000
0000
0000
,
3100
0010
0100
0010
,
0001
0000
0002
0003
,
1000
0000
2000
3000
,
0010
1000
0010
0000
,
0100
0000
0000
0200
0000
0000
0300
0000
,
0001
0000
0000
0002
0000
0000
1003
0000
,
0100
0000
0000
0100
0000
0000
4000
0000
,
0000
0000
0000
0000
,
3000
0000
0000
0000
,
0001
0000
0000
0002
0000
0000
1003
0000
,
0020
0000
0130
0001
,
0400
0000
0000
0300
,
0001
0000
0000
0002
0000
0000
0000
0000
,
2003
0000
3001
0010
,
0002
0000
0013
0100
,
0040
0000
0000
0030
,
0001
1000
0001
0000
,
0M22
0000
0033
0000
0000
0000
0000
M000
,
M000
0000
0000
0000
0020
0000
0000
0000
0230
0000
0000
0000
2300
0000
0000
000M
,
300M
0000
0200
0000
0320
0000
0032
M000
,
M003
0000
0000
0000
2000
0000
0000
0000
3002
0000
0000
0023
0000
0000
0230
0000
,
230M
0000
0000
0000
0000
0000
0000
30M0
,
00M0
0000
0002
0000
0203
0000
0320
M000
,
M030
0000
0000
0000
0200
0000
0000
0000
0320
0000
0000
0000
2030
0000
0000
0M00
,
3M00
0000
0000
0000
0002
0000
0000
0000
2003
0000
0000
3200
0000
0000
0320
0000
,
M032
0000
4003
0000
,
0000
0000
0000
0000
,
3000
0001
0010
0001
,
0001
2000
0000
3020
,
0000
1030
0001
1000
,
1000
0200
0000
0320
,
0000
0130
1000
0100
,
0100
0020
0000
0032
,
0000
0013
0100
0010
,
0010
0004
0000
0003
,
0000
2000
0000
3001
,
0001
0020
0000
0130
,
0100
4000
0000
3004
,
0000
4003
0000
3040
,
0000
0130
0000
0002
,
0003
1000
0100
2000
,
3000
0004
0000
0000
,
0003
4000
0000
0000
,
3000
0010
1000
0010
,
0010
0200
0000
0302
,
0000
1003
0100
1000
,
1000
0002
0000
0203
,
0000
0310
1000
0010
,
0010
0200
0000
0302
,
0000
1003
0100
1000
,
1000
0004
0000
0000
,
0003
1000
0100
1000
,
0001
1000
0001
0400
,
0000
0340
0000
0000
,
0000
0000
0000
0000
,
0030
2000
3000
0002
,
0003
0100
0010
0200
,
0300
0004
0000
0000
,
0003
4000
0000
0000
,
3000
0001
0010
0002
,
0003
1000
0001
2000
,
3000
0001
0100
0002
,
0003
4000
0000
0000
,
3000
0001
0100
0002
,
0003
1000
0001
2000
,
3000
0010
1000
0020
,
0030
4000
0000
0000
,
3000
0004
0000
0000
,
0003
M400
0000
00M0
,
0300
0000
0004
0400
0000
0000
0000
0000
,
0000
0000
0000
0000
,
0303
0000
0400
0040
0000
0000
0000
0000
,
0000
0000
0330
0040
,
0000
103M
1000
0M01
,
0004
00M0
0000
M003
,
0000
0400
0000
0000
,
0000
0000
0000
0300
,
0000
0000
M002
0000
0000
2003
0000
0000
,
3M01
0010
0001
2000
,
300M
0010
0100
0010
,
1M00
0002
0003
0100
,
01M0
0000
0004
4000
0000
0000
0000
0000
,
0000
0000
0000
0000
,
3003
4000
0000
3400
,
0000
0340
0000
0032
,
2003
3400
0000
0000
,
0000
0300
1000
0001
,
1000
0001
00M0
0M00
,
0000
2000
0000
3100
00M0
0000
000M
0000
,
0000
4000
0000
0000
,
3004
0000
0000
0000
,
0000
0403
0000
0000
0000
0000
0300
0000
,
0000
0004
0000
0000
,
0000
0000
2003
0000
0000
3400
0000
0000
,
0000
0000
0320
0000
0000
0032
0000
0000
,
0000
1003
0010
2000
,
0000
3001
0010
0004
,
0000
0003
1000
0100
,
0000
0020
0000
0000
0000
0000
0030
0000
,
0001
1000
0002
0000
,
0000
0203
0000
0304
0000
0000
0000
0000
,
0003
1000
0100
1000
,
0100
0010
0001
0020
,
0030
0002
0023
0230
,
2300
3001
0001
0010
,
0010
0004
0000
0000
,
0003
4000
0000
0000
,
3000
0000
0004
0040
0000
0000
0000
0000
,
0000
0000
0000
0000
,
0033
0001
1000
0002
,
0003
0000
1000
0000
0000
0020
0000
0230
,
0000
0304
0000
0000
,
0000
0000
0003
0000
0000
2000
0000
0M00
,
0000
3000
0000
0002
0000
0003
0000
0100
,
0000
0100
0000
0001
0000
0100
0000
0002
,
0000
4003
0000
0000
,
3000
0004
0000
0000
,
0003
1000
1000
0100
,
0100
0040
0000
0000
,
0030
0001
1000
0002
,
0003
4000
0000
0000
,
3000
0000
0020
0000
0000
0230
0000
0000
,
0000
0301
0000
0001
0000
4000
0000
0000
,
0000
3004
0000
0043
,
0000
0000
0030
0000
,
0000
M220
0000
0000
,
0330
220M
0000
0000
,
3300
20M2
0000
0000
,
3003
M202
0000
0000
,
0303
022M
0000
0000
,
0330
2M20
0000
0000
,
3030
20M2
0000
0000
,
3003
0M04
0000
00M0
,
0000
M003
0000
0000
,
0000
0022
0000
0000
,
0000
0000
0000
0033
,
0000
0220
0000
0000
,
0000
0000
0000
0330
,
0000
0000
0100
0000
0000
0200
0000
0000
,
1300
0000
0001
0000
0000
2000
0000
0000
,
3001
0020
0000
0000
,
0000
0030
0000
0000
,
0000
0220
0000
0000
,
0000
0000
0000
0330
,
0000
2200
0000
0000
,
0000
0000
0000
3300
,
0000
0000
2000
0000
0000
3002
0000
0000
,
0000
1003
0010
1000
,
0001
0000
0010
0000
0000
0020
0000
0000
,
0030
0000
0100
0000
0000
0200
0000
0000
,
0300
0000
1000
0000
0000
2000
0000
0000
,
3000
0000
0001
0000
0000
0002
0000
0000
,
0003
0000
0100
0000
0000
0200
0000
0000
,
0300
0000
0010
0000
0000
0020
0000
0000
,
0030
0000
1000
0000
0000
2000
0000
0000
,
3000
0004
0000
0000
,
0003
0000
1000
0000
0000
2000
0000
0000
,
3000
0000
0100
0000
0000
0200
0000
0000
,
0300
0000
0010
0000
0000
0020
0000
0000
,
0030
0000
0001
0000
0000
0002
0000
0000
,
0003
0000
1000
0000
0000
2000
0000
0000
,
3000
0000
0010
0000
0000
0020
0000
0000
,
0030
0400
0000
0000
,
0000
0000
0000
0000
,
0300
0000
M001
0000
0000
0001
0000
0000
,
00M0
1000
0000
0001
0000
0000
0010
0000
,
000M
0000
0100
0000
0000
0100
0000
0000
,
00M0
1000
0000
0100
0000
0000
0010
0000
,
M000
0000
0100
0000
0000
1000
0000
0001
,
00M0
1000
0000
1000
0000
0000
001M
0000
,
0000
0440
0000
0000
,
0000
0000
0000
0000
,
0000
0000
0000
0000
,
0000
0000
0000
0000
,
0330
0100
0001
0100
,
0001
2000
0000
3200
,
0000
0340
0000
0M31
,
1000
2002
0MM0
3003
;
