#TITLE:Super Affection;
#SUBTITLE:;
#ARTIST:Minami Kuribayashi, Miyuki Hashimoto, Aki Misato, Falan, Yocuza* & Rino;
#TITLETRANSLIT:;
#SUBTITLETRANSLIT:;
#ARTISTTRANSLIT:;
#GENRE:Silly J-Pop;
#CREDIT:Ace Of Hearts;
#BANNER:Super Affection - bn.png;
#BACKGROUND:Super Affection - bg.png;
#LYRICSPATH:Super Affection Lyrics.lrc;
#CDTITLE:Ace Of Hearts.png;
#MUSIC:Super Affection.ogg;
#OFFSET:0.960;
#SAMPLESTART:65.880;
#SAMPLELENGTH:12.000;
#SELECTABLE:YES;
#DISPLAYBPM:92.000:184.000;
#BPMS:0.000=184.000,138.000=92.000,158.000=368.000,158.500=184.000,159.500=368.000,160.000=184.000,161.000=368.000,161.500=184.000,162.500=368.000,163.000=184.000,164.000=368.000,164.500=184.000,165.000=368.000,165.500=184.000;
#STOPS:158.000=0.082
,159.500=0.082
,161.000=0.082
,162.500=0.082
,164.000=0.082
,165.000=0.082
;
#BGCHANGES:2.750=Carnival Phantasm OP.avi=1.000=1=0=1===CrossFade==,
99999=-nosongbg-=1.000=0=0=0 // don't automatically add -songbackground-
;
#KEYSOUNDS:;

//---------------dance-single - Hard----------------
#NOTES:
     dance-single:
     Ace Of Hearts (2013):
     Hard:
     9:
     0.856,0.178,0.307,1.000,0.180: // measure 1
0000
0000
0000
0000
0000
0000
0000
0000
0000
0000
0000
0000
4000
0040
0000
0000
,  // measure 2
0000
0000
0000
3030
1000
0001
0000
0001
,  // measure 3
2000
0000
3020
0000
0430
0300
0202
0300
,  // measure 4
2003
0000
3100
0020
0030
0010
0100
1000
,  // measure 5
0002
0000
0203
0310
2000
0000
3020
0000
,  // measure 6
0230
0000
0302
0000
2003
0000
0000
3010
,  // measure 7
0400
0000
0301
0010
0200
0300
2200
0300
,  // measure 8
3001
0100
0001
2000
3000
1000
0001
0010
,  // measure 9
0200
0000
0000
0300
0220
0000
0030
0000
2300
0000
0000
0000
3001
0000
0000
0000
,  // measure 10
0200
0000
0310
0000
1000
0002
0000
0013
,  // measure 11
0100
0010
0001
2000
0000
3010
0200
0001
,  // measure 12
0000
0310
2000
3010
0000
1000
0002
1003
,  // measure 13
0020
0030
0000
0000
0220
0330
0000
0000
0000
0000
0100
0000
0002
0000
0103
0000
,  // measure 14
0000
0001
2000
3001
0000
0010
0002
0013
,  // measure 15
0200
0300
0000
0000
2200
3300
0000
0000
0000
0000
1000
0000
0002
0000
1003
0000
,  // measure 16
0000
0010
2000
3010
0000
0100
0002
0103
,  // measure 17
0020
0030
0000
0000
2020
3030
0000
0000
0000
0000
1000
0000
0002
0000
1003
0000
,  // measure 18
0000
0001
0200
0301
0000
1000
0200
1300
,  // measure 19
0002
0003
0000
0000
0202
0303
0000
0000
0220
0000
0300
0000
2030
0000
0000
0000
,  // measure 20
3001
0010
0100
2000
0000
3004
0000
0000
,  // measure 21
0003
0010
0100
0020
0000
0000
0030
0000
,  // measure 22
0000
0001
1000
0020
0000
0130
0000
0002
,  // measure 23
0000
1003
0100
0020
0000
0030
0200
0000
,  // measure 24
1300
0001
0100
0020
0000
0430
0000
0000
,  // measure 25
0300
0000
0020
0200
0000
0000
0000
0330
,  // measure 26
0000
0010
1000
0002
0000
1003
0100
0020
,  // measure 27
0000
0000
0000
0000
0000
0000
0030
0000
0220
0000
0000
0330
4200
0000
0000
3300
,  // measure 28
1000
0001
0100
0020
0000
1030
0004
0000
,  // measure 29
0000
1003
0010
0400
0000
0000
0302
0000
,  // measure 30
1003
0010
1000
0002
0000
1003
0010
0200
,  // measure 31
0000
0000
0300
0000
0001
0100
0010
1000
,  // measure 32
0010
0100
0001
1000
0001
0010
0100
2000
,  // measure 33
0000
3200
0000
0340
0000
0031
1000
0001
,  // measure 34
1000
0000
0001
0010
0001
0000
1000
0100
2000
0000
0000
0000
3002
0000
0200
0000
,  // measure 35
0000
0000
0000
0000
0303
0000
0000
0000
2002
0000
3003
1000
0100
0010
0001
0010
,  // measure 36
0100
2000
0000
3200
0000
0320
0000
0031
1000
0001
1000
0020
0000
0000
0030
0000
,  // measure 37
0100
0001
0100
0020
0000
0000
0030
0000
0220
0000
0330
0100
0001
1000
0001
0020
,  // measure 38
0000
0230
0000
2300
0000
3004
0000
0003
1000
0010
0000
0220
0000
0000
0330
0000
,  // measure 39
0100
0002
0000
2000
0000
0000
0000
3003
2200
0000
3300
1000
0001
0100
0010
0100
,  // measure 40
0001
2000
0000
3200
0000
4300
0000
3000
2002
0000
3003
0000
0001
0000
0202
0000
,  // measure 41
0303
0100
0220
0330
0010
2020
3030
1000
,  // measure 42
2002
3003
2200
3300
0042
0000
0033
0000
,  // measure 43
0001
1000
0100
0020
0000
0130
1000
0001
,  // measure 44
0100
0000
0002
0000
0000
0000
0003
0000
1000
0000
0001
0010
0001
0000
1000
0100
,  // measure 45
1000
0000
0001
0100
0001
0000
1000
0010
1000
0000
0001
0000
2000
0000
0020
0000
,  // measure 46
3000
0130
0001
1000
0000
0100
0010
0002
,  // measure 47
0000
0003
1000
0100
0020
0030
0022
0033
,  // measure 48
0002
0003
1000
0020
0030
0010
1000
0001
,  // measure 49
0200
0000
0320
1030
0001
0000
0020
0000
,  // measure 50
0130
0000
2000
0000
3002
0000
0000
1003
,  // measure 51
0200
0000
0310
0001
2000
3000
2020
3000
,  // measure 52
0130
0001
1000
0002
0003
0001
1000
0010
,  // measure 53
0200
0300
0202
0300
1003
0000
0200
0000
,  // measure 54
0310
0000
0200
0000
1300
0002
0000
0103
,  // measure 55
0010
0000
1000
0000
0002
0000
0000
0000
4003
0000
0000
3000
2200
0000
3000
0000
,  // measure 56
0320
0000
0130
2000
3000
1000
0001
0100
,  // measure 57
0020
0000
0230
0301
2000
0000
3020
0000
,  // measure 58
0230
0000
0302
0000
2003
0000
0000
3010
,  // measure 59
0200
0000
0301
1000
0020
0030
0220
0030
,  // measure 60
0301
1000
0100
2000
0000
3001
0010
0100
,  // measure 61
2000
3000
2002
3000
0103
0100
0020
0000
,  // measure 62
2030
0000
3002
0000
0013
0200
0000
1300
,  // measure 63
0001
0100
0001
2000
0000
3001
0020
0100
,  // measure 64
0000
0031
2000
3001
0000
0100
0002
0103
,  // measure 65
0020
0030
0000
0000
2020
3030
0000
0000
0000
0000
1000
0000
0002
0000
1003
0000
,  // measure 66
0000
0001
0020
0031
0000
0010
0200
0310
,  // measure 67
0002
0003
0000
0000
2000
3000
2200
0000
0000
0000
0000
0000
0000
0000
0000
0000
,  // measure 68
0000
3300
0000
0000
0000
0000
0000
0000
;

//---------------dance-single - Expert----------------
#NOTES:
     dance-single:
     Ace Of Hearts (2013):
     Challenge:
     11:
     1.000,0.640,0.530,1.000,0.350:
0000
0000
0000
0000
0000
0000
0000
0000
0000
0000
0000
0000
0001
0010
0100
0010
,
0001
0000
1000
0100
0010
0001
0010
0100
2000
0000
3002
0000
0003
0000
0201
0000
,
0320
0000
0000
0000
2030
0000
0000
3000
2002
0000
0000
0000
0010
0000
3003
0000
,
0002
0000
0103
2000
3000
1000
0100
0001
,
2000
0000
3000
0000
2200
3000
0310
0000
0002
0000
0000
0000
2003
0000
0000
0000
,
3020
0000
0000
0000
0230
0000
0000
0000
0320
0000
1030
0001
1000
0000
0100
0000
,
0010
0001
0010
0000
0001
0000
2000
0000
0002
0000
0000
0000
0010
0000
3003
0000
,
1000
0001
0010
2000
3000
1000
0010
0002
,
2000
0000
0010
3003
1010
0000
0020
0030
,
0110
0000
0200
0000
0301
2000
0000
3001
,
0100
1000
0100
0002
0000
1003
0200
0310
,
0011
0001
2000
3010
0110
0100
0002
1003
,
2200
0000
0001
3300
1001
0001
0200
0310
,
1010
1000
0002
0013
0110
0100
2000
3001
,
0202
0000
1000
0303
1001
1000
0200
0310
,
0011
0001
2000
3010
0110
0100
0002
1003
,
2020
0000
0001
3030
1001
0001
0020
0130
,
1100
1000
0002
0103
0110
0010
2000
3001
,
0022
0000
1000
0033
2002
0003
3020
0000
,
0130
0010
0001
0020
0000
4030
0000
0000
,
3000
0001
0010
0200
0000
0000
0300
0000
,
0000
1000
0100
0002
0000
2003
0000
3020
,
0000
0031
1000
0010
0220
0030
0302
0000
,
1003
0010
0001
0020
0000
4030
0000
0000
,
3000
0000
0001
0202
0000
0000
0000
0303
,
0000
0001
0100
2000
0000
3100
0002
2003
,
3010
0100
0010
0000
1000
0000
0001
0000
0022
0000
0003
0030
0420
0000
0030
0000
,
1300
0001
0100
0020
0000
0130
0004
0000
,
0000
1003
0010
0004
0000
0000
2003
0000
,
3100
0001
1000
0200
0000
0310
0001
2000
,
0000
3001
0010
0100
1000
0100
0001
0100
,
1000
0010
0001
0010
1000
0001
1000
0020
,
0000
0230
0000
0304
0000
1003
0001
0010
,
0100
0000
1000
0100
0010
0000
0001
0010
0200
0000
0000
0000
2300
0000
0002
3000
,
0103
0000
0010
1000
0010
0000
0100
0000
0202
0000
0303
0001
1000
0100
0010
0200
,
0000
0302
0000
0203
0000
2300
0000
3001
0010
1000
0010
0002
0000
0000
0003
0000
,
1000
0000
0010
0000
0001
0000
0020
0000
1030
0000
0001
0010
0001
0000
1000
0000
2002
0000
0000
0000
3003
0000
0001
0000
0100
0000
1000
0000
0100
0000
0002
0000
,
0000
2003
0000
3200
0000
0340
0000
0030
0100
0010
0000
0022
0000
0000
0033
0000
,
2001
0000
0020
0000
3000
0000
0200
0030
0301
0000
1000
0100
1000
0000
0001
0000
0202
0000
0003
0000
0310
0000
1000
0000
0001
0000
0010
0000
1000
0000
0010
0000
,
0001
2000
0000
3200
0000
0340
0000
0030
0022
0033
0001
1000
0100
0000
0220
0330
,
0010
0001
1000
0000
2020
3030
0010
0100
0001
0000
2002
3003
1000
0100
0010
0000
,
0022
0033
2002
0000
0040
3030
0103
0001
,
1000
0200
0300
0022
0030
1003
0010
0001
,
0020
0000
2030
0000
3002
0000
0023
0030
2100
0000
3001
0100
0010
0000
0010
1000
,
0100
0000
0100
1000
0001
0000
0001
0100
0010
0000
1000
0000
0002
0000
0020
0000
,
0003
0130
1000
1001
0000
0001
0200
0020
,
0300
0000
1030
0010
0100
0001
0100
0020
2000
0000
0000
0000
0001
0000
3030
0000
,
2000
0000
3100
0002
0003
0001
0100
1000
,
0002
0000
0003
0000
0202
0003
0310
0000
2000
0000
0000
0000
3200
0000
0000
0000
,
0302
0000
0000
0000
2003
0000
0000
0000
3020
0000
0031
1000
0001
0000
1000
0000
,
0010
0100
0010
0000
1000
0000
0002
0000
0200
0000
0000
0000
1000
0000
0303
0000
,
0001
1000
0010
0002
0003
0001
0010
2000
,
0200
0000
0000
0000
0001
0000
3300
0000
0110
0000
0010
0001
0010
0000
0001
1000
,
0001
0000
1000
0000
0010
0000
0100
0001
0100
0000
0001
1000
0001
0000
1000
0010
,
0100
0001
0100
0010
1000
0001
0010
0200
2000
0000
0000
0000
0010
0000
3300
0000
,
2000
0000
3100
0002
0003
0001
0100
1000
,
0002
0000
0003
0000
0022
0003
0130
0000
2000
0000
0000
0000
3020
0000
0000
0000
,
0032
0000
2003
0000
3200
0000
0000
0310
,
2000
0000
3001
0200
0002
0000
0010
0303
,
0100
0001
0100
2000
3000
1000
0100
0002
,
2000
0000
0010
3003
0001
0100
0020
0000
,
2030
0000
3002
0000
0103
0020
0000
0130
,
1000
0100
0001
2000
0000
3100
0020
0031
,
1001
1000
0020
0130
0101
0001
2000
3100
,
0220
0000
0001
0330
0011
0001
2000
3010
,
0110
0100
0002
1003
1100
0100
0020
0031
,
2002
3003
1000
0000
0020
0030
0220
0000
0000
0000
0000
0000
0000
0000
0000
0000
,
0000
0330
0000
0000
0000
0000
0000
0000
;

//---------------dance-single - Medium----------------
#NOTES:
     dance-single:
     Ace Of Hearts (2013):
     Medium:
     7:
     0.603,0.000,0.000,1.000,0.106:
0000
0000
0000
0000
,
0000
0000
0000
0000
,
0002
2003
3040
0030
,
2000
0000
3001
0020
0000
0031
1000
0000
,
0200
0310
0001
2000
,
3001
0000
0200
0000
0320
0000
0000
1030
,
0004
1003
0020
0030
,
2000
0000
3001
0020
0000
0130
1000
0000
,
0002
0003
2000
3010
,
0200
0000
0301
0000
1000
0002
0000
0013
,
0200
0000
1300
0002
0000
1003
0200
0000
,
0000
0010
0300
0001
,
1000
0000
1000
0000
0000
0002
0103
0000
,
0000
0020
1030
0000
0000
0002
0013
0000
,
0100
0000
0100
0000
0000
2000
3001
0000
,
0000
0200
0301
0000
0000
2000
3100
0000
,
0010
0000
0010
0000
0000
0002
0013
0000
,
0000
0200
1300
0000
0000
0002
0103
0000
,
0010
0010
0000
2000
,
3002
0000
1003
0010
0000
0400
0000
0000
,
0300
0000
0001
2000
0000
0000
3000
0000
,
0000
0001
0000
0020
0000
0230
0000
2300
,
0000
0000
3001
0200
0000
0300
0020
0000
,
1030
0000
0001
0020
0000
0430
0000
0000
,
0300
0000
2000
0002
0000
0000
0000
3003
,
0000
0000
1000
0020
0000
0130
0000
0002
,
0000
0000
0000
0003
2000
3000
4000
0000
,
3001
0000
0100
0020
0000
0130
0004
0000
,
0000
1003
0000
0400
0000
0000
0320
0000
,
0032
0000
1003
0200
0000
0000
1300
0002
,
0000
0000
0003
0000
1000
0010
1000
0000
,
0001
1000
0001
0000
1000
0000
0001
0200
,
0000
0320
0000
2030
0000
0000
3002
0000
,
0013
0100
0010
0000
0002
0000
2003
0200
,
0000
0000
0000
0000
0000
0000
0000
0000
3300
0000
0000
0100
0020
0000
0000
0032
,
0000
2003
0000
3200
0000
0320
0000
0000
0130
0000
0000
0200
0000
0000
0300
0000
,
1000
0000
0000
2000
0000
0000
3000
0000
0000
0000
0000
0001
0200
0000
0000
0320
,
0000
2030
0000
3002
0000
4003
0000
3000
0100
0020
0000
0002
0000
0000
0033
0000
,
0010
0200
0000
2000
0000
0000
0000
0000
3300
0000
0000
1000
0002
0000
0203
0000
,
0310
0100
0000
0002
0000
2003
0000
0000
3002
0000
0000
0000
0013
0000
0200
0000
,
0000
1300
0002
0000
1003
0020
0000
0130
,
0002
2003
3040
0030
,
1000
0002
0000
0023
0000
0130
2000
0000
,
3001
0200
0000
0300
0010
1000
0010
0000
,
1000
0001
1000
0000
0002
0000
0203
0020
,
0000
0000
0000
0300
0000
0000
0000
0030
,
0000
0200
0302
0003
,
2000
0000
3001
0020
0000
0130
2000
0000
,
3001
0010
0200
2300
,
3002
0000
0203
0000
0302
0000
0000
1003
,
0200
0320
0032
0003
,
2000
0000
3001
0200
0000
0310
1000
0000
,
0002
0003
1000
0200
,
0310
0000
0002
0000
1003
0020
0000
0130
,
0002
2003
3020
0030
,
2000
0000
3001
0020
0000
0130
2000
0000
,
3002
2003
3020
0230
,
0302
0000
2003
0000
3020
0000
0000
0130
,
0002
2003
3200
0300
,
0020
0000
0130
2000
0000
3001
0200
0000
,
0302
0003
2000
3020
,
0230
0000
0302
0000
1003
0200
0000
1300
,
0002
0000
0013
0200
0000
1300
0002
0000
,
0000
0000
1000
0000
0003
1000
0020
0000
,
0130
0000
0100
0000
0000
0002
0103
0000
,
0000
0020
1030
0000
0000
0002
0103
0000
,
0010
0000
0020
2000
0000
0000
0000
0000
,
0000
3030
0000
0000
0000
0000
0000
0000
;

//---------------dance-single - Easy----------------
#NOTES:
     dance-single:
     Ace Of Hearts (2013):
     Easy:
     5:
     0.304,0.000,0.032,0.445,0.000:
0000
0000
0000
0000
,
0000
0000
0000
0000
,
0001
0001
0002
0003
,
1000
0000
0000
1000
0000
0000
1000
0000
,
1000
0000
0010
0000
,
0010
0000
0100
0000
,
0100
0100
0200
0300
,
0001
0000
0000
0001
0000
0000
0001
0000
,
0001
0000
1000
0000
,
1000
0000
0100
0000
,
0100
0000
0000
0200
0000
0000
0010
0000
,
0000
0310
0000
0001
,
0001
0001
0000
1000
,
0000
1000
0000
0010
,
0010
0010
0000
0100
,
0000
0100
0000
0001
,
0001
0001
0000
1000
,
0000
1000
0000
0100
,
0100
0100
0000
0010
,
0010
0000
0000
0020
0000
0000
0030
0000
,
0000
0001
0000
0002
0000
0000
0003
0000
,
0000
0000
0000
1000
0000
1000
0000
2000
,
0000
0000
0000
3001
0000
0000
0001
0000
,
0001
0000
0000
0002
0000
0000
0003
0000
,
0000
0000
2002
0000
0000
0000
0000
3003
,
0000
0000
0000
1000
0000
0000
0000
2000
,
0000
0000
3100
0100
,
0100
0000
0000
0200
0000
0000
0300
0000
,
0000
0010
0000
0020
0000
0000
0031
0000
,
0002
0000
0000
0000
1003
0000
0000
2000
,
0000
3000
0010
0010
,
0010
0000
0020
0000
,
0030
0000
0000
2000
0000
0000
3001
0000
,
0001
0000
0000
0000
0010
0000
0000
0020
,
0000
0000
0030
0100
,
0200
0300
2000
3000
,
0002
0003
0000
0100
,
0200
0300
0020
0030
,
2000
3000
0000
0001
,
0002
0000
0003
0000
0010
0000
0000
0010
,
0000
0000
0010
0000
0000
0010
0000
0000
,
0100
0100
0200
0300
,
1000
0000
0000
2000
0000
0000
3001
0000
,
0001
0000
0010
0010
,
0010
0000
0220
0000
,
0000
0000
0330
0000
,
0000
0100
0200
0300
,
1000
0000
0000
2000
0000
0000
3001
0000
,
0001
0000
0100
0100
,
0100
0000
0020
0000
,
0130
0100
0200
0000
,
0301
0000
0000
0001
0000
0000
0001
0000
,
0002
0003
1000
1000
,
1000
0000
0200
0000
,
0310
0010
0020
0030
,
0001
0000
0000
0001
0000
0000
0001
0000
,
0002
0003
1000
1000
,
1000
0000
0010
0000
,
0100
0100
0200
0300
,
0001
0000
0000
0001
0000
0000
0001
0000
,
0002
0003
1000
1000
,
1000
0000
0002
0000
,
0013
0000
0000
0020
0000
0000
0100
0000
,
0000
0130
0000
1000
,
1000
1000
0000
0001
,
0000
0001
0000
1000
,
1000
0000
0000
2002
0000
0000
0000
0000
,
0000
3003
0000
0000
0000
0000
0000
0000
;

//---------------dance-single - Novice----------------
#NOTES:
     dance-single:
     Ace Of Hearts (2013):
     Beginner:
     2:
     0.185,0.000,0.021,0.329,0.000:
0000
0000
0000
0000
,
0000
0000
0000
0000
,
1000
0000
1000
0000
,
0001
0000
0002
0000
,
0003
0000
0010
0000
,
0010
0000
0020
0000
,
0030
0000
0100
0000
,
0100
0000
0200
0000
,
0300
0000
1000
0000
,
1000
0000
0001
0000
,
0001
0000
0002
0000
,
0000
0000
0003
0000
,
0000
0000
0000
1000
,
0000
1000
0000
2000
,
0000
3000
0000
0010
,
0000
0010
0000
0020
,
0000
0030
0000
0100
,
0000
0100
0000
0200
,
0000
0300
0000
0000
,
0001
0000
0001
0000
,
0000
0000
0001
0000
,
0000
0000
0200
0000
,
0000
0000
0300
0000
,
0001
0000
0001
0000
,
0000
0000
2002
0000
,
3003
0000
2000
0000
,
3000
0000
0010
0000
,
0010
0000
0010
0000
,
0000
0000
0100
0000
,
0100
0000
0200
0000
,
0300
0000
0001
0000
,
0001
0000
0002
0000
,
0003
0000
0010
0000
,
0010
0000
0020
0000
,
0030
0000
0100
0000
,
0100
0000
0200
0000
,
0300
0000
1000
0000
,
1000
0000
2000
0000
,
3000
0000
0001
0000
,
0001
0000
0000
0000
0200
0000
0000
0300
,
0000
0000
0200
0000
0000
0300
0000
0000
,
0010
0000
0010
0000
,
0000
0000
2000
0000
,
3000
0000
0001
0000
,
0001
0000
0002
0000
,
0000
0000
0000
0000
,
0003
0000
0100
0000
,
0100
0000
0200
0000
,
0300
0000
0001
0000
,
0001
0000
0002
0000
,
0003
0000
1000
0000
,
1000
0000
2000
0000
,
3000
0000
0100
0000
,
0100
0000
0200
0000
,
0300
0000
0010
0000
,
0010
0000
0020
0000
,
0030
0000
0001
0000
,
0001
0000
0002
0000
,
0003
0000
1000
0000
,
1000
0000
2000
0000
,
3000
0000
0010
0000
,
0010
0000
0020
0000
,
0030
0000
0200
0000
,
0000
0000
0000
0300
,
0000
0000
0000
0001
,
0000
0001
0000
1000
,
0000
2002
0000
0000
,
0000
3003
0000
0000
0000
0000
0000
0000
;
