#TITLE:Octave Rain;
#SUBTITLE:;
#ARTIST:Saori Sakura;
#TITLETRANSLIT:;
#SUBTITLETRANSLIT:;
#ARTISTTRANSLIT:;
#GENRE:J-Techno;
#CREDIT:Ace Of Hearts;
#BANNER:Octave Rain - bn.png;
#BACKGROUND:Octave Rain - bg.png;
#LYRICSPATH:;
#CDTITLE:Ace Of Hearts.png;
#MUSIC:Octave Rain.ogg;
#OFFSET:1.260;
#SAMPLESTART:77.300;
#SAMPLELENGTH:18.000;
#SELECTABLE:YES;
#BPMS:0.000=130.000;
#STOPS:;
#BGCHANGES:2.750=Para-Sol OP.avi=1.000=1=0=1===CrossFade==,
99999=-nosongbg-=1.000=0=0=0 // don't automatically add -songbackground-
;
#KEYSOUNDS:;

//---------------dance-single - Hard----------------
#NOTES:
     dance-single:
     Ace Of Hearts (2012):
     Hard:
     8:
     0.441,0.000,0.008,0.767,0.052: // measure 1
0000
0000
0000
0000
,  // measure 2
0000
0000
0000
0000
,  // measure 3
0000
0000
0000
0000
,  // measure 4
0000
0000
0000
0000
,  // measure 5
0000
0000
0000
0000
,  // measure 6
0002
0000
1003
0020
0000
0000
0000
0000
,  // measure 7
0000
0000
0000
0000
0030
1000
0010
1000
,  // measure 8
0001
0010
0100
2000
0000
0000
0000
0000
,  // measure 9
0000
0000
3000
0000
0001
0100
0001
1000
,  // measure 10
0200
0000
0310
0002
0000
0000
0000
0000
,  // measure 11
0003
1000
0010
0200
0000
0000
0300
0001
,  // measure 12
2000
0000
3001
0200
0000
0301
1000
0020
,  // measure 13
0000
0030
0100
0002
0000
1003
0100
0010
,  // measure 14
0200
0000
1300
0002
0000
0000
0000
0000
,  // measure 15
1003
0010
1000
0000
0001
0000
0100
0000
,  // measure 16
002M
0000
0000
0230
0000
0000
M302
0000
0000
0000
0003
0000
0000
0000
1000
0100
,  // measure 17
200M
0000
0000
3002
0000
0000
0M23
0000
0000
0000
0030
0000
0000
0000
0000
0000
,  // measure 18
M200
0000
0000
2300
0000
0000
30M2
0000
0000
0000
0003
0000
0000
0000
0010
0001
,  // measure 19
M020
0000
0000
0230
0000
0000
230M
0000
0000
0000
3001
0000
0010
0000
0100
0000
,  // measure 20
0000
0000
0010
0001
0010
0200
0300
2000
,  // measure 21
0000
0000
3001
0200
0000
0320
0000
0000
,  // measure 22
0030
0000
1000
0010
0100
0020
0000
2030
,  // measure 23
0000
0000
3001
0010
0100
0020
0000
0030
,  // measure 24
0000
0000
0002
0000
2003
0000
3001
0200
,  // measure 25
0000
0000
0301
0000
2000
0000
3001
0200
,  // measure 26
0000
0000
0000
0000
0300
0001
1000
0020
,  // measure 27
0000
0130
0001
2000
0000
0000
3000
0000
,  // measure 28
0001
0100
0001
2000
0000
3100
0010
0002
,  // measure 29
0000
1003
0010
0200
0000
0301
0100
0010
,  // measure 30
0200
0000
0301
1000
0002
0000
0203
0000
,  // measure 31
0310
0100
0001
2000
0000
0000
3000
0000
,  // measure 32
0001
0100
0010
2000
0000
3001
0010
0100
,  // measure 33
1000
0001
1000
0100
0000
0010
0100
1000
,  // measure 34
0001
0200
0000
0301
1000
0100
0010
0100
,  // measure 35
1000
0001
0100
0020
0000
0000
0030
0000
,  // measure 36
0100
0001
1000
0200
0000
0310
0001
2000
,  // measure 37
0000
3010
1000
0001
0200
0000
0300
0000
,  // measure 38
0010
1000
0001
2000
0000
3010
0100
0002
,  // measure 39
0000
0013
0100
1000
0200
0000
0300
0000
,  // measure 40
0010
0100
1000
0002
0000
0103
0010
2000
,  // measure 41
0000
0000
3010
0100
0001
0200
0000
0020
,  // measure 42
0000
0000
0000
0000
0000
0330
0000
0200
,  // measure 43
0000
0301
1000
0200
0300
0010
0001
2000
,  // measure 44
0000
0002
30M0
0000
0103
0010
1000
0020
,  // measure 45
000M
0230
0000
0302
0003
1000
0100
1000
,  // measure 46
0002
0003
1000
0010
0100
0001
0100
0010
,  // measure 47
2000
0000
0000
3001
0100
0001
1000
0002
,  // measure 48
0000
0200
M003
0000
0310
0100
0001
2000
,  // measure 49
0000
3M20
0000
0230
0300
0001
1000
0100
,  // measure 50
0010
0100
1000
0001
1000
1000
0000
2200
,  // measure 51
0000
0000
3300
0000
0100
0010
0001
2000
,  // measure 52
0000
0020
3M00
0000
1030
0001
0010
0002
,  // measure 53
00M0
2003
0000
3020
0030
0100
0010
1000
,  // measure 54
0001
0100
0001
1000
0100
0010
0100
2000
,  // measure 55
0000
3001
0100
0000
0010
1000
0001
0010
,  // measure 56
M000
0200
0000
0310
0001
1000
0001
0010
,  // measure 57
000M
0100
00M0
2000
3000
0001
0100
0001
,  // measure 58
1000
0100
0010
0001
1000
0001
0010
0200
,  // measure 59
0000
0000
0000
0000
,  // measure 60
230M
0000
0000
3002
0000
0000
02M3
0000
0000
0000
0300
0000
0000
0000
0001
0100
,  // measure 61
M002
0000
0000
2003
0000
0000
3M20
0000
0000
0000
0030
0000
0000
0000
0000
0000
,  // measure 62
M200
0000
0000
0302
0000
0000
20M3
0000
0000
0000
3000
0000
0000
0000
0010
0100
,  // measure 63
002M
0000
0000
2030
0000
0000
3M02
0000
0000
0000
0013
0000
0100
0000
1000
0000
,  // measure 64
0004
4000
0000
0000
0000
0000
0000
0000
0000
0000
0000
0000
0000
0000
0000
0000
,  // measure 65
0000
0000
0000
0000
,  // measure 66
3003
0000
0000
0000
;

//---------------dance-single - Expert----------------
#NOTES:
     dance-single:
     Ace Of Hearts (2012):
     Challenge:
     10:
     0.664,0.000,0.468,0.977,0.166: // measure 1
0000
0000
0000
0000
,  // measure 2
0000
0000
0000
0000
,  // measure 3
0000
0000
0000
0000
,  // measure 4
0000
0000
0000
0000
0000
0400
0000
0000
,  // measure 5
0300
0000
0000
0000
,  // measure 6
2000
0000
3100
0020
0000
0000
0000
0000
,  // measure 7
0200
0000
0000
0300
0000
0031
1000
0010
,  // measure 8
1000
0010
0001
0020
0000
0000
0000
0000
,  // measure 9
0200
0000
0300
0000
1030
0001
0010
0100
,  // measure 10
2100
0000
3001
0020
0000
0000
0000
0000
,  // measure 11
0130
1000
0001
0200
0000
0300
0110
0010
,  // measure 12
2000
0000
3001
0020
0030
0100
1000
0002
,  // measure 13
1000
0000
0013
0200
0300
1000
0001
0010
,  // measure 14
0200
0000
0000
0300
1100
0000
1000
0000
0001
0000
0100
0000
0010
0000
0000
0000
,  // measure 15
0100
0010
0100
0000
0001
0100
0001
0100
0010
1000
0010
1000
0001
1000
0001
0010
,  // measure 16
0M22
0000
0003
M230
0000
0300
220M
0000
0000
0000
3300
0000
10M1
0000
0001
0100
,  // measure 17
M120
0000
0000
2M30
0000
3000
20M2
0000
3000
0000
0103
0000
M110
0000
0010
0000
,  // measure 18
202M
0000
0030
3M02
0000
0003
M202
0000
0300
0000
1003
0000
11M0
0000
0100
0010
,  // measure 19
M022
0000
0000
0000
0030
0000
2M03
0000
0000
0000
3000
0000
22M0
0000
0000
0000
0300
0000
0000
0000
3002
0000
0000
0000
0023
0000
0000
0000
0230
0000
0000
0300
,  // measure 20
210M
0000
3001
0100
0001
1000
0100
0020
,  // measure 21
0130
1000
0100
0001
0100
1000
0001
0100
,  // measure 22
0020
0000
1030
0010
0100
0010
1000
0002
,  // measure 23
0013
0001
0010
1000
0010
0001
1000
0020
,  // measure 24
0000
0000
0230
0000
0302
0000
1003
0200
,  // measure 25
0000
0000
0020
0300
2000
0030
3002
0200
,  // measure 26
0003
0010
0010
0000
1300
0001
0100
0020
,  // measure 27
0000
0000
0130
0000
0001
0000
1000
0000
0001
0100
0001
0100
0010
1000
0010
1000
,  // measure 28
0001
0100
1000
0200
0000
0310
1000
0001
,  // measure 29
0010
1000
0010
0002
0000
1003
0010
0100
,  // measure 30
0020
0000
0130
0010
0100
0001
1000
0001
,  // measure 31
0100
0000
1000
0000
0100
0000
0001
0100
0001
0000
1000
0000
0001
0000
0100
0000
,  // measure 32
0001
0100
1000
0200
0000
0301
1000
0100
,  // measure 33
0010
1000
0010
0002
0003
1000
0010
0100
,  // measure 34
0001
0010
0100
1000
0010
0100
0001
1000
,  // measure 35
0100
1000
0001
0020
0000
0130
1100
1000
,  // measure 36
1001
0001
0100
0120
0000
1030
0001
0201
,  // measure 37
0000
0000
0310
0000
0001
0000
0010
0000
2000
0000
0001
0000
3001
0000
0010
0100
,  // measure 38
2000
3001
0100
0120
0000
1030
0001
0021
,  // measure 39
0000
0000
0130
0000
1000
0001
0010
0000
0200
0000
1000
0000
1300
0000
0001
0000
,  // measure 40
0201
0310
1000
1002
0000
0103
0010
2010
,  // measure 41
0000
0000
3001
0010
0100
0000
1000
0000
0002
0000
0200
0000
0000
0000
0020
0000
,  // measure 42
0000
0000
0000
0000
0000
0030
0303
0002
,  // measure 43
0000
0000
1003
0000
0010
0000
0100
0010
1000
0000
0001
0000
0010
0000
0110
0000
,  // measure 44
00MM
0000
1000
0001
0010
0000
0100
0000
1000
0000
0001
0000
1000
0000
2M20
0000
,  // measure 45
3030
20M2
3003
M402
0303
0100
0010
1000
,  // measure 46
2200
3300
M01M
0001
1000
0100
0001
0100
,  // measure 47
1000
0000
0001
0010
0001
0000
1000
0000
0100
0000
0010
0001
1000
0000
1010
0000
,  // measure 48
MM00
0000
0100
0001
1000
0000
0100
0000
0010
0000
0100
0000
1000
0000
20M2
0000
,  // measure 49
3003
0M22
0033
220M
3300
1000
0001
0100
,  // measure 50
0110
0010
1000
0001
0011
0020
0030
0220
,  // measure 51
0030
0000
1300
0001
0100
0000
0010
0000
0100
0001
1000
0000
0100
0000
0010
0000
,  // measure 52
0011
0002
0000
0003
1000
0010
0100
02M2
,  // measure 53
0303
2M02
3003
240M
3300
0100
0010
0001
,  // measure 54
1000
0010
0001
0010
1000
0001
0010
0200
,  // measure 55
0000
0000
0310
0001
1000
0000
0010
0000
0100
0001
1000
0000
0100
0000
0120
0000
,  // measure 56
0000
0032
0000
1003
0010
0001
0010
2M20
,  // measure 57
3030
0000
20M2
0000
3003
0000
0001
0010
M100
0000
1000
0000
0100
0000
0010
0000
,  // measure 58
0011
0001
1000
0100
0110
0010
0001
0202
,  // measure 59
0003
0000
0310
1000
0001
0000
0010
0000
0100
0000
1000
0001
0010
0001
1000
0001
,  // measure 60
02M2
0000
0003
M320
0000
0030
202M
0000
0030
0000
3001
0000
0M11
0000
0010
0100
,  // measure 61
220M
0000
0300
30M2
0000
0003
M202
0000
0003
0000
0310
0000
101M
0000
1000
0000
,  // measure 62
22M0
0000
3000
032M
0000
0030
M022
0000
0030
0000
1003
0000
10M1
0000
0001
0100
,  // measure 63
M220
0000
0300
203M
0000
3000
1M02
0000
0000
0000
0023
0000
0230
0000
2300
3000
,  // measure 64
4004
0000
0000
0000
,  // measure 65
0000
0000
0000
0000
,  // measure 66
3003
0000
0000
0000
;

//---------------dance-single - Medium----------------
#NOTES:
     dance-single:
     Ace Of Hearts (2012):
     Medium:
     6:
     0.337,0.000,0.016,0.654,0.036: // measure 1
0000
0000
0000
0000
,  // measure 2
0000
0000
0000
0000
,  // measure 3
0000
0000
0000
0000
,  // measure 4
0000
0000
0000
0000
,  // measure 5
0000
0000
0000
0000
,  // measure 6
2000
0000
3001
0020
0000
0000
0000
0000
,  // measure 7
0000
0000
0030
0001
,  // measure 8
2000
0000
3001
0200
0000
0000
0000
0000
,  // measure 9
0000
0300
0001
1000
,  // measure 10
0020
0000
1030
0002
0000
0000
0000
0000
,  // measure 11
0003
0000
1000
0200
0000
0300
0000
0000
,  // measure 12
2000
0000
3001
0010
0000
0000
0000
0002
,  // measure 13
0000
0000
1003
0100
0000
0000
0000
0000
,  // measure 14
0020
0000
0130
2000
0000
0000
0000
0000
,  // measure 15
3004
4000
0000
0000
0000
0000
0000
0000
3003
0000
0000
0000
0000
0000
0000
0000
,  // measure 16
0001
0000
0000
0001
0000
0000
0200
0000
0000
0000
0300
0000
0000
0000
0010
0000
,  // measure 17
1000
0000
0000
1000
0000
0000
0002
0000
0000
0000
0003
0000
0000
0000
0000
0000
,  // measure 18
0010
0000
0000
0010
0000
0000
0200
0000
0000
0000
0300
0000
0000
0000
0010
0000
,  // measure 19
0001
0000
0000
0001
0000
0000
2000
0000
0000
0000
0000
0000
3001
0000
0100
0000
,  // measure 20
0000
0000
0010
0000
1000
0000
0000
0002
,  // measure 21
0000
0000
1003
0100
0000
0020
0000
0000
,  // measure 22
0030
0000
0001
0000
1000
0000
0000
0200
,  // measure 23
0000
0000
1300
0100
0000
0020
0000
0030
,  // measure 24
0000
0000
0002
0000
2003
0000
3100
0020
,  // measure 25
0000
0000
0032
0000
0023
0000
0130
2000
,  // measure 26
0000
0000
0000
0000
3000
0001
0000
0020
,  // measure 27
0000
0031
1000
0002
0000
0000
0003
0000
,  // measure 28
0020
0000
0130
2000
0000
3000
0000
0002
,  // measure 29
0000
0000
1003
0200
0000
0000
0310
0000
,  // measure 30
0002
1003
0020
1030
,  // measure 31
0002
0000
0013
0200
0000
0000
0300
0000
,  // measure 32
0020
0000
0031
2000
0000
0000
3001
0200
,  // measure 33
0000
0000
0301
1000
0000
0000
0001
0000
,  // measure 34
0010
0200
0000
0000
1300
0100
1000
0000
,  // measure 35
0001
0000
1000
0020
0000
0000
0030
0000
,  // measure 36
2000
0000
3001
0020
0000
0000
0031
2000
,  // measure 37
0000
3001
0010
0000
0200
0000
0300
0000
,  // measure 38
0020
0000
0031
2000
0000
0000
3001
0020
,  // measure 39
0000
0031
1000
0000
0200
0000
0300
0000
,  // measure 40
0020
0000
0130
2000
0000
0000
3001
0200
,  // measure 41
0000
0000
0301
0000
1000
0002
0000
0020
,  // measure 42
0000
0000
0000
0000
0000
0033
0000
0002
,  // measure 43
0000
0000
1003
0100
0000
0010
0001
0010
,  // measure 44
0000
0200
0000
0000
1300
0000
0001
2000
,  // measure 45
0000
3200
0000
0310
0000
0001
0010
0000
,  // measure 46
0200
1300
0001
0100
,  // measure 47
0020
0000
0000
0130
0001
0000
1000
0001
,  // measure 48
0000
0200
0000
0000
0310
0000
1000
0020
,  // measure 49
0000
0230
0000
0301
0000
1000
0100
0000
,  // measure 50
0010
0001
0010
0000
0001
1000
0000
2200
,  // measure 51
0000
0000
3300
0000
0200
0000
0310
0001
,  // measure 52
0000
2000
0000
0000
3001
0000
1000
0020
,  // measure 53
0000
0230
0000
0301
0000
1000
0100
0000
,  // measure 54
0010
0000
0100
0000
2000
0000
3001
0200
,  // measure 55
0000
0301
1000
0000
0001
0000
1000
0020
,  // measure 56
0000
0230
0000
0000
0301
0000
1000
0020
,  // measure 57
0000
0230
0000
0301
0000
1000
0001
0000
,  // measure 58
1000
0100
1000
0000
0001
0000
0010
0200
,  // measure 59
0000
0000
0000
0300
,  // measure 60
1000
0000
0000
1000
0000
0000
0002
0000
0000
0000
0003
0000
0000
0000
0010
0000
,  // measure 61
0100
0000
0000
0100
0000
0000
2000
0000
0000
0000
3000
0000
0000
0000
0000
0000
,  // measure 62
0001
0000
0000
0001
0000
0000
0200
0000
0000
0000
0300
0000
0000
0000
0010
0000
,  // measure 63
0100
0000
0000
0100
0000
0000
0002
0000
0000
0000
0000
0000
1003
0000
0000
0000
,  // measure 64
2002
0000
0000
0000
,  // measure 65
0000
0000
0000
0000
,  // measure 66
3003
0000
0000
0000
;

//---------------dance-single - Easy----------------
#NOTES:
     dance-single:
     Ace Of Hearts (2012):
     Easy:
     3:
     0.160,0.000,0.040,0.186,0.000: // measure 1
0000
0000
0000
0000
,  // measure 2
0000
0000
0000
0000
,  // measure 3
0000
0000
0000
0000
,  // measure 4
0000
0000
0000
0000
,  // measure 5
0000
0000
0000
0000
,  // measure 6
2002
0000
0000
0000
,  // measure 7
0000
0000
3003
0000
,  // measure 8
0220
0000
0000
0000
,  // measure 9
0000
0000
0330
0000
,  // measure 10
2002
0000
0000
0000
,  // measure 11
0000
0000
3003
0000
,  // measure 12
0001
0000
0001
0000
,  // measure 13
0010
0000
0010
0000
,  // measure 14
0200
0000
0000
0000
,  // measure 15
0300
0000
0000
0000
,  // measure 16
1000
1000
1000
0000
,  // measure 17
0001
0001
0001
0000
,  // measure 18
0010
0010
0010
0000
,  // measure 19
0100
0100
0200
0000
,  // measure 20
0300
0010
0010
0000
,  // measure 21
0002
0000
0000
0003
,  // measure 22
0000
1000
1000
0000
,  // measure 23
0020
0000
0000
0030
,  // measure 24
0000
0100
0100
0000
,  // measure 25
0001
0001
0001
0000
,  // measure 26
2000
0000
3000
0000
,  // measure 27
0200
0000
0000
0300
,  // measure 28
0010
0000
0010
0000
,  // measure 29
0001
0000
0001
0000
,  // measure 30
1000
0000
1000
0000
,  // measure 31
0020
0000
0000
0030
,  // measure 32
1000
1000
1000
0000
,  // measure 33
0001
0001
0001
0000
,  // measure 34
0100
0000
0100
0000
,  // measure 35
0020
0000
0000
0030
,  // measure 36
0100
0000
0100
0000
,  // measure 37
0001
0001
0001
0000
,  // measure 38
1000
0000
1000
0000
,  // measure 39
0010
0010
0010
0000
,  // measure 40
1000
0000
1000
0000
,  // measure 41
0001
0000
0001
0000
,  // measure 42
0020
0000
0030
0000
,  // measure 43
0100
0100
0100
0000
,  // measure 44
1000
0000
0001
0000
,  // measure 45
0002
0000
0003
0000
,  // measure 46
1000
0000
1000
0000
,  // measure 47
0020
0000
0030
0000
,  // measure 48
0100
0000
0100
0000
,  // measure 49
0002
0000
0003
0000
,  // measure 50
1000
1000
1000
0000
,  // measure 51
2002
0000
3003
0000
,  // measure 52
0001
0000
0001
0000
,  // measure 53
0100
0100
0100
0000
,  // measure 54
0010
0000
0010
0000
,  // measure 55
1000
0000
1000
0000
,  // measure 56
0001
0000
0001
0000
,  // measure 57
0010
0010
0010
0000
,  // measure 58
0100
0100
0100
0000
,  // measure 59
2000
0000
3000
0000
,  // measure 60
0001
0001
0001
0000
,  // measure 61
0100
0100
0100
0000
,  // measure 62
0010
0010
0010
0000
,  // measure 63
1000
1000
1000
0000
,  // measure 64
2002
0000
0000
0000
,  // measure 65
0000
0000
0000
0000
,  // measure 66
3003
0000
0000
0000
;

//---------------dance-single - Novice----------------
#NOTES:
     dance-single:
     Ace Of Hearts (2012):
     Beginner:
     2:
     0.110,0.000,0.016,0.153,0.000: // measure 1
0000
0000
0000
0000
,  // measure 2
0000
0000
0000
0000
,  // measure 3
0000
0000
0000
0000
,  // measure 4
0000
0000
0000
0000
,  // measure 5
0000
0000
0000
0000
,  // measure 6
0002
0000
0000
0000
,  // measure 7
0003
0000
0000
0000
,  // measure 8
2000
0000
0000
0000
,  // measure 9
3000
0000
0000
0000
,  // measure 10
0020
0000
0000
0000
,  // measure 11
0030
0000
0000
0000
,  // measure 12
1000
0000
0000
0000
,  // measure 13
1000
0000
0000
0000
,  // measure 14
0002
0000
0000
0000
,  // measure 15
0003
0000
0000
0000
,  // measure 16
0010
0000
0010
0000
,  // measure 17
0001
0000
0001
0000
,  // measure 18
1000
0000
1000
0000
,  // measure 19
0100
0000
0200
0000
,  // measure 20
0300
0000
1000
0000
,  // measure 21
2000
0000
3000
0000
,  // measure 22
0000
0000
0001
0000
,  // measure 23
0002
0000
0003
0000
,  // measure 24
0000
0000
1000
0000
,  // measure 25
1000
0000
0010
0000
,  // measure 26
0020
0000
0030
0000
,  // measure 27
0200
0000
0300
0000
,  // measure 28
0001
0000
0001
0000
,  // measure 29
0001
0000
0000
0000
,  // measure 30
0100
0000
0100
0000
,  // measure 31
0100
0000
0000
0000
,  // measure 32
0010
0000
0010
0000
,  // measure 33
0010
0000
0000
0000
,  // measure 34
1000
0000
1000
0000
,  // measure 35
1000
0000
0000
0000
,  // measure 36
0001
0000
0001
0000
,  // measure 37
0002
0000
0003
0000
,  // measure 38
0010
0000
0010
0000
,  // measure 39
0020
0000
0030
0000
,  // measure 40
0001
0000
0001
0000
,  // measure 41
0001
0000
0000
0000
,  // measure 42
2002
0000
0000
0000
,  // measure 43
3003
0000
0000
0000
,  // measure 44
1000
0000
0000
0000
,  // measure 45
1000
0000
0000
0000
,  // measure 46
0010
0000
0010
0000
,  // measure 47
0020
0000
0030
0000
,  // measure 48
0100
0000
0000
0000
,  // measure 49
0100
0000
0000
0000
,  // measure 50
0001
0000
0001
0000
,  // measure 51
0002
0000
0003
0000
,  // measure 52
1000
0000
0000
0000
,  // measure 53
1000
0000
0000
0000
,  // measure 54
0100
0000
0100
0000
,  // measure 55
0200
0000
0300
0000
,  // measure 56
1000
0000
0000
0000
,  // measure 57
1000
0000
0000
0000
,  // measure 58
0001
0000
0001
0000
,  // measure 59
0002
0000
0003
0000
,  // measure 60
1000
0000
1000
0000
,  // measure 61
0010
0000
0010
0000
,  // measure 62
1000
0000
1000
0000
,  // measure 63
0001
0000
0001
0000
,  // measure 64
2002
0000
0000
0000
,  // measure 65
0000
0000
0000
0000
,  // measure 66
3003
0000
0000
0000
;
