#TITLE:Hyadain no Kakakata Kataomoi;
#SUBTITLE:(English Fandub);
#ARTIST:Cristina Vee & Y. Chang;
#TITLETRANSLIT:;
#SUBTITLETRANSLIT:;
#ARTISTTRANSLIT:;
#GENRE:J-Pop;
#CREDIT:Ace Of Hearts;
#BANNER:Hyadain no Kakakata Kataomoi - bn.png;
#BACKGROUND:Hyadain no Kakakata Kataomoi - bg.png;
#LYRICSPATH:;
#CDTITLE:Ace Of Hearts.png;
#MUSIC:Hyadain no Kakakata Kataomoi -English Dub-.ogg;
#OFFSET:1.960;
#SAMPLESTART:22.000;
#SAMPLELENGTH:12.000;
#SELECTABLE:YES;
#BPMS:0.000=180.000,105.500=90.000,136.500=180.000;
#STOPS:;
#BGCHANGES:5.750=Nichijou OP 1 (English w Subs).avi=1.000=1=0=0=StretchNoLoop==CrossFade==,
99999=-nosongbg-=1.000=0=0=0 // don't automatically add -songbackground-
;
#KEYSOUNDS:;

//---------------dance-single - Expert----------------
#NOTES:
     dance-single:
     Ace Of Hearts (2012):
     Challenge:
     10:
     0.888,0.000,0.979,1.000,0.133:
0000
0000
0000
0000
,
0000
0000
0000
0000
,
0000
0001
0100
0120
M000
0000
000M
0000
,
1030
0001
01M1
0000
M110
0000
101M
0000
,
1000
0001
M101
0000
0100
0001
10M0
0001
,
1000
0100
011M
0000
0M11
0000
10M1
0000
,
1000
0010
0210
0000
M000
0000
00M0
0301
,
1000
0010
M110
0000
01M1
0000
1M01
0000
,
110M
0000
0000
0000
4000
0004
0000
0000
0000
0000
0000
0000
0000
0000
0000
0000
,
0000
3003
01M1
0000
M110
0000
101M
0000
,
1000
0001
02M1
0000
0000
0320
0000
0130
,
0001
1000
0100
0000
0010
0000
0012
0000
,
1003
0010
0200
0000
0302
2000
0003
3200
,
0020
0300
2000
0030
0002
3000
0200
0003
,
2000
0300
0002
3000
0000
1003
0020
0000
,
0130
0001
1M01
0000
101M
0000
M101
0000
,
0001
1000
0020
0000
0130
0001
1000
0010
,
M001
0010
2000
0000
3M01
0010
0200
0000
,
1300
0000
0001
0000
0100
0000
M110
0000
0000
0000
101M
0000
0000
0000
M202
0003
,
0301
1000
0020
0000
0130
0001
1000
0000
,
0100
0000
0010
0000
0100
0000
110M
0000
0000
0000
M011
0000
0000
0000
2M02
3000
,
1003
0010
0200
0000
0301
1000
0100
0000
,
0010
0000
0100
0000
1000
0000
10M1
0000
0000
0000
M101
0000
0000
0000
2M20
3000
,
1030
0001
0020
0000
0031
1000
0200
0000
,
1300
0001
0100
0M10
0001
0010
200M
0000
,
3001
0000
0000
0010
0000
0000
02M0
0000
0000
0000
0000
0000
1300
0000
0002
0000
0000
0000
0000
0000
0203
0000
0000
0000
,
0310
0000
2000
0000
0000
0000
3000
0000
0000
2002
0003
0000
3002
0000
0013
0200
0000
0000
2300
0000
0000
3002
0000
0000
,
0203
0000
0000
0320
0000
0000
0000
0000
0000
2030
0000
0000
0000
0000
0000
3002
0000
0000
0000
0000
0000
0020
0003
0000
0130
0000
0000
0000
0100
0000
1000
0000
0000
0000
1000
0000
0001
0000
0000
0000
0001
0000
0200
0000
0000
0000
0310
0000
,
0000
0000
2000
0000
0000
0002
0000
0000
0010
0000
3003
0000
0001
0000
0100
0020
0000
0000
2030
0000
3000
1100
0000
0000
,
0100
0000
0000
0020
0000
0000
0000
0000
0000
0032
0000
0000
0000
0000
0000
2003
0000
0000
0000
0000
3000
0020
0000
0000
0130
0000
0000
0000
0100
0000
0001
0000
0000
0000
0001
0000
0100
0000
0000
0000
0200
0000
0020
0000
0000
0000
0000
0000
,
0000
0330
0200
0002
1000
1300
2003
0200
,
0001
0000
0301
0000
3002
0003
0201
0000
0320
0000
2030
0000
3002
0003
2002
0000
,
0010
0010
3003
0021
0130
2100
3001
0201
,
0310
0000
2010
0000
3002
0003
2002
0000
3003
0000
2002
0000
3003
0000
2002
3003
,
2002
3003
2000
0000
0M00
0000
3100
0000
012M
0000
0000
0000
M130
0000
1000
0000
,
10M1
0000
1M00
0100
00M2
0000
M103
1000
,
00M2
0000
1M03
0010
021M
0000
03M1
1000
,
102M
0000
1M30
0001
20M1
0000
310M
0010
,
M012
0000
1003
0010
0210
0000
0301
1000
,
1100
0000
0100
0010
0011
0000
0001
1000
,
1002
0000
1003
0100
0020
0000
0130
1000
,
0002
0000
1003
0010
0100
0000
0001
0010
,
0200
0000
13M0
0001
M021
0000
0M31
1000
,
120M
0000
13M0
0001
M021
0000
0M31
0010
,
021M
0000
1300
0001
2000
0000
3001
1000
,
0002
0000
1003
0001
2000
0000
3001
1000
,
0002
0000
1003
0100
0010
0100
1000
0001
,
0100
0010
0100
0001
1000
0000
11M0
0100
,
011M
0000
M011
0001
1M01
0000
101M
0010
,
M110
0000
01M1
1001
220M
0000
0000
0000
,
0000
0000
3300
0100
001M
0002
M000
0000
,
0M00
1003
0010
0100
02M2
0303
2M02
3003
,
202M
3030
0010
0100
0101
0M0M
0001
1000
,
0100
0010
0100
1000
20M2
3003
M202
0303
,
2M20
3030
02M2
0303
2M02
0000
00M0
3003
,
0M00
101M
0010
0100
M202
0303
20M2
3003
,
220M
3300
0M22
0033
M220
0000
000M
0330
,
00M0
110M
1000
0001
M202
0303
022M
0330
,
2M20
3030
10M1
0M11
220M
0000
00M0
3300
,
2002
0000
0000
3003
;

//---------------dance-single - Hard----------------
#NOTES:
     dance-single:
     Ace Of Hearts (2012):
     Hard:
     9:
     0.702,0.000,0.356,1.000,0.111: // measure 1
0000
0000
0000
0000
,  // measure 2
0000
0000
0000
0000
,  // measure 3
0000
1000
0100
0020
0000
0000
0000
0000
,  // measure 4
0130
1000
0001
0000
0010
0000
0001
0000
,  // measure 5
1000
0010
0100
0000
0001
1000
0001
1000
,  // measure 6
0010
0100
0001
0000
1000
0000
0010
0000
,  // measure 7
1000
0001
2000
0000
0000
0000
0000
3001
,  // measure 8
0010
0100
1000
0000
0010
0000
0100
0000
,  // measure 9
0001
0000
0000
0000
4000
0004
0000
0000
0000
0000
0000
0000
0000
0000
0000
0000
,  // measure 10
0000
3003
0001
0000
0100
0000
0010
0000
,  // measure 11
1000
0001
0200
0000
0000
0302
0000
1003
,  // measure 12
0100
0010
0001
0000
1000
0000
0020
0000
,  // measure 13
1030
0001
0200
0000
0302
2003
0000
3100
,  // measure 14
0020
0030
0011
0000
1001
0000
1010
0000
,  // measure 15
0101
0000
2002
0000
3003
1000
0020
0000
,  // measure 16
0130
0001
1M00
0000
001M
0000
M100
0000
,  // measure 17
0001
1000
0020
0000
0130
0001
0100
0010
,  // measure 18
1000
0001
0020
0000
0130
1000
0002
0000
,  // measure 19
1003
0010
0100
M001
0000
M001
0000
M021
,  // measure 20
0130
1000
0002
0000
0103
0010
1000
0000
,  // measure 21
0010
1000
0001
1M00
0000
1M00
0000
1M20
,  // measure 22
0130
0001
2000
0000
3100
0010
0001
0000
,  // measure 23
1000
0010
0100
001M
0000
001M
0000
201M
,  // measure 24
3001
0010
0100
0000
0010
0001
2000
0000
,  // measure 25
3010
0100
0001
1000
0100
0010
0200
0000
,  // measure 26
1300
0001
2000
0000
0000
0000
3000
0000
,  // measure 27
0000
0000
0000
0000
0000
0000
0000
0000
0000
0000
0000
0000
0001
0000
0010
0200
0000
0000
2300
0000
0000
3002
0000
0000
,  // measure 28
1003
0000
0000
0200
0000
0000
0000
0000
0000
1300
0000
0000
0000
0000
0000
0002
0000
0000
0000
0000
0000
2003
0000
0000
3010
0000
0000
0000
0010
0000
0100
0000
0000
0000
0100
0000
0001
0000
0000
0000
0001
0000
2000
0000
0000
0000
3100
0000
,  // measure 29
0000
0000
0010
0000
0000
0002
0000
0003
1001
0000
0000
0000
1000
0000
0010
0200
0000
0000
0302
0000
0003
1001
0000
0000
,  // measure 30
1000
0000
0000
0020
0000
0000
0000
0000
0000
0230
0000
0000
0000
0000
0000
0302
0000
0000
0000
0000
0000
0000
0000
0000
1003
0000
0000
0000
1000
0000
0100
0000
0000
0000
0100
0000
0010
0000
0000
0000
0010
0000
0002
0000
0000
0000
0000
0000
,  // measure 31
0000
0000
0003
0000
1000
0000
2020
0000
0000
3030
0000
0000
0110
0000
0202
0000
,  // measure 32
0000
0303
0000
0000
0001
0000
1001
0000
1000
0000
1010
0000
0010
0000
0220
0000
,  // measure 33
0000
0330
0000
0000
0000
0000
0101
0000
0001
0000
1001
0000
1000
0000
1100
0000
,  // measure 34
0100
0000
0010
0000
0001
0000
2002
0000
3003
0000
2002
0000
3003
0000
2000
3000
,  // measure 35
2000
3000
00M2
0000
0000
0000
0103
0000
M020
0000
0000
0000
0130
0000
0001
0000
,  // measure 36
10M0
0000
0100
0010
M002
0000
1003
0010
,  // measure 37
020M
0000
0301
1000
0M20
0000
1030
0001
,  // measure 38
01M0
0000
0010
0100
M002
0000
1003
0100
,  // measure 39
002M
0000
0130
1000
0002
0000
0103
0010
,  // measure 40
1000
0000
0001
0010
0100
0000
0010
0001
,  // measure 41
2000
0000
3010
0100
0002
0000
1003
0010
,  // measure 42
2000
0000
3001
0010
0100
0000
0010
0001
,  // measure 43
2000
0000
3010
0100
M002
0000
1003
0010
,  // measure 44
020M
0000
0310
1000
0M02
0000
0013
0100
,  // measure 45
20M0
0000
3001
0001
0002
0000
1003
1000
,  // measure 46
2000
0000
3001
0001
0002
0000
1003
1000
,  // measure 47
2000
0000
3001
0010
0001
1000
1000
0010
,  // measure 48
0010
0100
0100
0001
0001
0000
10M0
0100
,  // measure 49
002M
0000
M130
1000
00M1
0000
1M00
0010
,  // measure 50
010M
0000
00M1
1000
220M
0000
0000
0000
,  // measure 51
0000
0000
3300
0100
0010
0002
0000
0M00
,  // measure 52
0000
1003
0010
0100
M002
0000
20M3
0000
,  // measure 53
320M
0000
0310
0100
1000
M00M
0001
0010
,  // measure 54
0001
1000
0010
0100
M001
0000
20M0
3000
,  // measure 55
1M10
0000
011M
0000
M202
0000
00M0
0303
,  // measure 56
0000
0001
1000
0100
M020
0000
023M
0300
,  // measure 57
11M0
0000
M011
0000
022M
0000
0000
0330
,  // measure 58
0000
0100
1000
0001
M200
0300
022M
0330
,  // measure 59
2M20
3030
10M0
0001
M202
0000
0000
0303
,  // measure 60
2002
0000
0000
3003
;

//---------------dance-single - Medium----------------
#NOTES:
     dance-single:
     Ace Of Hearts (2012):
     Medium:
     7:
     0.523,0.000,0.078,1.000,0.056: // measure 1
0000
0000
0000
0000
,  // measure 2
0000
0000
0000
0000
,  // measure 3
0000
0001
0000
0020
0000
0000
0000
0000
,  // measure 4
0031
1000
0010
1000
,  // measure 5
0000
0001
0100
0000
0010
1000
0000
1000
,  // measure 6
0000
1000
0001
0000
0010
0000
0100
0000
,  // measure 7
0000
0010
0002
0000
0000
0000
0000
2003
,  // measure 8
0000
3100
0010
0000
0100
0000
1000
0000
,  // measure 9
0001
0400
0000
0000
,  // measure 10
0000
0310
0100
0001
,  // measure 11
0000
1000
0200
0000
0300
0010
0000
0001
,  // measure 12
0000
1000
0010
0000
1000
0000
0002
0000
,  // measure 13
0013
0000
0200
0000
1300
0002
0000
1003
,  // measure 14
0020
2030
3002
0023
,  // measure 15
0230
0000
2300
0000
0000
3001
0200
0000
,  // measure 16
0301
1000
0010
0100
,  // measure 17
0002
0000
2003
0000
3100
0010
0000
0100
,  // measure 18
0000
1000
0002
0000
1003
0000
0200
0000
,  // measure 19
0310
0002
0000
1003
0000
1000
0000
2000
,  // measure 20
0000
3001
0020
0000
0000
0130
1000
0000
,  // measure 21
0001
0100
0000
0010
0000
0010
0000
0020
,  // measure 22
0000
1030
0002
0000
0000
1003
0100
0000
,  // measure 23
1000
0001
0000
0100
0000
0100
0000
0200
,  // measure 24
0000
0310
1000
0000
0001
0000
0010
0000
,  // measure 25
0100
1000
0000
0002
0000
1003
0020
0000
,  // measure 26
1030
0002
0000
0003
,  // measure 27
0000
0000
0000
0000
0000
0000
0000
0000
0000
0000
0000
0000
2000
0000
3001
0020
0000
0000
0230
0000
0000
2300
0000
0000
,  // measure 28
3001
0200
0000
0301
0000
2000
0000
0200
0000
0000
3300
0000
0000
0000
0000
0000
,  // measure 29
0000
0000
0000
0000
0000
0000
0000
0000
0000
0000
0000
0000
0100
0000
0010
0002
0000
0000
2003
0000
0000
3100
0000
0000
,  // measure 30
0010
0002
0000
2003
0000
3200
0000
0020
0000
0000
0330
0000
0000
0000
0000
0000
,  // measure 31
0000
0000
0000
0000
0010
0000
0022
0000
0000
0033
0000
0000
0001
0000
2002
0000
,  // measure 32
0000
3003
0000
0000
1000
0000
0020
0000
0130
0000
0001
0000
1000
0000
2200
0000
,  // measure 33
0000
3300
0000
0000
0000
0000
0200
0000
0320
0000
0031
0000
1000
0000
0002
0000
,  // measure 34
0103
0010
1000
2002
3003
2002
3003
0001
,  // measure 35
0001
2000
0000
3100
0020
0000
0000
0130
,  // measure 36
1000
0001
0200
0310
,  // measure 37
2000
0000
0000
3001
0020
0000
0000
0130
,  // measure 38
2000
0000
0000
3001
0200
0000
0000
0301
,  // measure 39
2000
0000
0000
3100
0020
0000
0000
0130
,  // measure 40
1000
0001
1000
0010
,  // measure 41
0200
0000
0000
0301
2000
0000
0000
3001
,  // measure 42
0200
0000
0000
0301
1000
0000
0001
0000
,  // measure 43
0200
0000
0000
0310
2000
0000
0000
3001
,  // measure 44
0020
0000
0000
0130
2000
0000
0000
3001
,  // measure 45
0200
0301
0002
0000
,  // measure 46
2003
0000
3002
0000
,  // measure 47
2003
0000
0000
3001
0000
0100
0000
0001
,  // measure 48
0000
1000
0000
0001
0100
0000
0020
0000
,  // measure 49
1030
0001
0010
0001
,  // measure 50
1000
0001
0202
0000
,  // measure 51
0000
0303
0000
0001
0000
2000
0000
0000
,  // measure 52
0000
3001
0010
0000
0002
0000
2003
0000
,  // measure 53
3010
0000
0000
0100
0001
0000
1000
0100
,  // measure 54
0000
0020
0000
0130
1000
0000
0001
0000
,  // measure 55
0100
0000
0001
0000
2002
0000
0000
3003
,  // measure 56
0000
1000
0010
0000
0200
0000
0302
0000
,  // measure 57
2003
0000
3020
0000
0200
0000
0000
0330
,  // measure 58
0000
0020
0000
1030
0001
0000
0010
0000
,  // measure 59
0100
0000
1000
0002
2000
0000
0000
0000
,  // measure 60
0003
0000
0000
3000
;

//---------------dance-single - Easy----------------
#NOTES:
     dance-single:
     Ace Of Hearts (2012):
     Easy:
     6:
     0.340,0.000,0.011,0.500,0.039: // measure 1
0000
0000
0000
0000
,  // measure 2
0000
0000
0000
0000
,  // measure 3
0000
0000
0000
2000
0000
0000
0000
0000
,  // measure 4
0000
3001
0010
0001
,  // measure 5
0000
0000
1000
0000
0000
0010
0000
0010
,  // measure 6
0000
1000
0001
1000
,  // measure 7
0000
0000
0200
0000
0000
0000
0000
0300
,  // measure 8
0000
0010
0001
0010
,  // measure 9
0000
0200
0000
0000
,  // measure 10
0000
1300
0001
1000
,  // measure 11
0000
0000
0200
0000
0000
0310
0000
0010
,  // measure 12
0000
0001
0001
2000
,  // measure 13
0000
0000
3200
0000
0000
0310
0000
0010
,  // measure 14
0000
0001
0001
1000
,  // measure 15
1000
0200
0000
0310
,  // measure 16
0000
0001
1000
0001
,  // measure 17
0000
0000
0200
0000
0000
0310
0000
0010
,  // measure 18
0000
2000
0000
3002
,  // measure 19
0000
0000
0003
1000
0000
1000
0000
2000
,  // measure 20
0000
3000
0020
0000
0000
0000
0130
0000
,  // measure 21
0001
0000
0000
0100
0000
0100
0000
0200
,  // measure 22
0000
0310
1000
0001
,  // measure 23
0000
1000
0000
0010
0000
0010
0000
0020
,  // measure 24
0000
1030
0001
1000
,  // measure 25
0000
0100
0000
0200
0000
0000
2300
0000
,  // measure 26
0000
3002
0000
0003
,  // measure 27
0000
0000
0000
0000
1000
1000
0000
0002
,  // measure 28
0000
0013
0000
0000
0000
0200
0000
2000
0000
0000
3300
0000
0000
0000
0000
0000
,  // measure 29
0000
0000
0000
0000
0100
0100
0000
0010
,  // measure 30
0000
0001
0000
1000
0000
0200
0000
0020
0000
0000
0330
0000
0000
0000
0000
0000
,  // measure 31
0000
0000
0100
2000
0000
3000
0001
0200
,  // measure 32
0000
0300
0010
0010
0000
1000
0001
2000
,  // measure 33
0000
3000
0000
0010
1000
0010
0000
1000
,  // measure 34
0000
0001
1000
0002
0000
0003
0000
0000
,  // measure 35
0000
2000
0000
0000
3001
0000
0100
0000
,  // measure 36
0010
1000
0001
1000
,  // measure 37
0200
0310
0010
0001
,  // measure 38
0001
1000
1000
0010
,  // measure 39
0020
0130
0002
0000
,  // measure 40
1003
0100
0020
0000
,  // measure 41
0130
1000
0001
0010
,  // measure 42
0002
1003
1000
0100
,  // measure 43
0200
0000
0310
0001
,  // measure 44
2000
3010
0020
0000
,  // measure 45
0130
0000
0002
0000
,  // measure 46
0000
0000
0000
0000
,  // measure 47
0003
0000
0000
0000
0000
1000
0000
1000
,  // measure 48
0000
0010
0000
0000
0100
0000
0100
0000
,  // measure 49
0100
0001
0001
1000
,  // measure 50
1000
0100
0200
0000
,  // measure 51
0000
0300
0000
1000
0000
2000
0000
0000
,  // measure 52
0000
3001
0000
0000
0100
0000
0010
0000
,  // measure 53
0200
0000
0000
0300
0001
0000
0000
1000
,  // measure 54
0000
1000
0000
0000
0001
0000
0010
0000
,  // measure 55
0001
1000
0200
0300
,  // measure 56
0000
0020
0000
0000
0031
0000
1000
0000
,  // measure 57
0010
0000
1000
0000
0002
0000
0000
0003
,  // measure 58
0000
2000
0000
0000
3001
0000
0100
0000
,  // measure 59
0001
1000
2200
0000
,  // measure 60
3000
0000
0000
0300
;

//---------------dance-single - Novice----------------
#NOTES:
     dance-single:
     Ace Of Hearts (2012):
     Beginner:
     4:
     0.235,0.000,0.022,0.345,0.028: // measure 1
0000
0000
0000
0000
,  // measure 2
0000
0000
0000
0000
,  // measure 3
0000
0000
0000
2000
0000
0000
0000
0000
,  // measure 4
0000
3001
0000
0001
,  // measure 5
0000
0001
0000
0000
,  // measure 6
0000
0100
0000
0100
,  // measure 7
0000
0200
0000
0000
,  // measure 8
0000
0301
0000
0001
,  // measure 9
0000
0002
0000
0000
,  // measure 10
0000
1003
0000
1000
,  // measure 11
0000
0000
2000
0000
0000
0000
0000
3001
,  // measure 12
0000
0001
0000
0001
,  // measure 13
0000
0000
0002
0000
0000
0000
0000
0103
,  // measure 14
0000
0100
0000
0100
,  // measure 15
0000
0200
0000
0300
,  // measure 16
0000
0010
0010
0010
,  // measure 17
0000
0000
2000
0000
0000
0000
0000
3001
,  // measure 18
0000
0002
0000
0003
,  // measure 19
0000
0000
0000
0010
0000
0010
0000
0020
,  // measure 20
0000
0031
0000
0001
,  // measure 21
0000
0000
0000
1000
0000
1000
0000
2000
,  // measure 22
0000
3001
0000
0001
,  // measure 23
0000
0000
0000
0100
0000
0100
0000
0200
,  // measure 24
0000
0310
0000
0010
,  // measure 25
0000
0000
0000
1000
0000
0000
1000
0000
,  // measure 26
0000
2000
0000
3000
,  // measure 27
0000
0000
0000
0000
0001
0001
0000
1000
,  // measure 28
0000
0001
0000
0000
0000
0200
0000
0000
0000
0000
0300
0000
0000
0000
0000
0000
,  // measure 29
0000
0000
0000
0000
0010
0010
0000
1000
,  // measure 30
0000
0001
0000
0000
0000
0010
0000
0020
0000
0000
0030
0000
0000
0000
0000
0000
,  // measure 31
0000
0000
0100
0200
0000
0300
1000
2000
,  // measure 32
0000
3000
0001
0001
0000
1000
0000
0200
,  // measure 33
0000
0300
0000
0010
0000
0010
0000
0100
,  // measure 34
0000
0100
0000
2000
0000
0000
0000
3000
,  // measure 35
0000
0001
0000
0000
1000
0000
0000
0000
,  // measure 36
1000
0000
0100
0000
,  // measure 37
0200
0000
0310
0000
,  // measure 38
0010
0000
0001
0000
,  // measure 39
0002
0000
1003
0000
,  // measure 40
1000
0000
0010
0000
,  // measure 41
0010
0000
1000
0000
,  // measure 42
1000
0000
0001
0000
,  // measure 43
0002
0000
0013
0000
,  // measure 44
0010
0000
0100
0000
,  // measure 45
0100
0000
2000
0000
,  // measure 46
0000
0000
0000
0000
,  // measure 47
3000
0000
0000
0000
0000
0002
0000
0000
,  // measure 48
0000
0003
0000
0000
1000
0000
0000
0000
,  // measure 49
1000
0000
0001
0000
,  // measure 50
0001
0000
0202
0000
,  // measure 51
0000
0303
0000
0000
0000
0200
0000
0000
,  // measure 52
0000
0310
0000
0000
0020
0000
0000
0000
,  // measure 53
1030
0000
0001
0000
,  // measure 54
0000
0001
0000
0000
1000
0000
0000
0000
,  // measure 55
0001
0000
0000
0000
0200
0000
0000
0300
,  // measure 56
0000
0010
0000
0000
1000
0000
0000
0000
,  // measure 57
0001
0000
0000
0000
0200
0000
0000
0300
,  // measure 58
0000
0010
0000
0000
1000
0000
1000
0000
,  // measure 59
1000
0000
2002
0000
,  // measure 60
3000
0000
0000
0003
;
