#TITLE:Galaxias;
#SUBTITLE:;
#ARTIST:Kou Shibasaki;
#TITLETRANSLIT:;
#SUBTITLETRANSLIT:;
#ARTISTTRANSLIT:;
#GENRE:J-Pop;
#CREDIT:Ace Of Hearts;
#BANNER:Galaxias - bn.png;
#BACKGROUND:Galaxias - bg.png;
#LYRICSPATH:;
#CDTITLE:Ace Of Hearts.png;
#MUSIC:Galaxias.ogg;
#OFFSET:3.295;
#SAMPLESTART:59.140;
#SAMPLELENGTH:12.000;
#SELECTABLE:YES;
#DISPLAYBPM:61.000:123.000;
#BPMS:0.000=61.500,24.000=123.000,56.000=61.500,72.000=123.000,79.250=246.000,80.000=123.000,87.500=246.000,88.000=123.000,152.000=61.500,168.000=123.000,175.250=246.000,176.000=123.000,187.500=246.000,188.000=123.000,218.000=246.000,218.167=123.000,218.333=243.000,218.500=123.000,218.667=243.000,218.833=123.000,219.000=243.000,219.167=123.000,219.333=243.000,219.500=123.000,219.667=243.000,219.833=123.000,226.000=246.000,226.500=123.000,226.750=246.000,227.250=123.000,227.500=246.000,228.000=123.000,234.000=246.000,234.500=123.000,234.750=246.000,235.250=123.000,235.500=246.000,236.000=123.000,242.000=246.000,242.500=123.000,242.750=246.000,243.250=123.000,243.500=246.000,244.000=123.000,250.000=61.500,252.000=123.000,266.500=246.000,267.500=123.000,268.000=246.000,269.000=123.000,269.500=246.000,270.500=123.000,271.000=246.000,272.000=123.000,272.750=61.500,290.750=123.000;
#STOPS:79.250=0.061
,79.500=0.061
,79.750=0.061
,87.500=0.041
,87.667=0.041
,87.833=0.041
,175.250=0.061
,175.500=0.061
,175.750=0.061
,187.500=0.041
,187.667=0.041
,187.833=0.041
,218.000=0.041
,218.333=0.041
,218.667=0.041
,219.000=0.041
,219.333=0.041
,219.667=0.041
,226.000=0.061
,226.250=0.061
,226.750=0.061
,227.000=0.061
,227.500=0.061
,227.750=0.061
,234.000=0.061
,234.250=0.061
,234.750=0.061
,235.000=0.061
,235.500=0.061
,235.750=0.061
,242.000=0.061
,242.250=0.061
,242.750=0.061
,243.000=0.061
,243.500=0.061
,243.750=0.061
,272.000=0.041
,272.083=0.041
,272.167=0.041
,272.250=0.041
,272.333=0.041
,272.417=0.041
,272.500=0.041
,272.583=0.041
,272.667=0.041
,290.750=0.041
,290.833=0.041
,290.917=0.041
;
#BGCHANGES:5.750=Galaxias Video.avi=1.000=0=0=1=====,
354.500=Galaxias - bg.png=1.000=0=0=1=Centered====,
99999=-nosongbg-=1.000=0=0=0 // don't automatically add -songbackground-
;
#KEYSOUNDS:;

//---------------dance-single - Ace Of Hearts (2012)----------------
#NOTES:
     dance-single:
     Ace Of Hearts (2012):
     Challenge:
     10:
     0.654,0.000,0.268,1.000,0.569: // measure 1
0000
0000
0000
0000
,  // measure 2
0000
0000
0000
0000
,  // measure 3
M002
0000
0000
0000
0023
0000
0000
0230
000M
0000
0000
0000
2300
0000
0000
3002
00M0
0000
0000
0000
1003
0000
0000
0010
0000
0000
0000
0100
0000
0000
0100
0000
,  // measure 4
0001
0000
0000
0000
1000
0000
1000
0100
0000
0000
0000
0000
0010
0000
0100
0000
1000
0000
0000
0000
0001
0000
0000
0010
0000
0000
0000
0100
0000
0000
0010
0000
,  // measure 5
0M01
0000
0000
0000
2000
0000
0000
3020
000M
0000
0000
0000
0230
0000
0000
0302
M000
0000
0000
0000
1003
0000
0000
0010
0000
0000
0000
0100
0000
0000
0001
0000
,  // measure 6
1000
0000
0000
0000
0001
0000
0001
0100
0000
0000
0000
0000
0010
0000
1000
0000
0001
0000
0000
0000
2000
0000
0000
3010
0000
0000
0100
0000
0001
0000
1000
0000
,  // measure 7
1001
0000
0001
0000
0100
0000
0010
1000
0000
0001
0000
0010
0100
0000
1000
0100
,  // measure 8
1000
0000
0001
0000
0020
0000
0031
1000
0000
0100
0000
1000
0001
0010
0001
1000
,  // measure 9
0100
0000
0010
0000
0200
0000
1300
0001
0000
1000
0000
0010
1000
0000
0001
0010
,  // measure 10
0001
0000
1000
0000
0020
0000
0130
0001
0000
0000
0000
1000
0001
0100
0001
1000
,  // measure 11
0100
0000
0010
0000
0002
0000
1003
0010
0000
0100
0000
0001
1000
0000
0001
0010
,  // measure 12
0001
0000
1000
0000
0020
0000
0130
0001
0000
1000
0000
0010
1000
0001
1000
0010
,  // measure 13
0100
0000
0001
0000
2000
0000
3100
0010
0000
0100
0000
0010
0001
1000
0001
0010
,  // measure 14
0100
0000
0010
0000
0002
0000
1003
0010
0000
0100
0000
0010
1000
0001
1000
0010
,  // measure 15
020M
0300
M000
0002
02M0
0000
M010
0000
03M3
0000
0M00
0001
M010
0200
200M
0000
,  // measure 16
00M1
3300
000M
2000
00M2
0000
0M10
3003
00M0
1000
0M02
0003
020M
0010
M020
0000
,  // measure 17
100M
0330
0M00
0002
20M0
0000
0M10
3003
M000
0000
000M
1000
01M0
0020
020M
0000
,  // measure 18
M001
0000
0330
0000
000M
0000
0020
0000
M002
0000
0000
0000
1M00
0000
0033
0000
00M0
0000
0001
0000
M100
0000
0010
0000
1M00
0000
0001
0010
0100
1000
0100
0010
,  // measure 19
0002
0000
1003
0000
0010
0000
0100
0002
0000
0000
2003
0000
3000
0000
0100
0000
,  // measure 20
0020
0000
0130
0000
1000
0000
0001
0200
0000
0000
0302
0000
1003
0010
0100
0010
,  // measure 21
2000
3002
0203
0320
,  // measure 22
1030
0000
0000
0000
0000
0000
0010
0000
0000
0000
0000
0000
0100
0000
0000
0000
0000
0000
0002
0000
0000
0000
0000
0000
2200
0000
0000
3300
0000
0000
0003
0000
0000
0000
0000
0000
1001
0000
0000
0000
0000
0000
1000
0000
0010
0000
1000
0000
,  // measure 23
0020
0000
0000
0000
0230
0000
0300
0202
0000
0000
0300
0000
2003
0000
3000
2200
,  // measure 24
0000
0000
3000
0000
0310
0000
0001
2000
0000
0000
3010
0000
0100
0000
0001
0000
,  // measure 25
0200
0000
0000
0000
0320
0000
0030
2020
0000
0000
0030
0000
3002
0000
0003
0022
,  // measure 26
0000
0000
0003
0000
0130
0000
1000
0002
0000
0000
0103
0000
0010
0000
1000
0000
,  // measure 27
0002
0000
0000
0000
0023
0000
0030
0220
0000
0000
0030
0000
2300
0000
3000
2002
,  // measure 28
0000
0000
3000
0000
0103
0000
0010
2000
0000
0000
3001
0000
1000
0000
0001
0000
,  // measure 29
0200
0001
1000
0001
,  // measure 30
1000
0000
0000
0000
0002
0000
0000
0300
0200
0000
0000
0000
0303
0000
0000
0000
,  // measure 31
0101
1100
0101
1100
,  // measure 32
0101
1100
0101
1100
,  // measure 33
0101
0000
0001
1000
0200
0000
1300
0001
0000
0100
0000
0010
0100
0001
0100
0010
,  // measure 34
1000
0000
0001
0000
0020
0000
0130
1000
0000
0001
0000
1000
0001
0010
0001
1000
,  // measure 35
0010
0000
0100
0000
0002
0000
0003
2002
0000
0000
0003
0000
3020
0000
0030
0220
,  // measure 36
0000
0000
0030
0000
0301
0000
1000
0100
0000
0010
0000
0100
1000
0001
1000
0100
,  // measure 37
0010
0000
0100
0000
2000
0000
3001
0100
0000
0010
0000
0100
0001
1000
0001
0010
,  // measure 38
0100
0000
0010
0000
0002
0000
1003
0010
0000
1000
0010
1000
0010
0100
0001
1000
,  // measure 39
00M2
0003
0M00
2000
002M
0000
0M01
3030
00M0
0000
M000
1000
00M2
0010
M020
0000
,  // measure 40
1M00
0033
M000
0002
2M00
0000
01M0
3003
M000
0001
001M
0100
1M00
0200
M020
0000
,  // measure 41
100M
0330
0M00
0020
M002
0000
1M00
0033
00M0
0000
M000
0001
01M0
0200
002M
0000
,  // measure 42
M001
0000
0330
0000
000M
0000
0200
0000
00M2
0000
0000
0000
M010
0000
0303
0000
00M0
0000
0001
0000
M200
0000
0300
0000
001M
0000
1000
0010
0100
0001
0100
0010
,  // measure 43
2000
0000
3001
0000
0010
0000
0100
2000
0000
0000
3002
0000
0000
0000
1003
0000
,  // measure 44
0020
0000
0130
0000
0001
0000
1000
0020
0000
0000
2030
0000
3001
0010
0100
0010
,  // measure 45
0002
2003
3200
0320
,  // measure 46
0031
0010
0100
0010
0001
1000
0010
1000
,  // measure 47
0001
0000
0000
0000
0000
0000
4000
0000
0000
0000
0000
0000
3000
0000
0000
2010
0000
0000
0000
0000
0000
0000
0000
0000
0022
0000
0000
0033
0000
0000
3000
0000
0000
0000
0000
0000
2002
0000
0000
3003
0000
0000
0001
0000
0100
0000
0001
0000
,  // measure 48
0200
0000
0000
0000
0320
0000
0030
2020
0000
0000
0030
0000
3002
0000
0003
0202
,  // measure 49
0000
0000
0003
0000
0310
0000
1000
0002
0000
0000
0013
0000
0100
0000
1000
0000
,  // measure 50
0002
0000
0000
0000
2003
0000
3000
2200
0000
0000
3000
0000
0320
0000
0030
0022
,  // measure 51
0000
0000
0030
0000
1003
0000
0010
0200
0000
0000
0301
0000
1000
0000
0100
0000
,  // measure 52
0020
0000
0000
0000
0032
0000
0003
2200
0000
0000
0300
0000
3002
0000
0003
0202
,  // measure 53
0000
0000
0300
0000
1003
0000
0100
0020
0000
0000
0130
0000
1000
0000
0001
0000
,  // measure 54
2000
3000
2020
3030
0022
0033
0202
0303
,  // measure 55
2200
0000
0000
0000
0000
0000
0000
0000
0000
0300
0000
0000
3004
0M00
0043
0000
0430
000M
4300
00M0
3400
000M
0340
M000
,  // measure 56
0031
0000
0000
2000
0000
0000
3020
0000
0130
0001
0000
2000
0000
0000
3100
0010
,  // measure 57
0002
0000
2003
0000
3010
0000
0200
0000
03M4
0000
0M03
0004
M000
0003
0M04
0000
,  // measure 58
20M3
0000
0000
3020
0000
0000
0230
0000
0301
1000
0000
0200
0000
0000
0310
0100
,  // measure 59
1000
0000
1000
0100
0000
0100
0010
0001
4M00
0000
30M0
4000
000M
3000
40M0
0000
,  // measure 60
3M02
0000
0000
0203
0000
0000
0310
0000
1000
0001
0000
0020
0000
0000
0031
0010
,  // measure 61
0200
0000
1300
0000
0001
0000
0100
0000
M040
0000
0M30
0040
000M
0030
0M40
0000
,  // measure 62
M230
0000
0301
2000
0000
0000
3200
0000
0310
0001
0000
2000
0000
0000
3001
0100
,  // measure 63
0020
0000
0130
0001
2000
0000
3002
0000
M403
0000
0000
0000
000M
0000
0000
0000
,  // measure 64
M300
0000
0010
0000
2000
0000
3001
0020
0000
0000
0230
0000
0000
0000
1300
0000
,  // measure 65
0002
0000
0103
0000
0010
0000
0100
0002
0000
0000
2003
0000
3000
0000
0000
0000
,  // measure 66
0200
0320
0032
2003
,  // measure 67
3100
0010
0100
1000
2002
0000
0000
0000
,  // measure 68
0000
0000
0000
0000
,  // measure 69
0000
0000
0000
0000
0000
0000
3003
0000
0M02
0000
0000
0000
0023
0000
0000
0200
M000
0000
0000
0030
2300
0000
0000
0002
30M0
0003
0000
0000
2000
0000
3100
0020
,  // measure 70
0000
0000
0130
0000
1000
0000
0001
0000
02M0
0000
0000
0000
0320
0000
0000
2000
000M
0000
0000
0030
3002
0000
0000
02M0
0000
0003
0300
0000
0020
0000
1030
0002
,  // measure 71
0000
0000
0013
0000
0100
0000
1000
0000
00M2
0000
0000
0000
2003
0000
0000
0020
0M00
0000
0000
3000
0230
0000
0000
0002
M300
0003
0000
0000
1000
0000
0100
0020
,  // measure 72
0000
0031
1000
0010
0200
0000
0302
0000
2000
0003
0002
3000
2000
0000
0000
0000
,  // measure 73
0000
0000
0000
0000
0000
0000
0000
0000
0000
0000
0000
0000
0000
0000
0000
0000
0000
0000
0000
0000
0000
0000
0000
0000
0000
0000
0000
0000
0000
0000
0000
0000
0000
0000
0000
0000
0003
0000
0000
0000
0000
0000
0000
0000
0000
0000
0000
0000
3200
0000
0000
0000
0000
0000
0000
0000
0000
0000
0000
0000
0000
0000
0000
0000
0000
0000
0310
0000
0000
0000
0000
0000
0100
0000
0000
0000
0000
0000
1000
0000
0000
0000
0000
0000
0000
0000
0000
0000
0000
0000
0001
0000
0000
0000
0000
0000
0000
0000
0000
0000
0000
0000
1000
0000
0000
0000
0000
0000
0000
0000
0000
0000
0000
0000
0010
0000
0000
0000
0000
0000
0100
0000
0000
0000
0000
0000
0000
0000
0000
0000
0000
0000
0001
0000
0000
0000
1000
0000
0000
0000
0001
0000
0000
0000
2000
0000
0000
0000
0000
0000
0000
0000
0000
0000
0000
0000
0000
0000
0000
0000
0000
0000
0000
0000
0000
0000
0000
0000
0000
0000
0000
0000
0000
0000
0000
0000
0000
0000
0000
0000
0000
0000
0000
0000
0000
0000
0000
0000
0000
0000
0000
0000
,  // measure 74
3002
0000
0003
0202
0000
0000
0300
0000
2003
0000
3000
2200
0000
0000
0300
0000
,  // measure 75
3001
0000
0100
0020
0000
0000
0130
0000
0001
0000
1000
0000
0200
0000
0000
0000
,  // measure 76
0320
0000
0030
0022
0000
0000
0030
0000
2003
0000
3000
2020
0000
0000
0030
0000
,  // measure 77
3001
0000
0010
0200
0000
0000
0310
0000
0001
0000
1000
0000
0020
0000
0000
0000
,  // measure 78
0230
0000
0300
0202
0000
0000
0300
0000
2003
0000
3000
2200
0000
0000
0300
0000
,  // measure 79
3001
0000
0100
0020
0000
0000
1030
0000
0001
0000
1000
0000
0020
0000
0000
0000
,  // measure 80
0001
0000
0000
0000
1000
0000
0000
0000
0001
0000
0000
0000
2000
0000
0000
0030
,  // measure 81
0020
0000
0000
3000
2000
0000
0000
0000
3030
0000
0000
0000
0101
0000
0000
0000
,  // measure 82
1100
0101
1100
0101
,  // measure 83
1100
0101
1100
0101
,  // measure 84
0002
0000
0003
2002
0000
0000
0003
0000
3200
0000
0300
0220
0000
0000
0300
0000
,  // measure 85
0032
0000
1003
0010
0000
0100
0000
0010
0100
0010
1000
0001
2000
0000
0000
0000
,  // measure 86
3002
0000
0003
0202
0000
0000
0300
0000
2003
0000
3000
2020
0000
0000
3000
0000
,  // measure 87
0230
0000
0301
1000
0000
0100
0000
0010
0001
1000
0001
0010
0002
0000
0000
0000
,  // measure 88
2003
0000
3000
2020
0000
0000
0030
0000
3002
0000
0003
0022
0000
0000
0003
0000
,  // measure 89
0230
0000
1300
0001
0000
1000
0100
0010
0100
0000
1100
0000
0000
0000
0000
0000
;

//---------------dance-single - Ace Of Hearts (2012)----------------
#NOTES:
     dance-single:
     Ace Of Hearts (2012):
     Hard:
     9:
     0.521,0.000,0.115,0.947,0.407:
0000
0000
0000
0000
,
0000
0000
0000
0000
,
2000
0000
0000
0000
3020
0000
0000
0230
0000
0000
0000
0000
0302
0000
0000
2003
0000
0000
0000
0000
0000
0000
0000
0000
3000
0000
0000
0000
0000
0000
0000
0000
,
00M0
0000
0000
00M0
0000
0000
00M0
0000
0000
0000
0000
0000
0000
0000
0000
0000
0M00
0000
0000
0M00
0000
0000
0M00
0000
0000
0000
0000
0000
0000
0000
0000
0000
,
0000
0000
0000
0000
0002
0000
0000
0203
0000
0000
0000
0000
0320
0000
0000
2030
0000
0000
0000
0000
0000
0000
0000
0000
3000
0000
0000
0000
0000
0000
0000
0000
,
0M00
0000
0000
0M00
0000
0000
0M00
0000
0000
0000
0000
0000
0000
0000
0000
0000
0001
0000
0000
0000
2000
0000
0000
3010
0000
0000
0100
0000
0001
0000
1000
0000
,
0001
0000
0000
0000
0020
0000
0130
1000
0000
0001
0000
1000
0010
0000
0200
0000
,
0301
0000
1000
0000
0002
0000
0013
0100
0000
1000
0000
0100
0010
0000
0001
0000
,
0010
0000
0000
0000
0200
0000
0310
0001
0000
1000
0000
0001
0010
0000
0100
0000
,
0010
0000
0001
0000
2000
0000
3001
0010
0000
0100
0000
0010
0001
0000
1000
0000
,
0010
0000
0000
0000
2000
0000
3001
0100
0000
0010
0000
0100
0001
0000
1000
0000
,
0100
0000
0010
0000
0002
0000
1003
0100
0000
0010
0000
0100
1000
0000
0001
0000
,
1000
0000
0000
0000
0020
0000
0130
0001
0000
1000
0000
0001
0100
0000
0010
0000
,
1000
0000
0001
0000
0020
0000
0130
1000
0000
0001
0000
1000
0100
0000
0010
0000
,
0M02
0003
0000
1000
002M
0030
0200
0300
M000
0000
0000
0001
01M0
0001
0100
0000
,
M020
0030
0000
1000
00M2
0003
2000
3000
0M00
0001
0100
0000
00M1
1000
0001
0000
,
M200
0300
0000
0010
2M00
3000
0002
0003
00M0
0000
0000
1000
010M
1000
0100
0000
,
M020
0000
0030
0000
0000
0000
0001
0000
2M00
0000
3000
0000
0002
0000
0003
0000
00M0
0000
1000
0000
0010
0000
1000
0000
0M01
0000
4000
0400
0000
0000
0000
0000
,
3300
0000
0100
0000
0010
0000
0001
2000
0000
0000
3010
0000
0000
0000
0100
0000
,
0001
0000
1000
0000
0001
0000
0100
0002
0000
0000
2003
0000
3000
0010
0100
0010
,
0200
0320
2030
3002
,
0013
0100
1000
0100
2000
0000
3001
0040
,
0230
0000
0000
0000
0320
0000
0000
0002
0000
0000
0030
0000
2003
0000
0000
0200
,
0000
0000
3000
0000
0310
0000
0001
2000
0000
0000
3001
0000
0100
0000
0010
0000
,
0200
0000
0000
0000
0302
0000
0000
2000
0000
0000
0003
0000
3020
0000
0000
0200
,
0000
0000
0030
0000
0301
0000
1000
0200
0000
0000
1300
0000
0001
0000
1000
0000
,
0020
0000
0000
0000
0230
0000
0000
0002
0000
0000
0300
0000
2003
0000
0000
0200
,
0000
0000
3000
0000
0310
0000
0001
2000
0000
0000
3001
0000
0010
0000
0001
0000
,
2000
0001
0100
0001
,
0200
0000
3300
0000
,
0101
1100
0101
1100
,
0101
1100
0101
1100
,
0101
0000
0000
0000
0002
0000
1003
0100
0000
0010
0000
0100
1000
0000
0001
0000
,
1000
0000
0010
0000
0200
0000
0301
1000
0000
0001
0000
1000
0100
0000
0010
0000
,
0001
0000
0000
0000
2000
0000
0000
0020
0000
0000
3000
0000
0230
0000
0000
0002
,
0000
0000
0000
0303
,
0001
0000
0000
0000
2000
0000
3100
0010
0000
0001
0000
0010
0100
0000
1000
0000
,
0001
0000
1000
0000
0020
0000
0130
0001
0000
1000
0000
0001
0010
0000
0100
0000
,
200M
3000
0000
0001
M020
0030
0200
0300
00M0
0000
0000
0010
010M
0010
0100
0000
,
20M0
3000
0000
0001
M020
0030
0002
0003
0M00
1000
0100
1000
00M1
1000
0001
0000
,
M200
0300
0000
0010
200M
3000
0002
0003
0M00
0000
0000
1000
001M
1000
0010
0000
,
M200
0000
0300
0000
0000
0000
0001
0000
20M0
0000
3000
0000
0200
0000
0300
0000
000M
0000
0010
0000
0002
0000
0003
0000
1000
0000
0004
0040
0000
0000
0000
0000
,
0033
0000
0010
0000
0100
0000
1000
0002
0000
0000
0203
0000
0000
0000
0310
0000
,
0100
0000
0001
0000
1000
0000
0100
2000
0000
0000
3002
0000
0003
0100
0010
0100
,
0020
2030
3002
0203
,
0301
1000
0001
1000
0100
0010
0100
0010
,
0002
0000
4003
0000
0000
3020
0000
0030
0110
0000
0000
0000
0101
0000
0004
0000
,
2003
0000
0000
0000
3002
0000
0000
0200
0000
0000
0003
0000
0320
0000
0000
2000
,
0000
0000
0030
0000
3001
0000
0010
0200
0000
0000
1300
0000
0001
0000
0100
0000
,
0020
0000
0000
0000
0230
0000
0000
0002
0000
0000
0300
0000
2003
0000
0000
0200
,
0000
0000
3000
0000
0310
0000
0001
2000
0000
0000
3010
0000
1000
0000
0001
0000
,
0020
0000
0000
0000
0230
0000
0000
2000
0000
0000
0300
0000
3002
0000
0000
0020
,
0000
0000
0003
0000
0130
0000
1000
0002
0000
0000
1003
0000
0010
0000
1000
0000
,
0002
0003
0022
0033
2200
3300
0022
0033
,
2200
0000
0000
0000
0000
0000
0000
0000
0000
0000
0000
0000
0000
0000
0000
0000
0000
0000
3300
0000
0000
0000
0000
0000
4000
0000
0000
0000
0004
0000
00M0
0000
0000
0000
0000
0000
0000
0000
0000
0M00
0000
0000
0000
0000
3000
0000
0000
0000
,
0013
0000
0000
0200
0000
0000
1300
0000
0001
0010
0000
0200
0000
0000
1300
0000
,
0001
0000
0100
0000
0010
0000
0100
0000
00M4
0000
0003
0400
M000
0300
00M4
0000
,
0103
0000
0000
0020
0000
0000
1030
0000
0001
1000
0000
0200
0000
0000
1300
0000
,
0001
0000
0000
0020
0000
0000
0130
0000
40M0
0000
3000
040M
0000
0300
40M0
0000
,
3001
0000
0000
0200
0000
0000
0310
0000
1000
0001
0000
0020
0000
0000
0031
0000
,
1000
0000
0010
0000
1000
0000
0001
0000
M040
0000
0030
040M
0000
0300
M040
0000
,
0031
0000
1000
0200
0000
0000
0310
0000
0001
1000
0000
0020
0000
0000
1030
0000
,
0001
0100
0001
1000
040M
0000
00M0
0000
,
030M
0000
0010
0000
0001
0000
1000
0020
0000
0000
0230
0000
0000
0000
0301
0000
,
1000
0000
0001
0000
0010
0000
0100
2000
0000
0000
3002
0000
0003
0000
0000
0000
,
2000
3020
0230
0302
,
1003
0010
1000
0002
2000
0000
0000
0000
,
0000
0000
0000
0000
,
0000
0000
0000
0000
0000
0000
3003
0000
0M02
0000
0000
0000
0023
0000
0000
0230
0000
0000
0000
0000
2300
0000
0000
3002
00M0
0003
0000
0000
1000
0000
0001
0020
,
0000
0000
0031
0000
1000
0000
0001
0000
02M0
0000
0000
0000
0320
0000
0000
2030
0000
0000
0000
0000
3002
0000
0000
0203
M000
0000
0300
0000
0001
0000
1000
0200
,
0000
0000
0310
0000
0100
0000
1000
0000
00M2
0000
0000
0000
2003
0000
0000
3200
0000
0000
0000
0000
0320
0000
0000
0032
M000
0000
0003
0000
1000
0000
0001
0020
,
0000
0031
1000
0001
0200
0000
0302
0000
2003
0000
3002
0000
2000
0000
0000
0000
,
0000
0000
0000
0000
0003
0000
0000
0000
3200
0000
0000
0000
0310
0001
0000
2000
0000
0000
0000
0000
3004
0000
0000
0000
0203
0000
0000
0000
0000
0000
0000
0000
,
0320
0000
0000
0200
0000
0000
0300
0000
2030
0000
0000
0002
0000
0000
0003
0000
,
3010
0000
0100
0002
0000
0000
1003
0000
0010
0000
0100
0000
0002
0000
0000
0000
,
2003
0000
0000
0200
0000
0000
0300
0000
3002
0000
0000
0200
0000
0000
0300
0000
,
1003
0000
0100
0020
0000
0000
0130
0000
1000
0000
0001
0000
0200
0000
0000
0000
,
0320
0000
0000
2000
0000
0000
0030
0000
3002
0000
0000
0020
0000
0000
0003
0000
,
0130
0000
1000
0002
0000
0000
0103
0000
0010
0000
1000
0000
0002
0000
0000
0000
,
0010
1000
0010
2003
,
3002
2000
3003
0101
,
1100
0101
1100
0101
,
1100
0101
1100
0101
,
0002
0000
0000
2000
0000
0000
3000
0000
0023
0000
0000
0200
0000
0000
0300
0000
,
0032
0000
1003
0100
0000
0010
0000
0100
1000
0000
0001
0000
0200
0000
0000
0000
,
0320
0000
0000
2000
0000
0000
3000
0000
0230
0000
0000
0002
0000
0000
0003
0000
,
0310
0000
1000
0001
0000
0010
0000
0001
1000
0000
0010
0000
0100
0000
0001
0000
,
2000
0000
0000
0200
0000
0000
0300
0000
3002
0000
0000
0200
0000
0000
0300
0000
,
1003
0000
0100
0010
0000
0100
0000
1000
0002
0000
1003
0000
0000
0000
0000
0000
;

//---------------dance-single - Ace Of Hearts (2012)----------------
#NOTES:
     dance-single:
     Ace Of Hearts (2012):
     Medium:
     7:
     0.362,0.000,0.096,0.741,0.191:
0000
0000
0000
0000
,
0000
0000
0000
0000
,
0000
0000
0000
0000
,
0000
0000
0000
0000
,
0000
0000
0000
0000
,
0000
0000
0000
0000
,
1000
0000
0000
0000
0002
0000
0000
1003
0000
0000
0000
0000
0000
0000
0000
0000
,
0100
0000
1000
0000
0200
0000
0000
0310
0000
0000
0000
0000
0000
0000
0000
0000
,
0001
0000
0000
0000
2000
0000
0000
3001
0000
0000
0000
0000
0000
0000
0000
0000
,
0100
0000
0001
0000
0200
0000
0000
0310
0000
0000
0000
0000
0000
0000
0000
0000
,
1000
0000
0000
0000
0020
0000
0000
1030
0000
0000
0000
0000
0000
0000
0000
0000
,
0001
0000
0010
0000
0002
0000
0000
1003
0000
0000
0000
0000
0000
0000
0000
0000
,
0100
0000
0000
0000
2000
0000
0000
3100
0000
0000
0000
0000
0000
0000
0000
0000
,
0010
0000
0001
0000
0020
0000
0000
0130
0000
0000
0000
0000
0000
0000
0000
0000
,
2M00
3000
0000
0000
0001
0000
0001
0000
0000
0000
0000
0000
100M
0000
0100
0000
,
1000
0000
0001
0001
0M00
1000
0010
1000
,
00M2
0003
0000
0000
1000
0000
1000
0000
0000
0000
0000
0000
M001
0000
0100
0000
,
0001
0000
1000
1000
0M00
0001
0010
0001
,
0000
0000
1000
0000
0100
0000
0000
0010
0000
0000
0000
0000
0000
0000
0000
0000
,
0001
0000
0010
0000
0001
0000
0000
2000
0000
0000
3000
0000
0040
0000
0000
0000
,
2030
3002
0203
0320
,
1030
0001
1000
0000
0200
0000
0000
0000
,
2300
0000
0000
0000
3002
0000
0000
0020
0000
0003
0000
0000
0230
0000
0000
2000
,
0000
0300
0000
0000
3001
0000
0000
0020
0000
0000
0130
0000
1000
0000
0000
0000
,
0002
0000
0000
0000
2003
0000
0000
0020
0000
3000
0000
0000
0230
0000
0000
0002
,
0000
0300
0000
0000
1003
0000
0000
0020
0000
0000
1030
0000
0001
0000
0000
0000
,
2000
0000
0000
0000
3020
0000
0000
0200
0000
0030
0000
0000
0302
0000
0000
2000
,
0000
0003
0000
0000
3100
0000
0000
0020
0000
0000
0130
0000
1000
0000
0000
0000
,
0002
0010
1000
0010
,
2000
0000
3003
0000
,
0101
1100
0101
1100
,
0101
1100
0101
1100
,
0101
0000
0000
0000
0002
0000
0000
1003
0000
0000
0000
0000
0000
0000
0000
0000
,
0010
0000
1000
0000
0020
0000
0000
0130
0000
0000
0000
0000
0000
0000
0000
0000
,
0001
0000
0000
0000
2000
0000
0000
0002
0000
3000
0000
0000
0023
0000
0000
0200
,
0000
0000
0000
0330
,
0010
0000
0000
0000
0002
0000
0000
0013
0000
0000
0000
0000
0000
0000
0000
0000
,
0001
0000
1000
0000
0002
0000
0000
0103
0000
0000
0000
0000
0000
0000
0000
0000
,
M020
0030
0000
0000
0100
0000
0100
0000
0000
0000
0000
0000
00M1
0000
1000
0000
,
0001
0000
0010
0010
000M
0100
1000
0100
,
1000
0000
M001
0001
0000
0000
0100
0010
,
010M
0000
0001
0001
0M00
1000
0010
1000
,
0000
0000
0001
0000
0010
0000
0000
0200
0000
0000
0300
0000
0000
0000
0000
0000
,
1000
0000
0001
0000
1000
0000
0000
0020
0000
0000
0030
0000
0400
0000
0000
0000
,
0302
0000
0000
0000
2003
0000
0000
0000
0200
3000
0000
0000
0320
0000
0000
0000
,
0031
1000
0001
0000
1000
0010
1000
0000
,
0001
0000
4000
0000
0000
3002
0000
0000
0013
0000
0000
0000
0200
0000
0000
0000
,
2300
0000
0000
0000
3002
0000
0000
2000
0000
0003
0000
0000
3020
0000
0000
0200
,
0000
0030
0000
0000
0301
0000
0000
2000
0000
0000
3100
0000
0010
0000
0000
0000
,
0200
0000
0000
0000
2300
0000
0000
0002
0000
3000
0000
0000
0203
0000
0000
0020
,
0000
0300
0000
0000
1030
0000
0000
0002
0000
0000
0013
0000
0100
0000
0000
0000
,
2000
0000
0000
0000
3002
0000
0000
0200
0000
0003
0000
0000
0320
0000
0000
2000
,
0000
0030
0000
0000
3001
0000
0000
0020
0000
0000
0130
0000
1000
0000
0000
0000
,
0002
0023
0230
0320
,
0200
0030
0340
M000
,
0031
0000
0000
0002
0000
0000
1003
0000
0010
0000
0000
0020
0000
0000
1030
0000
,
0001
0000
0000
0000
0001
0000
0000
0000
4000
0000
0000
00M0
0000
0000
0000
0000
,
3010
0000
0000
0020
0000
0000
1030
0000
0001
0000
0000
0002
0000
0000
0013
0000
,
0200
0000
0000
0000
0300
0000
0010
0000
0004
0000
0000
0M00
0000
0000
0000
0000
,
1003
0000
0000
2000
0000
0000
3001
0000
0100
0000
0000
0200
0000
0000
0310
0000
,
1000
1000
0040
000M
,
0130
0000
0000
0200
0000
0000
0301
0000
1000
0000
0000
2000
0000
0000
3100
0000
,
0010
0000
0000
0020
0000
0000
0030
0000
0400
0000
0000
0000
M000
0000
0000
0000
,
0300
0000
1000
0000
0001
0000
0000
0200
0000
0000
0300
0000
0000
0000
0000
0000
,
0010
0000
1000
0000
0010
0000
0000
0200
0000
0000
0300
0000
0000
0000
0000
0000
,
0020
2030
3002
0023
,
0031
1000
0001
0000
2002
0000
0000
0000
,
0000
0000
0000
0000
,
0000
0000
0000
0000
0000
0000
3003
0000
20M0
0000
0000
0000
3002
0000
0000
0023
0000
0000
0000
0000
0230
0000
0000
2300
0000
0000
0000
0000
3001
0000
0000
0020
,
0000
0000
0031
0000
1000
0000
0000
0000
0M02
0000
0000
0000
2003
0000
0000
3200
0000
0000
0000
0000
0320
0000
0000
0032
0000
0000
0000
0000
1003
0000
0000
0020
,
0000
0000
1030
0000
0001
0000
0000
0000
M200
0000
0000
0000
0320
0000
0000
2030
0000
0000
0000
0000
3002
0000
0000
0203
0000
0300
0000
0000
0010
0000
0000
2000
,
0000
3001
0010
0000
0200
0000
2300
0000
3002
0000
2003
0000
0002
0000
0000
0000
,
0000
3000
0203
0310
1010
2000
3002
0000
,
0023
0000
0000
0002
0000
0030
0000
0000
2003
0000
0000
0020
0000
3000
0000
0000
,
0130
0000
0000
0002
0000
0000
1003
0000
0100
0000
0000
0000
2000
0000
0000
0000
,
3002
0000
0000
0200
0000
0003
0000
0000
0320
0000
0000
2000
0000
0030
0000
0000
,
3001
0000
0000
0020
0000
0000
0031
0000
1000
0000
0000
0000
0020
0000
0000
0000
,
0230
0000
0000
0002
0000
0300
0000
0000
2003
0000
0000
0200
0000
3000
0000
0000
,
0310
0000
0000
0002
0000
0000
1003
0000
0010
0000
0000
0000
0200
0000
0000
0000
,
0001
0010
0001
0020
,
0000
0330
0000
0101
,
1100
0101
1100
0101
,
1100
0101
1100
0101
,
0002
0000
0000
2000
0000
0003
0000
0000
3020
0000
0000
0200
0000
0030
0000
0000
,
0302
0000
0000
1003
0000
0000
0000
0000
0000
0000
0001
0000
0020
0000
0000
0000
,
0230
0000
0000
2000
0000
0300
0000
0000
3002
0000
0000
0200
0000
0003
0000
0000
,
0320
0000
0000
1030
0000
0000
0000
0000
0001
0000
0000
0000
1000
0000
0000
0000
,
0020
0000
0000
2000
0000
0030
0000
0000
3002
0000
0000
0020
0000
0003
0000
0000
,
0230
0000
0000
1300
0000
0000
0000
0000
0001
0000
1000
0000
0000
0000
0000
0000
;

//---------------dance-single - Ace Of Hearts (2012)----------------
#NOTES:
     dance-single:
     Ace Of Hearts (2012):
     Easy:
     5:
     0.211,0.000,0.000,0.277,0.062:
0000
0000
0000
0000
,
0000
0000
0000
0000
,
0000
0000
0000
0000
,
0000
0000
0000
0000
,
0000
0000
0000
0000
,
0000
0000
0000
0000
,
0001
0001
0001
0000
,
0100
0100
0100
0000
,
0010
0010
0010
0000
,
1000
1000
1000
0000
,
0001
0001
0001
0000
,
0010
0010
0010
0000
,
0001
0001
0001
0000
,
1000
1000
1000
0000
,
0M10
0010
0000
1000
,
1000
1000
0000
0001
,
00M1
0001
0000
0100
,
0100
0100
0000
0001
,
0000
1000
1000
0000
,
0001
0001
0001
0040
,
0130
0100
0100
0000
,
1000
1000
2000
3000
,
0001
0000
0000
0000
0001
0000
0000
0002
0000
0000
0000
0000
0103
0000
0000
0200
,
0000
0320
0000
0030
,
1000
0000
0000
0000
1000
0000
0000
2000
0000
0000
0000
0000
3001
0000
0000
0002
,
0000
2003
0000
3000
,
0010
0000
0000
0000
0010
0000
0000
0020
0000
0000
0000
0000
0130
0000
0000
0200
,
0000
0302
0000
0003
,
1000
0002
2003
3002
,
2000
0000
3003
0000
,
0001
1000
0001
1000
,
0001
1000
0001
1000
,
0001
0001
0001
0000
,
0100
0100
0100
0000
,
0000
0000
0000
0000
0010
0000
0000
0020
0000
0000
0000
0000
1030
0000
0000
2000
,
0000
0000
0000
3000
,
0001
0001
0001
0000
,
0010
0010
0010
0000
,
M001
0001
0000
0100
,
0100
0100
0000
0010
,
001M
0010
0000
1000
,
1000
1000
0000
0001
,
0000
1000
1000
0000
,
0010
0010
0010
0400
,
0301
0001
0001
0000
,
1000
1000
0010
0010
,
0020
0000
0030
0000
,
0100
0000
0000
0000
0100
0000
0000
0200
0000
0000
0000
0000
0301
0000
0000
0002
,
0000
2003
0000
3000
,
0010
0000
0000
0000
0010
0000
0000
0020
0000
0000
0000
0000
0130
0000
0000
0200
,
0000
0302
0000
0003
,
1000
0000
0000
0000
1000
0000
0000
2000
0000
0000
0000
0000
3100
0000
0000
0200
,
0000
0320
0000
0030
,
0001
0020
0230
0320
,
0200
0000
0000
0330
,
0010
0010
0001
0001
,
1000
1000
0004
0M00
,
1003
1000
0010
0010
,
0000
0000
4000
00M0
,
3001
0001
1000
1000
,
0100
0100
0040
M000
,
0031
0001
1000
1000
,
1000
0000
0400
0000
,
0300
0010
0010
0000
,
0001
0001
0001
0000
,
1000
1000
0010
0010
,
1000
0002
2000
0000
,
0000
0000
0000
0000
,
3003
0000
0M01
0001
0001
1000
1000
0020
,
0000
0030
100M
1000
1000
0010
0010
0200
,
0000
0300
M001
0001
0001
1000
1000
0020
,
0000
0030
1000
0002
2003
3002
2000
0000
,
0000
3003
0000
0001
,
0001
0000
0000
0002
0000
0000
0000
0000
1003
0000
0000
2000
0000
0000
0000
0000
,
3200
0000
0300
1000
,
1000
0000
0000
2000
0000
0000
0000
0000
3001
0000
0000
0002
0000
0000
0000
0000
,
0023
0000
0030
0100
,
0100
0000
0000
0200
0000
0000
0000
0000
1300
0000
0000
2000
0000
0000
0000
0000
,
3002
0000
0003
1000
,
0002
2003
3002
2000
,
0000
3003
0000
0001
,
1000
0001
1000
0001
,
1000
0001
1000
0001
,
1000
0000
0000
2000
0000
0000
0000
0000
3100
0000
0000
0200
0000
0000
0000
0000
,
0000
0300
0000
0010
,
0010
0000
0000
0020
0000
0000
0000
0000
0130
0000
0000
0200
0000
0000
0000
0000
,
0000
0300
0000
0000
,
1000
0000
0000
2000
0000
0000
0000
0000
3001
0000
0000
0002
0000
0000
0000
0000
,
0000
0000
0003
0000
0001
1000
0000
0000
;

//---------------dance-single - Ace Of Hearts (2012)----------------
#NOTES:
     dance-single:
     Ace Of Hearts (2012):
     Beginner:
     2:
     0.125,0.000,0.000,0.163,0.000:
0000
0000
0000
0000
,
0000
0000
0000
0000
,
0000
0000
0000
0000
,
0000
0000
0000
0000
,
0000
0000
0000
0000
,
0000
0000
0000
0000
,
1000
0000
1000
0000
,
0001
0000
0001
0000
,
0100
0000
0100
0000
,
0010
0000
0010
0000
,
1000
0000
1000
0000
,
0001
0000
0001
0000
,
0010
0000
0010
0000
,
0001
0000
0001
0000
,
1000
1000
0000
0001
,
0001
0001
0000
1000
,
1000
1000
0000
0100
,
0100
0100
0000
1000
,
0000
0002
0000
0003
,
1000
0000
1000
0000
,
0001
0000
0001
0000
,
0010
0000
0010
0000
,
0001
0000
0001
0000
,
0002
0000
0003
0000
,
1000
0000
1000
0000
,
2000
0000
3000
0000
,
0010
0000
0010
0000
,
0020
0000
0030
0000
,
1000
0000
0002
0000
,
2000
0000
3003
0000
,
0001
0000
0001
0000
,
0002
0000
0003
0000
,
0100
0000
0100
0000
,
0010
0000
0010
0000
,
0000
0000
1000
0000
,
2000
0000
3000
0000
,
0001
0000
0001
0000
,
0010
0000
0010
0000
,
0100
0100
0000
1000
,
1000
1000
0000
0001
,
0001
0001
0000
0100
,
0100
0100
0000
0010
,
0000
2000
0000
3000
,
0001
0000
0001
0000
,
0010
0000
0010
0000
,
0100
0000
0100
0000
,
0200
0000
0300
0000
,
0001
0000
0001
0000
,
0002
0000
0003
0000
,
1000
0000
1000
0000
,
2000
0000
3000
0000
,
0100
0000
0100
0000
,
0200
0000
0300
0000
,
0020
0000
0032
0000
,
2000
0000
0000
3003
,
0001
0000
0001
0000
,
1000
0000
4000
0000
,
3001
0000
0002
0000
,
0003
0000
0004
0000
,
1003
0000
1000
0000
,
0010
0000
0040
0000
,
0130
0000
0100
0000
,
0002
0000
0403
0000
,
0300
0020
0000
0030
,
1000
0000
1000
0000
,
0001
0000
0001
0000
,
0010
0000
0020
0000
,
0000
0000
0000
0000
,
0030
0001
0001
0002
,
0003
1000
1000
2000
,
3000
0010
0010
0020
,
0030
0100
0100
0200
,
0000
0300
0000
0001
,
0000
0001
0000
0002
,
0000
0003
0000
1000
,
0000
1000
0000
2000
,
0000
3000
0000
0100
,
0000
0100
0000
0200
,
0000
0300
0000
1000
,
0000
0002
0000
2000
,
0000
3003
0000
0001
,
0000
0001
0000
0002
,
0000
0003
0000
0000
,
0000
1000
0000
2000
,
0000
3000
0000
0010
,
0000
0010
0000
0020
,
0000
0030
0000
0000
,
0000
1000
0000
2000
,
0000
0000
3000
0000
0002
0003
0000
0000
;
