#TITLE:Fukkireta;
#SUBTITLE:(Marisa Version);
#ARTIST:Unknown;
#TITLETRANSLIT:;
#SUBTITLETRANSLIT:;
#ARTISTTRANSLIT:;
#GENRE:J-Pop;
#CREDIT:Ace Of Hearts;
#BANNER:Fukkireta Marisa - bn.png;
#BACKGROUND:Fukkireta Marisa - bg.jpg;
#LYRICSPATH:;
#CDTITLE:Ace Of Hearts.png;
#MUSIC:Fukkireta (Marisa Verison).ogg;
#OFFSET:0.442;
#SAMPLESTART:61.400;
#SAMPLELENGTH:12.000;
#SELECTABLE:YES;
#BPMS:0.000=150.000;
#STOPS:;
#BGCHANGES:1.000=Marisa's Fukkireta.avi=1.000=1=0=1===CrossFade==,
99999=-nosongbg-=1.000=0=0=0 // don't automatically add -songbackground-
;
#KEYSOUNDS:;

//---------------dance-single - Expert----------------
#NOTES:
     dance-single:
     Ace Of Hearts (2012):
     Challenge:
     10:
     0.801,0.000,0.065,1.000,0.344: // measure 1
0000
0000
0000
0000
,  // measure 2
0000
0000
0000
0000
,  // measure 3
0000
0000
0000
0000
,  // measure 4
0000
0000
0000
0000
,  // measure 5
0000
0000
0000
0000
0000
0001
2000
3020
,  // measure 6
0230
0000
0302
0000
2003
0000
3010
0100
0000
0000
0002
0000
2003
0000
3200
0000
,  // measure 7
0320
0000
0032
0000
2003
0000
3001
0040
0000
0000
0230
0000
0320
0000
0032
0000
,  // measure 8
2003
0000
3020
0000
0130
0000
0001
2000
0000
0000
3100
0000
0010
0000
0100
0000
,  // measure 9
2000
0000
3001
0200
0000
0310
4000
0000
,  // measure 10
3002
0000
0203
0000
0320
0000
1030
0002
0000
0000
0023
0000
0230
0000
2300
0000
,  // measure 11
3002
0000
0203
0000
0302
0000
0013
0200
0000
0000
0320
0000
0032
0000
2003
0000
,  // measure 12
3200
0000
0320
0000
0230
0000
1300
0002
0000
0000
0203
0000
0310
0000
1000
0000
,  // measure 13
0001
0010
0100
2000
0000
3001
0200
0000
,  // measure 14
0310
0100
0010
0100
0001
0000
1000
0001
1000
0001
1000
0001
0010
0000
0100
1000
,  // measure 15
0100
1000
0100
1000
0001
0000
1000
0010
1000
0010
2000
0000
3002
0000
0000
0000
,  // measure 16
0023
0000
0030
0100
2000
0000
0000
3001
,  // measure 17
1000
0100
0001
0100
4000
0000
3000
0000
,  // measure 18
0002
0000
0000
0103
0020
0000
0030
1000
,  // measure 19
0001
0010
1000
0010
0002
0000
0003
0000
,  // measure 20
0020
0000
0000
0130
2000
0000
3000
0001
,  // measure 21
1000
0100
0001
0100
4000
0000
3000
0000
,  // measure 22
0002
0000
0000
0103
0020
0000
0030
1000
,  // measure 23
0001
0000
0010
0000
1000
0000
0010
0000
0001
0010
0001
0000
1000
0000
0010
0100
,  // measure 24
0020
0000
0000
0130
0002
0000
0003
1000
,  // measure 25
0001
0100
1000
0100
0002
0003
0000
0000
,  // measure 26
2000
0000
0000
3100
0020
0000
0030
0100
,  // measure 27
1000
0001
0100
1000
0400
0000
0300
0000
,  // measure 28
0002
0000
0000
1003
0020
0000
0000
1030
,  // measure 29
0001
0100
1000
0100
0004
0000
0003
0000
,  // measure 30
2000
0000
0000
3100
0020
0000
0030
0100
,  // measure 31
1000
0000
0001
0000
0100
0000
0010
0000
1000
0001
1000
0000
0100
0000
0010
0100
,  // measure 32
0010
0000
0001
0000
1000
0000
0010
0000
0100
0000
0002
0000
1003
0000
0100
0010
,  // measure 33
0000
0010
0100
0000
1000
0000
0001
0000
0010
0000
0400
0000
0000
0300
1000
0100
,  // measure 34
2000
0000
3001
0000
0100
0000
0001
1000
0001
0000
2000
0000
3001
0010
0100
0010
,  // measure 35
0001
0000
1000
0100
0010
0100
1000
0000
1002
0000
0203
0000
0300
0000
0001
0100
,  // measure 36
0010
0100
0001
0000
1000
0000
0100
0010
0200
0000
1300
0001
0000
0000
1000
0010
,  // measure 37
1000
0000
0001
0000
2000
0000
3001
0010
0100
0010
0001
0000
0000
0000
1000
0100
,  // measure 38
0010
0001
0010
0100
1000
0000
0001
0000
0200
0000
0310
1000
0010
1000
0000
0000
,  // measure 39
1001
0000
0000
0101
0000
0000
2020
0000
3030
0000
2000
0000
3002
0000
0203
0000
,  // measure 40
0320
0000
2030
0000
3002
0000
0013
0100
0000
0000
0020
0000
0032
0000
2003
0000
,  // measure 41
3020
0000
0230
0000
0301
0000
1000
0020
0000
0000
2030
0000
3002
0000
0023
0000
,  // measure 42
0230
0000
1300
0000
0002
0000
0013
0200
0000
0000
0310
0000
0001
0000
1000
0000
,  // measure 43
0020
0000
0000
0000
0130
0000
0001
0000
1000
0100
1000
0000
0001
0000
0010
0100
,  // measure 44
0020
0000
0032
0000
2003
0000
3010
0200
0000
0000
0302
0000
2003
0000
3200
0000
,  // measure 45
0320
0000
0032
0000
2003
0000
3001
0200
0000
0000
0320
0000
2030
0000
3002
0000
,  // measure 46
0023
0000
0230
0000
2300
0000
3001
0020
0000
0000
0130
0000
1000
0000
0001
0000
,  // measure 47
1000
0100
0001
0200
0000
1300
0002
0003
,  // measure 48
0202
0000
0303
0000
0000
0000
0100
0010
0200
0000
0302
0000
1003
0100
1000
0000
,  // measure 49
0002
0203
0320
2030
3001
0010
0100
1000
,  // measure 50
0002
0000
0000
0003
0000
1000
0010
0100
,  // measure 51
0001
0000
0100
0000
1000
0000
0200
0000
0000
0000
0310
0000
1000
0000
0001
1000
,  // measure 52
0000
0100
0020
0000
0030
0100
1000
0001
,  // measure 53
0010
1000
0010
0002
0000
1003
0100
0020
,  // measure 54
0000
0000
0230
0000
0000
0000
0000
0000
0300
0000
0000
0000
0000
0000
1000
0100
,  // measure 55
1000
0002
0103
0020
0000
0130
0002
0000
,  // measure 56
1003
0010
1000
0010
0100
0000
0001
0100
0001
0100
0001
0100
0010
0000
1000
0001
,  // measure 57
1000
0001
1000
0001
0100
0000
0010
0100
0010
0100
0001
0000
1001
0000
0000
0000
;

//---------------dance-single - Hard----------------
#NOTES:
     dance-single:
     Ace Of Hearts (2012):
     Hard:
     8:
     0.552,0.000,0.000,0.687,0.082: // measure 1
0000
0000
0000
0000
,  // measure 2
0000
0000
0000
0000
,  // measure 3
0000
0000
0000
0000
,  // measure 4
0000
0000
0000
0000
,  // measure 5
0000
0000
0000
0000
0000
1000
0100
1000
,  // measure 6
0100
0000
1000
0000
0002
0000
0000
0203
0000
0000
0310
0000
0100
0000
0010
0000
,  // measure 7
0100
0000
0010
0000
2000
0000
0000
3002
0000
0000
0013
0000
0100
0000
0010
0000
,  // measure 8
0100
0000
0010
0000
0002
0000
0000
2003
0000
0000
3010
0000
0100
0000
0010
0000
,  // measure 9
0200
0000
0301
2000
0000
3100
0040
0000
,  // measure 10
0031
0000
1000
0000
0002
0000
0000
0023
0000
0000
0130
0000
1000
0000
0100
0000
,  // measure 11
1000
0000
0100
0000
0020
0000
0000
0032
0000
0000
1003
0000
0010
0000
1000
0000
,  // measure 12
0010
0000
1000
0000
0002
0000
0000
0023
0000
0000
0130
0000
1000
0000
0100
0000
,  // measure 13
0010
0001
0010
0002
0000
1003
0020
0000
,  // measure 14
0430
0000
0000
0300
,  // measure 15
0004
0000
0000
0003
,  // measure 16
2000
0000
0000
3100
0020
0000
0000
0031
,  // measure 17
1000
0001
0010
0001
4000
0000
3000
0000
,  // measure 18
0020
0000
0000
1030
0002
0000
0000
1003
,  // measure 19
0010
0100
0001
1000
0002
0000
0003
0000
,  // measure 20
2000
0000
0000
3100
2000
0000
0000
3001
,  // measure 21
0010
0001
1000
0001
0400
0000
0300
0000
,  // measure 22
0020
0000
0000
0130
0002
0000
0000
1003
,  // measure 23
0100
0010
0001
0010
0100
1000
0002
0000
,  // measure 24
2003
0000
0000
3001
0020
0000
0000
0031
,  // measure 25
0010
0100
1000
0001
2000
0000
3000
0000
,  // measure 26
0002
0000
0000
0103
0020
0000
0000
1030
,  // measure 27
0010
0100
0001
1000
0400
0000
0300
0000
,  // measure 28
0020
0000
0000
0130
2000
0000
0000
3001
,  // measure 29
0010
0100
1000
0001
4000
0000
3000
0000
,  // measure 30
0002
0000
0000
0103
0020
0000
0030
1000
,  // measure 31
0010
0100
0001
0100
0010
1000
0002
0003
,  // measure 32
0000
0000
1000
0000
0010
0000
1000
0000
0001
0000
0000
0000
0010
0000
0000
0010
,  // measure 33
0000
0001
1000
0001
1000
0100
0000
1000
,  // measure 34
0001
1000
0001
1000
0100
0010
0100
1000
,  // measure 35
0001
0010
0001
1000
0001
0100
0000
0010
,  // measure 36
0100
0000
0010
0000
1000
0000
0010
0000
0100
0000
0000
0100
0000
0000
0001
0000
,  // measure 37
1000
0100
0010
0100
1000
0001
0000
1000
,  // measure 38
0010
1000
0001
0010
0001
1000
0100
0010
,  // measure 39
0200
0000
0000
2300
0000
0000
3001
0000
0000
0000
1000
0000
0010
0000
1000
0000
,  // measure 40
0001
0000
1000
0000
0002
0000
0000
0203
0000
0000
0310
0000
1000
0000
0010
0000
,  // measure 41
0100
0000
0001
0000
0200
0000
0000
0320
0000
0000
1030
0000
0001
0000
1000
0000
,  // measure 42
0100
0000
0010
0000
0200
0000
0000
2300
0000
0000
3001
0000
0010
0000
0001
0000
,  // measure 43
2000
0000
3100
0020
0000
0130
4000
0000
,  // measure 44
3001
0000
0100
0000
0002
0000
0000
2003
0000
0000
3001
0000
0010
0000
0001
0000
,  // measure 45
1000
0000
0010
0000
2000
0000
0000
3002
0000
0000
0013
0000
0100
0000
0010
0000
,  // measure 46
0001
0000
1000
0000
0002
0000
0000
0203
0000
0000
0310
0000
0100
0000
0010
0000
,  // measure 47
1000
0010
1000
0002
0000
1003
0200
0000
,  // measure 48
0310
0000
0000
0001
0010
0100
0010
0001
,  // measure 49
1000
0010
0100
0001
0100
0010
1000
0001
,  // measure 50
2000
0000
0000
3000
0000
0001
0010
0100
,  // measure 51
1000
0100
0010
0002
0000
2003
0000
3001
,  // measure 52
0010
0001
0020
0000
0000
0130
1000
0100
,  // measure 53
1000
0001
1000
0200
0000
1300
0001
0020
,  // measure 54
0000
0230
0000
0000
0300
0000
0000
0010
,  // measure 55
0001
0010
0100
2000
0000
3001
0200
0000
,  // measure 56
0304
0000
0000
0003
,  // measure 57
4000
0000
0000
0000
3000
0001
0010
0000
;

//---------------dance-single - Medium----------------
#NOTES:
     dance-single:
     Ace Of Hearts (2012):
     Medium:
     6:
     0.393,0.000,0.011,0.567,0.000: // measure 1
0000
0000
0000
0000
,  // measure 2
0000
0000
0000
0000
,  // measure 3
0000
0000
0000
0000
,  // measure 4
0000
0000
0000
0000
,  // measure 5
0000
0000
0000
1000
,  // measure 6
0001
0100
0002
0000
1003
0000
0010
0000
,  // measure 7
0100
0001
0100
0000
0020
0000
1030
0000
,  // measure 8
0001
0010
0001
0000
2000
0000
3010
0000
,  // measure 9
0200
0000
0000
0302
0000
0000
2003
0000
,  // measure 10
3010
0100
0010
0000
2000
0000
3001
0000
,  // measure 11
0010
0001
0010
0000
0200
0000
0310
0000
,  // measure 12
0001
1000
0001
0000
0200
0000
0310
0000
,  // measure 13
2000
0000
0000
3002
0000
0000
0203
0000
,  // measure 14
0340
0000
0000
0030
,  // measure 15
4000
0000
0000
3000
,  // measure 16
0002
0000
0000
1003
0020
0000
0000
1030
,  // measure 17
0001
0010
0400
0300
,  // measure 18
2000
0000
0000
3001
0200
0000
0000
0310
,  // measure 19
1000
0001
0200
0300
,  // measure 20
0002
0000
0000
1003
0020
0000
0000
1030
,  // measure 21
0001
0010
0400
0300
,  // measure 22
0020
0000
0000
0031
2000
0000
0000
3001
,  // measure 23
0200
0000
0301
1000
0002
0000
0103
0000
,  // measure 24
0020
0000
0000
1030
0002
0000
0000
1003
,  // measure 25
0100
0010
0100
0000
,  // measure 26
2000
0000
0000
3001
0020
0000
0000
0031
,  // measure 27
1000
0001
0400
0300
,  // measure 28
0020
0000
0000
0130
0002
0000
0000
1003
,  // measure 29
0100
0010
0400
0300
,  // measure 30
0020
0000
0000
0031
2000
0000
3000
0001
,  // measure 31
0100
0000
0010
0000
1000
0001
1000
0000
,  // measure 32
0000
0000
0001
0000
1000
0100
1000
0000
,  // measure 33
0001
0000
0010
0000
0100
1000
0000
0000
,  // measure 34
0001
0000
1000
0000
0001
0010
0000
0000
,  // measure 35
0001
1000
0001
0000
0010
0100
0000
0000
,  // measure 36
0010
0001
0010
0000
0100
0000
1000
0000
,  // measure 37
0001
1000
0001
0000
1000
0010
0000
0000
,  // measure 38
1000
0001
1000
0000
0001
0010
0001
0000
,  // measure 39
2002
0000
3003
1000
,  // measure 40
0001
0010
0002
0000
1003
0000
0010
0000
,  // measure 41
1000
0001
1000
0000
0200
0000
0310
0000
,  // measure 42
0001
0010
0001
0000
2000
0000
3001
0000
,  // measure 43
0200
0000
0000
0320
0000
0000
1030
0000
,  // measure 44
0001
0010
0001
0000
2000
0000
3010
0000
,  // measure 45
0100
0001
0100
0000
0020
0000
1030
0000
,  // measure 46
0001
0010
0001
0000
2000
0000
3001
0000
,  // measure 47
0020
0000
0000
0230
0000
0000
1300
0000
,  // measure 48
0001
0000
1000
0010
,  // measure 49
1000
0001
1000
0000
0001
0100
0001
0000
,  // measure 50
2000
0000
0000
3000
0000
0000
0001
0000
,  // measure 51
2000
0000
0000
3002
0000
0000
0003
0000
,  // measure 52
0010
0100
0020
0000
0000
0000
0031
0000
,  // measure 53
2000
0000
0000
3020
0000
0000
1030
0002
,  // measure 54
0000
0000
0003
0000
,  // measure 55
2000
0000
3001
0020
0000
0000
0130
0000
,  // measure 56
4000
0000
0000
3000
,  // measure 57
0004
0000
0000
0000
0003
1000
0001
0000
;

//---------------dance-single - Easy----------------
#NOTES:
     dance-single:
     Ace Of Hearts (2012):
     Easy:
     4:
     0.209,0.000,0.022,0.098,0.000: // measure 1
0000
0000
0000
0000
,  // measure 2
0000
0000
0000
0000
,  // measure 3
0000
0000
0000
0000
,  // measure 4
0000
0000
0000
0000
,  // measure 5
0000
0000
0000
0000
,  // measure 6
0001
0001
0001
0000
,  // measure 7
1000
1000
1000
0000
,  // measure 8
0100
0100
0100
0000
,  // measure 9
0020
0000
0030
0000
,  // measure 10
0100
0100
0100
0000
,  // measure 11
1000
1000
1000
0000
,  // measure 12
0001
0001
0001
0000
,  // measure 13
2000
0000
3000
0000
,  // measure 14
0040
0000
0030
0000
,  // measure 15
0400
0000
0300
0000
,  // measure 16
0001
0000
0001
0000
,  // measure 17
1000
1000
1000
0000
,  // measure 18
0001
0000
0001
0000
,  // measure 19
0100
0100
0100
0000
,  // measure 20
0010
0000
0010
0000
,  // measure 21
1000
1000
1000
0000
,  // measure 22
0001
0000
0001
0000
,  // measure 23
0010
0010
0010
0000
,  // measure 24
0100
0000
0100
0000
,  // measure 25
1000
1000
1000
0000
,  // measure 26
0001
0000
0001
0000
,  // measure 27
0100
0100
0100
0000
,  // measure 28
0010
0000
0010
0000
,  // measure 29
1000
1000
1000
0000
,  // measure 30
0001
0000
0001
0000
,  // measure 31
0010
0010
0010
0000
,  // measure 32
0000
0100
0100
0000
,  // measure 33
1000
1000
1000
0000
,  // measure 34
0001
0001
0001
0000
,  // measure 35
0010
0010
0010
0000
,  // measure 36
0100
0100
0100
0000
,  // measure 37
1000
1000
1000
0000
,  // measure 38
0001
0001
0001
0000
,  // measure 39
2002
0000
3003
0000
,  // measure 40
1000
1000
1000
0000
,  // measure 41
0010
0010
0010
0000
,  // measure 42
0100
0100
0100
0000
,  // measure 43
0002
0000
0003
0000
,  // measure 44
1000
1000
1000
0000
,  // measure 45
0100
0100
0100
0000
,  // measure 46
0010
0010
0010
0000
,  // measure 47
0200
0000
0300
0000
,  // measure 48
1000
0000
0001
0000
,  // measure 49
0100
0100
0100
0100
,  // measure 50
0200
0000
0300
0000
,  // measure 51
0010
0000
0010
0000
,  // measure 52
2000
0000
3000
0000
,  // measure 53
0001
0001
0001
0000
,  // measure 54
0200
0000
0300
0000
,  // measure 55
0010
0010
0010
0000
,  // measure 56
4000
0000
3000
0000
,  // measure 57
0004
0000
0003
1001
;

//---------------dance-single - Novice----------------
#NOTES:
     dance-single:
     Ace Of Hearts (2012):
     Beginner:
     2:
     0.134,0.000,0.011,0.196,0.000: // measure 1
0000
0000
0000
0000
,  // measure 2
0000
0000
0000
0000
,  // measure 3
0000
0000
0000
0000
,  // measure 4
0000
0000
0000
0000
,  // measure 5
0000
0000
0000
0000
,  // measure 6
0001
0000
0000
0000
,  // measure 7
0001
0000
0000
0000
,  // measure 8
0001
0000
0000
0000
,  // measure 9
0002
0000
0003
0000
,  // measure 10
1000
0000
0000
0000
,  // measure 11
1000
0000
0000
0000
,  // measure 12
1000
0000
0000
0000
,  // measure 13
1000
0000
0000
0000
,  // measure 14
4000
0000
0000
0000
,  // measure 15
3000
0000
0000
0000
,  // measure 16
0010
0000
0010
0000
,  // measure 17
0020
0000
0030
0000
,  // measure 18
1000
0000
1000
0000
,  // measure 19
2000
0000
3000
0000
,  // measure 20
0001
0000
0001
0000
,  // measure 21
0002
0000
0003
0000
,  // measure 22
0010
0000
0010
0000
,  // measure 23
0020
0000
0030
0000
,  // measure 24
0001
0000
0001
0000
,  // measure 25
0002
0000
0003
0000
,  // measure 26
1000
0000
1000
0000
,  // measure 27
2000
0000
3000
0000
,  // measure 28
0010
0000
0010
0000
,  // measure 29
0020
0000
0030
0000
,  // measure 30
0100
0000
0100
0000
,  // measure 31
0200
0000
0300
0000
,  // measure 32
0000
0000
0001
0000
,  // measure 33
0002
0000
0003
0000
,  // measure 34
1000
0000
1000
0000
,  // measure 35
2000
0000
3000
0000
,  // measure 36
0010
0000
0010
0000
,  // measure 37
0020
0000
0030
0000
,  // measure 38
1000
0000
1000
0000
,  // measure 39
2000
0000
3000
0000
,  // measure 40
0001
0000
0000
0000
,  // measure 41
0001
0000
0000
0000
,  // measure 42
0001
0000
0000
0000
,  // measure 43
0002
0000
0003
0000
,  // measure 44
0010
0000
0000
0000
,  // measure 45
0010
0000
0000
0000
,  // measure 46
0010
0000
0000
0000
,  // measure 47
0020
0000
0030
0000
,  // measure 48
0100
0000
0100
0000
,  // measure 49
0100
0000
0100
0000
,  // measure 50
0200
0000
0300
0000
,  // measure 51
1000
0000
1000
0000
,  // measure 52
2000
0000
3000
0000
,  // measure 53
0001
0000
0001
0000
,  // measure 54
0002
0000
0003
0000
,  // measure 55
1000
0000
1000
0000
,  // measure 56
4000
0000
0000
0000
,  // measure 57
3000
0000
0000
1001
;
