#TITLE:Discotheque;
#SUBTITLE:;
#ARTIST:Nana Mizuki;
#TITLETRANSLIT:;
#SUBTITLETRANSLIT:;
#ARTISTTRANSLIT:;
#GENRE:J-Pop;
#CREDIT:Ace Of Hearts;
#BANNER:Discotheque - bn.png;
#BACKGROUND:Discotheque - bg.png;
#LYRICSPATH:;
#CDTITLE:Ace Of Hearts.png;
#MUSIC:Discotheque.ogg;
#OFFSET:0.900;
#SAMPLESTART:64.460;
#SAMPLELENGTH:12.000;
#SELECTABLE:YES;
#BPMS:0.000=143.000;
#STOPS:;
#BGCHANGES:1.500=Rosario + Vampire Capu2 OP.avi=1.000=1=0=1===CrossFade==,
99999=-nosongbg-=1.000=0=0=0 // don't automatically add -songbackground-
;
#KEYSOUNDS:;

//---------------dance-single - Hard----------------
#NOTES:
     dance-single:
     Ace Of Hearts (2013):
     Hard:
     8:
     0.656,0.268,0.097,1.000,0.248: // measure 1
0000
0000
0000
0000
,  // measure 2
0002
0000
0000
0013
0000
0000
0200
0000
0000
1300
0000
0000
0002
0000
0103
0000
,  // measure 3
0020
0000
0000
1030
0000
0000
2002
0000
0003
0000
3001
0000
0010
0000
0100
0000
,  // measure 4
2000
0000
0000
0000
3001
0000
0100
0000
0020
0000
0000
0230
0000
0000
0300
0000
,  // measure 5
0001
0000
0100
0000
0020
0000
0000
2030
0000
0000
3001
0000
0100
0000
0010
0000
,  // measure 6
0200
0000
0000
0000
0301
0000
1000
0000
0020
0000
0000
1030
0000
0000
0000
0000
,  // measure 7
0001
0000
1000
0000
0002
0000
0000
0403
0000
0000
0000
0000
0000
0000
0000
0000
,  // measure 8
0320
0000
0000
1030
0000
0000
0002
0000
0000
0000
1003
0100
0000
0000
0000
0000
,  // measure 9
0020
0000
0000
0130
0000
0000
2000
0000
0000
0000
3001
0010
0000
0000
0100
0000
,  // measure 10
2000
3200
0320
0032
,  // measure 11
2003
0000
3020
0000
0130
0001
1000
0001
,  // measure 12
0020
0000
0000
0000
0230
0000
0000
0000
2300
0000
0000
3002
0000
0000
0203
0000
,  // measure 13
0000
0000
0301
0000
1000
0000
0100
0000
0020
0000
0000
0430
0000
0000
0300
0000
,  // measure 14
2000
0000
0000
0000
3002
0000
0000
0000
0023
0000
0000
0230
0000
0300
0000
0000
,  // measure 15
0010
0001
1000
0200
0000
0000
0300
0000
,  // measure 16
0010
0000
0001
0000
0010
0000
0100
0000
2000
0000
0000
3002
0000
0000
0203
0000
,  // measure 17
0000
0000
0310
0000
1000
0000
0001
0020
0000
0000
0030
0000
0200
0000
2300
0000
,  // measure 18
0002
0000
0000
3003
,  // measure 19
2000
0000
0000
3020
0000
0000
0130
0000
0002
0000
0000
2003
0000
0000
3100
0000
,  // measure 20
0010
0001
0000
0000
0000
0000
1000
0100
0000
0000
0000
0000
2000
0000
3001
0000
,  // measure 21
0020
0000
0000
0130
0000
0000
2200
0000
0300
0000
3001
0000
0200
0000
0000
0000
,  // measure 22
0300
0000
0010
0000
1000
0000
0010
0000
0200
0000
0000
0301
0000
0000
2000
0000
,  // measure 23
0000
0000
3001
0000
0100
0000
0010
2000
0000
3000
0000
0000
0002
0000
0013
0200
,  // measure 24
0000
0300
0000
0000
2000
0000
3001
0020
0000
0000
0030
0000
0100
0000
1000
0000
,  // measure 25
0001
1000
0100
0010
0002
0000
0003
0000
,  // measure 26
0000
0000
2000
0000
0000
0000
3001
0000
0200
0000
0000
0310
0000
0000
2000
0000
,  // measure 27
0000
0000
3001
0000
0010
0000
0100
2000
0000
0000
3000
0000
0002
0000
0013
0200
,  // measure 28
0000
0300
0000
0000
0020
0000
0031
2000
0000
3000
0010
0000
0100
0000
0001
0000
,  // measure 29
0100
0000
0010
2000
0000
0000
3000
0000
0000
0000
0001
0000
0010
0000
0100
0000
,  // measure 30
0020
0000
0030
0000
0002
0000
1003
0040
0000
0000
0000
0030
0000
0000
0100
0000
,  // measure 31
0002
0000
1003
0000
0100
0000
0010
0400
0000
0000
0000
0300
0000
0000
0010
0000
,  // measure 32
0002
0000
1003
0000
0010
0000
0100
0002
0000
0003
0000
0000
1000
0000
0100
0000
,  // measure 33
0020
0032
2003
3200
,  // measure 34
0320
0000
0000
0000
0230
0000
1300
0002
0000
0000
0003
0000
0000
0000
1000
0000
,  // measure 35
0020
0000
0130
0000
0001
0000
1000
0200
0000
0000
0310
0000
0100
0000
2000
0000
,  // measure 36
0000
3001
0100
0002
0000
1003
0100
0020
,  // measure 37
0000
0030
0000
0100
1000
0001
2000
0020
,  // measure 38
0000
0000
0000
0000
0000
0000
0000
3030
,  // measure 39
1000
1000
0001
0001
0101
0100
0010
0100
,  // measure 40
0002
0000
0000
0000
2003
0000
0000
0000
3020
0000
0000
0230
0000
0000
0302
0000
,  // measure 41
0000
0000
1003
0000
0100
0000
0010
0000
0200
0000
0000
4300
0000
0000
3000
0000
,  // measure 42
0002
0000
0000
0000
0203
0000
0000
0000
0320
0000
0000
2030
0000
3000
0000
0000
,  // measure 43
0002
0023
0230
2000
0000
0000
3300
0000
,  // measure 44
0100
0000
0010
0000
0001
0000
0010
0000
0200
0000
0000
2300
0000
0000
3002
0000
,  // measure 45
0000
0000
1003
0000
0010
0000
0100
0002
0000
0000
0003
0000
0000
0000
1000
0000
,  // measure 46
0200
0000
0300
1000
0002
0000
0003
1000
,  // measure 47
0020
0000
0030
1000
0002
0000
0003
0020
,  // measure 48
0200
0000
0000
0330
,  // measure 49
0020
0000
0000
0032
0000
0000
1003
0000
0020
0000
0000
0230
0000
0000
0302
0000
,  // measure 50
2003
0000
0000
3010
0000
0000
0200
0000
0000
0000
0301
0000
1000
0000
0010
0000
,  // measure 51
2000
0000
0000
3001
0000
0000
0202
0000
0300
0000
1003
0000
0020
0000
0000
0000
,  // measure 52
0230
0000
0000
0301
0000
0000
2000
0000
0000
0000
3100
0000
0010
0000
0001
0000
,  // measure 53
2000
0000
0000
3100
0000
0000
0220
0000
0300
0000
0031
0000
1000
0000
2020
0000
,  // measure 54
3000
0130
0010
2020
0030
3001
0100
0202
,  // measure 55
0300
1003
1000
0004
0000
0003
2002
0000
,  // measure 56
0000
3003
0000
0000
;

//---------------dance-single - Expert----------------
#NOTES:
     dance-single:
     Ace Of Hearts (2013):
     Challenge:
     11:
     1.000,0.446,0.366,1.000,0.981: // measure 1
0000
0000
0000
0000
,  // measure 2
2020
0000
0030
3001
0000
0000
0202
0000
0003
0310
0000
0000
2020
0030
3001
0000
,  // measure 3
0022
0000
0030
1003
0000
0000
2200
0000
0300
0000
3001
0000
1000
0100
0010
0100
,  // measure 4
1000
0000
0001
0010
0001
0000
1000
0000
0020
0000
0000
0130
0001
0100
0002
0000
,  // measure 5
1003
0000
0100
0000
0020
0000
0000
0130
1000
0100
0010
0001
0010
0001
1000
0010
,  // measure 6
2000
0000
0000
0000
3001
0000
0010
0000
0200
0000
0000
1300
0001
1000
0002
0000
,  // measure 7
0103
0000
0000
0000
0000
0000
0010
0000
0000
0000
0000
0000
0200
0000
0000
0000
0000
0000
0000
0000
0000
0310
0000
0000
1000
0000
0001
0000
1000
0000
0001
0000
0000
0000
0000
0000
1000
0000
0100
0000
1000
0000
0100
0000
0000
0000
0000
0000
,  // measure 8
2000
0000
0000
3001
0100
0001
0200
0000
0320
0000
1030
0001
0000
0001
0100
0001
,  // measure 9
2000
0000
3001
0010
0100
0010
0002
0000
1003
0010
1000
0010
0100
0001
0100
0001
,  // measure 10
1000
0100
1000
0100
0010
0001
0010
0001
1000
0001
1000
0001
0100
0001
0100
0001
,  // measure 11
2000
0000
0100
0000
3200
0000
0010
0000
0320
0000
0032
0000
1003
0010
0100
0010
,  // measure 12
2000
0000
0000
3001
0010
0000
0100
0000
0020
0000
0031
1000
0001
0000
0200
0000
,  // measure 13
0000
0000
0310
0000
0100
0000
0001
0000
2000
0000
3001
0010
0100
1000
0100
0010
,  // measure 14
0002
0000
0000
1003
0010
0000
1000
0000
0200
0000
0310
0001
0010
0000
0100
0000
,  // measure 15
1100
0000
1001
0000
0011
0000
2002
0000
3000
0000
1003
0010
0100
0001
0100
0010
,  // measure 16
1000
0000
0010
0000
0001
0000
0010
0000
2000
0000
3001
0100
0000
0000
0020
0000
,  // measure 17
0000
0000
0130
0000
0001
0000
1000
0100
0000
0100
0010
0000
0001
0000
1000
0000
,  // measure 18
0020
0000
0000
1030
0000
0000
0002
0000
0000
1003
0000
0000
0020
0000
0000
1030
0000
0000
0002
0000
0000
1003
0010
1000
,  // measure 19
0020
0000
0000
0230
0000
0000
0301
0000
2000
0000
0000
3200
0000
0000
0310
0000
,  // measure 20
0001
1000
0000
0000
0000
0000
1000
0001
0000
0000
0000
0000
0200
0000
0310
0000
,  // measure 21
2020
0000
0030
3001
0000
0000
0202
0000
0300
0000
1003
0000
2200
0000
3300
0000
,  // measure 22
0220
0300
0031
0000
1000
0000
0020
0000
0230
0000
0301
1000
0000
0000
0200
0000
,  // measure 23
0000
0000
0310
0000
0100
0000
1000
0001
0000
0001
0100
0000
0001
0000
1000
0100
,  // measure 24
0000
0100
0010
0000
0100
0000
1000
0001
0000
0001
0100
0000
0010
0000
0100
0000
,  // measure 25
0001
1000
0001
0000
0010
0000
0100
0000
1000
0100
1000
0100
0010
0001
0010
0001
,  // measure 26
2000
0000
3010
0000
0100
0000
0001
0000
2000
0000
3100
0010
0000
0000
0200
0000
,  // measure 27
0000
0000
1300
0000
0001
0000
0100
0010
0000
0010
1000
0000
0001
0000
0010
0100
,  // measure 28
0000
0100
1000
0000
0001
0000
0100
0010
0000
0010
1000
0000
0001
0000
0010
0000
,  // measure 29
0001
0010
0001
1000
0000
1000
0001
0000
1000
0100
0010
0001
0010
0100
1000
0001
,  // measure 30
2000
0000
3010
0000
0100
0000
0001
1000
0000
1000
0100
0000
0010
0000
0001
0000
,  // measure 31
2000
0000
3010
0000
0100
0000
0001
0100
0000
0100
0010
0000
1000
0000
0001
0000
,  // measure 32
0020
0000
0130
0000
1000
0000
0001
0100
0000
0100
0010
0000
1000
0000
0001
0000
,  // measure 33
0020
0130
0020
0031
0020
0130
0020
0031
,  // measure 34
2000
0000
3001
0000
0100
0000
0010
1000
0000
1000
0001
0000
0010
0000
0100
0000
,  // measure 35
2000
0000
3001
0000
0100
0000
0010
2000
0000
0000
3001
0010
0100
0000
2200
0000
,  // measure 36
0300
0000
3001
0100
0010
0000
0220
0000
0300
0000
1030
0001
0100
0000
0220
0300
,  // measure 37
1030
0001
0010
0100
1000
0100
0010
0001
1000
0010
0100
0001
0100
0010
1000
0001
,  // measure 38
1000
0000
0010
0000
1000
0000
0010
0000
0000
0100
0000
0000
0001
0000
0000
1000
0000
0000
0001
0000
0000
0010
0000
0000
0100
0000
0010
0000
0100
0000
0010
0000
0000
0001
0000
0000
1000
0000
0000
0010
0000
0000
0100
0000
0000
0001
0000
0000
,  // measure 39
1001
0000
0000
1001
0000
0000
0011
0000
0000
0011
0000
0000
1001
0000
0000
1000
0000
0000
0001
0100
0001
0100
0001
0100
,  // measure 40
0002
0000
0000
1003
0100
0000
0010
0000
0200
0000
1300
0001
1000
0000
0020
0000
,  // measure 41
0000
0000
0130
0000
0001
0000
1000
0000
0010
0000
1000
0010
0100
0001
0100
0010
,  // measure 42
2000
0000
0000
3001
0010
0000
0100
0000
0020
0000
0031
1000
0001
0000
0100
0000
,  // measure 43
0110
0000
1010
0000
1001
0000
0202
0000
0300
0000
1003
0100
0010
0001
0010
0100
,  // measure 44
1000
0000
0100
0000
0001
0000
0100
0000
2000
0000
3001
0100
0000
0000
0020
0000
,  // measure 45
0000
0000
0130
0000
0001
0000
1000
0100
0000
0100
0010
0000
0001
0000
1000
0000
,  // measure 46
0020
0000
0130
0001
0100
0010
0100
0010
1000
0001
1000
0001
0010
0001
0010
0001
,  // measure 47
1000
0010
1000
0010
0100
0001
0100
0001
1000
0100
1000
0100
0010
0001
0010
0001
,  // measure 48
1000
0000
0010
0000
1000
0000
0010
0000
0000
0100
0000
0000
0001
0000
0000
0100
0000
0000
0001
0000
0000
0100
0000
0000
0001
0000
1000
0000
0001
0000
1000
0000
0000
0100
0000
0000
0010
0000
0000
0100
0000
0000
0010
0000
0000
0100
0000
0000
,  // measure 49
2000
0000
0000
3002
0000
0000
0203
0000
0320
0000
0000
2030
0000
0000
3001
0000
,  // measure 50
0202
0000
0000
0000
0000
0000
0003
0000
0000
0310
0000
0000
0000
0000
0000
0000
0000
0000
2020
0000
0000
0000
0000
0000
0000
0000
0000
0030
0000
0000
3001
0000
0000
0000
0000
0000
0020
0000
0000
0000
0000
0000
0130
0000
1000
0000
0200
0000
,  // measure 51
2000
0000
0000
0000
0000
0000
0300
0000
0000
3001
0000
0000
0000
0000
0000
0000
0000
0000
0101
0000
0000
0000
0000
0000
0100
0000
0010
0000
0100
0000
0010
0000
0000
0000
0000
0000
1000
0000
0001
0000
1000
0000
0001
0000
0000
0000
0000
0000
,  // measure 52
0202
0000
0003
0310
0000
0000
2020
0000
0000
0030
3001
0000
0020
0000
0130
0000
,  // measure 53
2200
0000
0300
3001
0000
0000
0202
0000
0003
0000
0310
0000
1000
0000
2200
0000
,  // measure 54
3000
0000
0310
0001
0010
0001
1000
0001
1000
0001
0010
0100
0010
0100
1000
0001
,  // measure 55
1000
0000
0001
0000
0100
0000
0001
0000
0100
0000
0001
0000
0400
0040
0000
0000
0000
0000
0000
0000
0000
0000
0330
0000
2002
0000
0000
0000
0000
0000
0000
0000
,  // measure 56
0000
3003
0000
0000
;

//---------------dance-single - Medium----------------
#NOTES:
     dance-single:
     Ace Of Hearts (2013):
     Medium:
     7:
     0.483,0.208,0.065,1.000,0.210: // measure 1
0000
0000
0000
0000
,  // measure 2
2000
0000
0000
3001
0000
0000
0020
0000
0000
0000
0130
0000
1000
0000
0000
0000
,  // measure 3
0002
0000
0000
1003
0000
0000
2200
0000
0000
0000
0000
0000
3300
0000
0000
0000
,  // measure 4
0000
0000
0000
0000
1000
0000
0000
0000
0002
0000
0000
0103
0000
0000
0000
0000
,  // measure 5
0010
0000
0000
0000
2000
0000
0000
3001
0000
0000
0000
0000
0000
0000
0000
0000
,  // measure 6
0000
0000
0000
0000
0010
0000
0000
0000
0200
0000
0000
1300
0000
0000
0000
0000
,  // measure 7
0001
0000
0000
0000
2000
0000
0000
3100
0000
0000
0000
0000
0000
0000
0000
0000
,  // measure 8
0020
0000
0030
0000
0000
0001
0000
0000
,  // measure 9
2000
0000
3000
0000
0000
0100
0000
0000
,  // measure 10
2000
3200
0320
0032
,  // measure 11
2003
3200
0320
0032
,  // measure 12
2003
0000
0000
0000
3020
0000
0000
0000
2030
0000
0000
3002
0000
0000
0023
0000
,  // measure 13
0000
0000
0130
0000
1000
0000
0000
0000
0002
0000
0000
0403
0000
0000
0300
0000
,  // measure 14
0020
0000
0000
0000
0230
0000
0000
0000
0302
0000
0000
2003
0000
3000
0000
0000
,  // measure 15
0002
0000
0013
0200
0000
0000
0300
0000
,  // measure 16
2000
0000
0000
0000
3001
0000
0000
0000
0200
0000
0000
0310
0000
0000
2000
0000
,  // measure 17
0000
0000
0000
0000
3001
0000
0000
0020
0000
0000
0030
0000
0002
0000
0003
0000
,  // measure 18
2002
0000
0000
3003
,  // measure 19
2000
0000
0000
3010
0000
0000
0000
0000
0200
0000
0000
0301
0000
0000
0000
0000
,  // measure 20
1000
0000
0000
1000
0000
0000
0001
0000
,  // measure 21
0020
0000
0000
0130
0000
0000
2000
0000
0000
0000
0000
0000
3002
0000
0000
0000
,  // measure 22
0003
0000
0000
0000
1000
0000
0000
0000
0002
0000
0000
0013
0000
0000
0200
0000
,  // measure 23
0000
0000
0000
0000
1300
0000
0000
0001
0000
0000
0000
0000
1000
0000
0000
1000
,  // measure 24
0000
0000
0000
0000
0100
0000
0000
0100
0000
0000
0000
0000
0020
0000
0000
0000
,  // measure 25
0031
1000
0001
0000
0200
0000
0300
0000
,  // measure 26
0000
0000
0020
0000
0000
0000
0000
0000
2030
0000
0000
3001
0000
0000
0020
0000
,  // measure 27
0000
0000
0130
0000
1000
0000
0000
0001
0000
0000
0000
0000
0010
0000
0000
0010
,  // measure 28
0000
0000
0000
0000
0100
0000
0000
0100
0000
0000
0000
0000
1000
0000
0000
0000
,  // measure 29
0001
0000
0000
0001
0000
0000
0000
0000
0000
0000
0000
0000
1000
0000
0000
0000
,  // measure 30
0020
0000
0000
0000
0130
0000
0000
0400
0000
0000
0000
0300
0000
0000
0001
0000
,  // measure 31
0200
0000
0000
0000
0310
0000
0000
0040
0000
0000
0000
0030
0000
0000
0100
0000
,  // measure 32
0002
0000
0000
0000
1003
0000
0000
2000
0000
0000
3000
0000
0001
0000
0000
0000
,  // measure 33
2000
3200
0320
0032
,  // measure 34
2003
0000
0000
0000
3010
0000
0000
0020
0000
0000
0030
0000
0000
0000
1000
0000
,  // measure 35
0002
0000
0000
0000
0013
0000
0000
0020
0000
0000
0030
0000
0100
0000
2000
0000
,  // measure 36
0000
0000
3001
0200
0000
0000
0310
2000
,  // measure 37
0000
3000
0000
0001
2000
0000
3002
0020
,  // measure 38
0000
0000
0000
0033
,  // measure 39
0001
0010
0001
0000
1001
0000
1000
0000
,  // measure 40
0020
0000
0000
0000
0230
0000
0000
0000
0302
0000
0000
2003
0000
0000
3200
0000
,  // measure 41
0000
0000
0310
0000
0001
0000
0000
0000
2000
0000
0000
3400
0000
0000
0300
0000
,  // measure 42
0020
0000
0000
0000
0230
0000
0000
0000
2300
0000
0000
3002
0000
0000
0003
0000
,  // measure 43
2000
0000
3010
0200
0000
0000
0300
0000
,  // measure 44
0002
0000
0000
0000
1003
0000
0000
0000
0020
0000
0000
0130
0000
0000
0002
0000
,  // measure 45
0000
0000
1003
0000
0100
0000
0000
0020
0000
0000
0030
0000
0000
0000
0100
0000
,  // measure 46
2000
0000
3000
0001
0200
0000
0300
0010
,  // measure 47
2000
0000
3000
0001
0020
0000
0030
0200
,  // measure 48
2000
0000
0000
3300
,  // measure 49
0200
0000
0000
0320
0000
0000
0000
0000
0032
0000
0000
2003
0000
0000
0000
0000
,  // measure 50
3200
0000
0000
0310
0000
0000
0002
0000
0000
0000
1003
0000
0100
0000
0000
0000
,  // measure 51
2000
0000
0000
3001
0000
0000
0202
0000
0000
0000
0000
0000
0303
0000
0000
0000
,  // measure 52
0200
0000
0000
0310
0000
0000
2000
0000
0000
0000
3001
0000
0010
0000
0000
0000
,  // measure 53
0002
0000
0000
1003
0000
0000
2200
0000
3000
0000
0000
0000
0310
0000
0002
0000
,  // measure 54
0000
0000
1003
0020
0000
0000
1030
0002
,  // measure 55
0000
0103
0000
0004
0000
0003
2002
0000
,  // measure 56
0000
3003
0000
0000
;

//---------------dance-single - Easy----------------
#NOTES:
     dance-single:
     Ace Of Hearts (2013):
     Easy:
     5:
     0.251,0.089,0.032,0.334,0.000: // measure 1
0000
0000
0000
0000
,  // measure 2
0001
0000
0000
0002
0000
0000
0003
0000
,  // measure 3
1000
0000
0000
2000
0000
0000
3000
0000
,  // measure 4
0000
0010
0010
0000
,  // measure 5
0100
0100
0000
0000
,  // measure 6
0000
0001
0001
0000
,  // measure 7
1000
1000
0000
0000
,  // measure 8
0200
0000
0300
0000
0000
0100
0000
0000
,  // measure 9
0020
0000
0030
0000
0000
0010
0000
0000
,  // measure 10
0001
0001
0001
0000
,  // measure 11
1000
1000
1000
0000
,  // measure 12
0010
0000
0000
0000
0010
0000
0000
1000
,  // measure 13
0000
1000
1000
0000
,  // measure 14
0001
0000
0001
0000
,  // measure 15
0100
0000
0000
0200
0000
0000
0300
0000
,  // measure 16
0010
0000
0010
0000
0010
0000
0000
1000
,  // measure 17
0000
1000
1000
0000
,  // measure 18
2002
0000
0000
3003
,  // measure 19
0001
0001
0001
0000
,  // measure 20
0200
0000
0000
0300
,  // measure 21
0000
0000
0000
0000
,  // measure 22
0000
0000
0001
0000
0001
0000
0000
1000
,  // measure 23
0000
1000
1000
0001
,  // measure 24
0001
0010
0010
0100
,  // measure 25
0200
0000
0300
0000
,  // measure 26
0000
0000
1000
0000
1000
0000
0000
0001
,  // measure 27
0000
0001
0001
1000
,  // measure 28
1000
0010
0010
0100
,  // measure 29
0200
0000
0300
0001
,  // measure 30
0001
1000
1000
0000
,  // measure 31
0100
0100
0100
0000
,  // measure 32
1000
1000
1000
0000
,  // measure 33
0002
0000
2003
0000
,  // measure 34
3010
0010
0010
0000
,  // measure 35
0100
0000
0100
0000
0100
0000
0000
0002
,  // measure 36
0000
0000
0000
2003
0000
0000
0000
3002
,  // measure 37
0000
0000
0000
0000
0013
0000
0000
0220
,  // measure 38
0000
0000
0000
0330
,  // measure 39
0100
0100
0100
0000
,  // measure 40
1000
0000
1000
0000
1000
0000
0000
0001
,  // measure 41
0000
0001
0001
0000
,  // measure 42
0010
0010
0010
0000
,  // measure 43
0100
0000
0000
0200
0000
0000
0300
0000
,  // measure 44
1000
0000
1000
0000
1000
0000
0000
0001
,  // measure 45
0000
0001
0001
0000
,  // measure 46
2000
0000
3020
0000
,  // measure 47
2030
0000
3002
0000
,  // measure 48
0023
0000
0000
0030
,  // measure 49
0100
0100
0100
0000
,  // measure 50
1000
0000
0000
2000
0000
0000
3000
0000
,  // measure 51
0001
0000
0000
0002
0000
0000
0003
0000
,  // measure 52
0010
0000
0000
0010
0000
0000
0100
0000
,  // measure 53
0100
0000
0000
2000
0000
3000
0000
0002
,  // measure 54
0000
0003
0000
0020
0000
0030
0000
0002
,  // measure 55
0000
0003
0000
1000
0000
0000
2002
0000
,  // measure 56
0000
3003
0000
0000
;

//---------------dance-single - Novice----------------
#NOTES:
     dance-single:
     Ace Of Hearts (2013):
     Beginner:
     2:
     0.172,0.060,0.032,0.377,0.000: // measure 1
0000
0000
0000
0000
,  // measure 2
2000
0000
0000
3000
0000
0000
0000
0000
,  // measure 3
0002
0000
0000
0003
0000
0000
0000
0000
,  // measure 4
0000
0020
0000
0030
,  // measure 5
0020
0000
0030
0000
,  // measure 6
0000
0200
0000
0300
,  // measure 7
0200
0000
0300
0000
,  // measure 8
2000
0000
0000
0000
0000
3000
0000
0000
,  // measure 9
0002
0000
0000
0000
0000
0003
0000
0000
,  // measure 10
0200
0000
0300
0000
,  // measure 11
0020
0000
0030
0000
,  // measure 12
1000
0000
1000
0000
,  // measure 13
1000
0000
0000
0000
,  // measure 14
0001
0000
0001
0000
,  // measure 15
0002
0000
0003
0000
,  // measure 16
0100
0000
0100
0000
,  // measure 17
0200
0000
0300
0000
,  // measure 18
0020
0000
0030
0000
,  // measure 19
1000
0000
1000
0000
,  // measure 20
2000
0000
3000
0000
,  // measure 21
0000
0000
0000
0000
,  // measure 22
0001
0000
0001
0000
,  // measure 23
0002
0000
0003
0000
,  // measure 24
0100
0000
0100
0000
,  // measure 25
0200
0000
0300
0000
,  // measure 26
0010
0000
0010
0000
,  // measure 27
0020
0000
0030
0000
,  // measure 28
1000
0000
1000
0000
,  // measure 29
2000
0000
3000
0000
,  // measure 30
0001
0000
0001
0000
,  // measure 31
0002
0000
0003
0000
,  // measure 32
0100
0000
0100
0000
,  // measure 33
0200
0000
0300
0000
,  // measure 34
0010
0000
0010
0000
,  // measure 35
0020
0000
0030
0000
,  // measure 36
1000
0000
1000
0000
,  // measure 37
1000
0000
0000
0000
,  // measure 38
2002
0000
3003
0000
,  // measure 39
0220
0000
0330
0000
,  // measure 40
0001
0000
0001
0000
,  // measure 41
0002
0000
0003
0000
,  // measure 42
1000
0000
1000
0000
,  // measure 43
2000
0000
3000
0000
,  // measure 44
0100
0000
0100
0000
,  // measure 45
0200
0000
0300
0000
,  // measure 46
0010
0000
0010
0000
,  // measure 47
0010
0000
0010
0000
,  // measure 48
0020
0000
0030
0000
,  // measure 49
0001
0000
0001
0000
,  // measure 50
0002
0000
0003
0000
,  // measure 51
2000
0000
3000
0000
,  // measure 52
0100
0000
0100
0000
,  // measure 53
0200
0000
0300
0000
,  // measure 54
0010
0000
0010
0000
,  // measure 55
0002
0000
0000
0003
0000
0000
2002
0000
,  // measure 56
0000
3003
0000
0000
;
