#TITLE:Angel of Darkness;
#SUBTITLE:(Nightcore Mix);
#ARTIST:Alex C. feat. Yasmin K.;
#TITLETRANSLIT:;
#SUBTITLETRANSLIT:;
#ARTISTTRANSLIT:;
#GENRE:;
#CREDIT:Ace Of Hearts;
#BANNER:Angel of Darkness - bn.PNG;
#BACKGROUND:Angel of Darkness - bg.jpg;
#LYRICSPATH:;
#CDTITLE:Ace Of Hearts.png;
#MUSIC:Angel of Darkness (Nightcore Mix).ogg;
#OFFSET:1.040;
#SAMPLESTART:56.500;
#SAMPLELENGTH:12.000;
#SELECTABLE:YES;
#BPMS:0.000=175.000,112.000=87.500,120.000=175.000,288.000=87.500,290.000=175.000,322.000=87.500,330.000=175.000;
#STOPS:;
#BGCHANGES:;
#FGCHANGES:;
#KEYSOUNDS:;

//---------------dance-single - Expert----------------
#NOTES:
     dance-single:
     Ace Of Hearts (2012):
     Challenge:
     10:
     0.684,0.209,0.512,0.873,0.303: // measure 1
0000
0000
0000
0000
,  // measure 2
0000
0000
0000
0000
,  // measure 3
0000
0000
0000
0000
,  // measure 4
1002
0000
0203
0310
,  // measure 5
2010
0000
3004
0003
,  // measure 6
0021
0000
0230
1300
,  // measure 7
2002
0000
0000
0000
0010
0000
3003
0001
,  // measure 8
0021
0000
0130
1000
0000
0001
0000
0401
,  // measure 9
0000
0000
0000
030M
00M0
0M00
M000
0010
,  // measure 10
2010
0000
3001
0021
0000
0230
0300
2100
,  // measure 11
0000
3002
0003
0022
0000
0033
0000
0000
,  // measure 12
0210
0000
2300
3001
,  // measure 13
0201
0000
0340
0030
,  // measure 14
2010
0000
3002
1003
,  // measure 15
2200
0000
0000
0000
0001
0000
3300
1000
,  // measure 16
1002
0000
0103
0010
0000
1000
0000
1400
,  // measure 17
0000
0000
0000
M300
0M00
00M0
000M
0100
,  // measure 18
0120
0000
0031
2001
0000
3010
0000
0210
,  // measure 19
0000
0301
0000
2002
0000
3003
00M0
000M
,  // measure 20
0M00
M000
000M
0M00
M000
000M
00M0
M000
,  // measure 21
2M00
0000
3001
0000
0020
0000
0130
1000
0000
1000
0100
0000
0010
0000
0001
0000
,  // measure 22
1000
0010
1000
0010
0100
0001
0100
0001
,  // measure 23
2000
0000
3001
0010
0002
0000
1003
0010
0000
0010
1000
0000
0001
0000
0010
0000
,  // measure 24
0100
1000
0100
1000
0001
0100
0001
0100
,  // measure 25
0002
0000
1003
0100
2000
0000
3001
0010
0000
0010
0001
0000
1000
0000
0010
0000
,  // measure 26
0100
0001
0100
0001
1000
0100
1000
0100
,  // measure 27
0020
0000
0031
1000
0002
0000
0013
0100
0000
0100
0010
0000
0001
0000
1000
0000
,  // measure 28
0100
0000
0010
0000
0001
0000
1000
0010
0000
0010
1000
0000
0001
0000
0100
0000
,  // measure 29
0010
0200
0002
0000
0000
0000
0000
0000
1010
0000
0000
0000
0303
0000
0000
0000
,  // measure 30
2002
0000
0000
0000
,  // measure 31
3003
0000
1000
0020
0000
0230
0300
0101
,  // measure 32
0000
M0M0
0000
0000
0001
0000
2000
0000
0000
0000
3200
0000
0300
0000
0110
0000
,  // measure 33
0000
0M0M
0000
0000
0010
0000
0002
0000
0000
0000
1003
0000
0000
0000
0020
0000
,  // measure 34
0000
0130
0000
0002
0000
0000
1003
0100
,  // measure 35
0000
0MM0
0000
0000
0010
0000
0200
0000
0000
0000
2300
0000
3000
0000
1001
0000
,  // measure 36
0000
MM00
0000
0000
0001
0000
0020
0000
0000
0000
0230
0000
0300
0000
1100
0000
,  // measure 37
0000
00MM
0000
0000
1000
0000
0002
0000
0000
0000
0103
0000
0000
0000
0020
0000
,  // measure 38
0000
1030
0001
2000
0000
3200
0000
0020
,  // measure 39
0000
0000
0000
0300
,  // measure 40
0031
1000
0001
1000
0010
1000
0010
1000
0001
1000
0001
1000
0400
0000
0000
0000
,  // measure 41
032M
0000
M230
13M0
,  // measure 42
1M02
0000
04M3
0300
,  // measure 43
M120
0000
2M30
30M1
,  // measure 44
M202
0000
0000
0000
10M0
0000
0303
0100
,  // measure 45
0120
0000
1030
1001
0000
0001
0000
0402
,  // measure 46
0000
0000
0000
0000
0000
0000
0303
0000
0000
M0M0
0000
0M0M
0000
0000
0100
0000
,  // measure 47
0120
0000
1030
1002
0003
0001
0000
0021
,  // measure 48
0000
0130
0000
2200
0000
3300
0000
0000
,  // measure 49
1M02
0000
M023
013M
,  // measure 50
21M0
0000
3M04
0003
,  // measure 51
02M1
0000
M320
103M
,  // measure 52
20M2
0000
0000
0000
0M10
0000
3003
0001
,  // measure 53
0021
0000
0130
1100
0000
1000
0000
2004
,  // measure 54
0000
0000
0000
0000
0000
0000
3003
0000
0000
M0M0
0000
0M0M
0000
0000
0001
0000
,  // measure 55
M201
0000
0310
1010
000M
1000
0000
1002
,  // measure 56
0M03
0000
2000
0000
3000
0000
1010
0000
001M
0000
0010
0000
1000
0010
1000
0010
,  // measure 57
0100
0000
0001
0000
1000
0000
0001
0010
0000
0010
0001
0000
1000
0000
0020
0000
,  // measure 58
1030
0000
0001
0000
0010
0000
0100
1000
0000
1000
0100
0000
0010
0000
0001
0000
,  // measure 59
1000
0010
1000
0010
0100
0001
0100
0001
,  // measure 60
1000
0000
0001
0000
1000
0000
0010
0100
0000
0100
0010
0000
1000
0000
0001
0000
,  // measure 61
0010
0100
0010
0100
1000
0100
1000
0100
,  // measure 62
0010
0000
0100
0000
1000
0000
0001
0100
0000
0100
0001
0000
1000
0000
0100
0000
,  // measure 63
0010
0001
0010
0001
1000
0010
1000
0010
,  // measure 64
0100
0000
0001
0000
0100
0000
0010
1000
0000
1000
0010
0000
0100
0000
0001
0000
,  // measure 65
1000
0000
0100
0000
1000
0000
0100
0010
0000
0010
0100
0000
1000
0000
0001
0000
,  // measure 66
M100
0000
0010
0000
0100
0000
0001
1000
00M0
1000
0001
0000
0010
0000
0100
0000
,  // measure 67
100M
0001
1000
0001
M100
0010
0100
0010
,  // measure 68
100M
0000
0010
0000
0100
0000
0001
0100
M000
0100
0001
0000
1000
0000
0100
0000
,  // measure 69
001M
0100
0010
0100
10M0
0001
1000
0001
,  // measure 70
M100
0000
0010
0000
1000
0000
0001
0010
0M00
0010
0001
0000
1000
0000
0100
0000
,  // measure 71
100M
0001
1000
0001
01M0
0010
0100
0010
,  // measure 72
100M
0000
0001
0000
0100
0000
0010
1000
0M00
1000
0010
0000
0100
0000
0001
0000
,  // measure 73
10M0
0000
0001
0000
0010
0000
0100
1000
000M
1000
0100
0000
0010
0000
0001
0000
2000
0000
0000
0000
0000
0000
3020
0000
0000
0000
0000
0000
0130
0000
0000
0000
,  // measure 74
0101
0000
0000
0000
0MM0
0000
0000
0000
0002
0000
0000
2003
0000
0000
3100
0000
,  // measure 75
0110
0000
0000
0000
M00M
0000
0000
0000
0010
0000
0000
00MM
0000
0000
0100
0000
,  // measure 76
1100
0000
0000
0000
M0M0
0000
0000
0000
2000
0000
0000
3002
0000
0000
0103
0000
,  // measure 77
0110
0000
0000
0010
0000
0000
1000
0000
1001
0000
0000
MM00
0000
0000
0001
0000
,  // measure 78
0022
0000
0033
0000
0000
MM00
0000
0000
0110
0000
0000
0200
0000
0000
1300
0000
,  // measure 79
1001
0000
0000
0MM0
0000
0000
0001
0000
0101
0000
0000
MM00
0000
0000
0100
0000
,  // measure 80
0220
0000
0330
0000
0000
00MM
0000
0000
1010
0000
0000
2000
0000
0000
3001
0000
,  // measure 81
0011
0000
0000
0000
0000
0000
0040
0000
0000
0000
0000
0000
003M
0000
0010
M000
0100
0000
110M
0000
0000
00M0
0000
0000
,  // measure 82
M000
0000
0100
000M
0010
0000
M011
0000
0000
0M00
0000
0000
000M
0000
0010
M000
0001
0000
1M01
0000
0000
00M0
0000
0000
,  // measure 83
M000
0000
0001
00M0
0100
0000
011M
0000
0000
M000
0000
0000
00M0
0000
0000
0000
0000
0000
0100
0000
0000
0002
0000
0000
,  // measure 84
0000
0000
1003
2200
3300
00MM
1000
0002
,  // measure 85
0000
0200
0000
1000
00M0
0303
0001
2000
,  // measure 86
0000
3200
0000
0304
M0M0
0203
0000
2300
,  // measure 87
0000
0000
0000
0000
3001
0000
0101
0000
0000
00MM
0000
0000
0100
0000
0020
0000
,  // measure 88
0000
2030
3000
2002
3003
MM00
0001
0020
,  // measure 89
0000
0200
0000
0001
M000
0330
0010
0002
,  // measure 90
0000
0023
0000
2030
0M0M
3020
0000
0032
,  // measure 91
0000
0MM0
2003
3020
0000
0000
0230
0304
,  // measure 92
0000
0000
0000
0000
0000
0000
0000
0000
1003
0100
1000
0100
0010
0001
0010
0001
,  // measure 93
1000
0001
1000
0001
0400
0000
0000
0000
0310
1000
0010
1000
0001
0100
0001
0100
,  // measure 94
0010
0100
0010
0100
0004
0000
0000
0000
20M3
0000
0000
0000
0000
0000
0000
0000
,  // measure 95
320M
M310
0M12
0000
,  // measure 96
40M3
3000
120M
0000
,  // measure 97
M320
0M31
02M2
0000
,  // measure 98
M010
0000
0303
0100
0120
0000
1030
1001
,  // measure 99
0000
0001
0000
0402
0000
0000
0000
0303
,  // measure 100
0000
M0M0
0000
0M0M
0000
0000
1000
0000
1020
0000
0000
0000
0130
0000
0102
0000
,  // measure 101
0000
2003
3000
1200
0000
0320
0030
0022
,  // measure 102
0000
0033
MM00
00MM
2100
0000
0000
0000
,  // measure 103
3M02
01M3
M120
0000
,  // measure 104
403M
3000
1M02
0000
,  // measure 105
M023
013M
22M0
0000
,  // measure 106
001M
0000
3300
1000
1002
0000
0103
0110
,  // measure 107
0000
0010
0000
4020
0000
0000
0000
3030
,  // measure 108
0000
M0M0
0000
0M0M
0000
0000
0001
0000
2001
0000
0000
0000
3100
0000
0110
0000
,  // measure 109
M000
0010
0000
0012
0M00
2003
3000
1100
,  // measure 110
010M
0000
0100
0000
0010
0001
0010
0001
1M00
0000
0010
0000
1000
0000
0001
0010
,  // measure 111
M000
0010
0001
0000
1000
0000
0010
0000
010M
0000
0001
0000
0100
0000
0001
0000
,  // measure 112
1M00
0001
0020
0030
022M
0000
0000
0000
,  // measure 113
M000
0000
400M
0000
,  // measure 114
000M
0000
0000
0000
3330
0000
0000
0000
01M0
0000
1000
0000
0100
0000
1000
0001
,  // measure 115
0M00
0001
1000
0000
0010
0000
0100
0000
M001
0000
1000
0000
0001
0000
1000
0000
,  // measure 116
0M10
0000
0100
0000
0010
0000
0100
0000
0001
0000
0100
0000
0001
0000
1000
0100
,  // measure 117
0000
0100
1000
0000
0001
0000
0100
0000
0010
0000
1000
0000
0001
0000
1000
0001
,  // measure 118
00M0
0001
1M00
0000
M010
0000
1M00
0000
00M2
0000
0M00
0000
M000
0000
0M00
0000
,  // measure 119
00M0
0M00
M000
0M00
00M0
0M00
M000
0000
,  // measure 120
0000
0000
0003
0000
;

//---------------dance-single - Hard----------------
#NOTES:
     dance-single:
     Ace Of Hearts (2012):
     Hard:
     7:
     0.397,0.139,0.017,0.437,0.041: // measure 1
0000
0000
0000
0000
,  // measure 2
0000
0000
0000
0000
,  // measure 3
0000
0000
0000
0000
,  // measure 4
2000
0000
3001
0100
,  // measure 5
0002
0000
4003
3000
,  // measure 6
0020
0000
1030
0001
,  // measure 7
2000
0000
0000
0000
3100
0000
0000
0010
,  // measure 8
0002
0000
1003
0010
0000
1000
0000
0004
,  // measure 9
0000
0000
0000
0003
0000
0000
0000
1000
,  // measure 10
0020
0000
1030
0001
0000
0010
0000
0001
,  // measure 11
0000
1000
0000
0200
0000
0300
0000
0000
,  // measure 12
0020
0000
0130
0010
,  // measure 13
0200
0000
4300
3000
,  // measure 14
0002
0000
1003
0010
,  // measure 15
2000
0000
0000
0000
3001
0000
0000
0010
,  // measure 16
0200
0000
0310
0001
0000
1000
0000
0004
,  // measure 17
0000
0000
0000
0003
0000
0000
0000
1000
,  // measure 18
0020
0000
0130
0010
0000
1000
0000
0001
,  // measure 19
0000
0010
0000
0002
0000
0003
0000
0000
,  // measure 20
0000
0000
0000
0000
,  // measure 21
1000
0000
1000
0000
0001
0100
0001
0000
,  // measure 22
1000
1000
0001
0001
,  // measure 23
0010
0000
0010
0000
0100
0010
0100
0000
,  // measure 24
1000
1000
0001
0001
,  // measure 25
1000
0000
1000
0000
0001
0100
0001
0000
,  // measure 26
1000
1000
0100
0100
,  // measure 27
1000
0000
1000
0000
0100
0010
0100
0000
,  // measure 28
1000
1000
0001
0001
,  // measure 29
2000
3000
1001
0000
,  // measure 30
2002
0000
0000
0000
,  // measure 31
3003
0000
0001
0020
0000
0230
0000
1300
,  // measure 32
0000
0000
0001
0200
0000
0302
0000
1003
,  // measure 33
0000
0000
0001
0020
0000
0130
0000
1000
,  // measure 34
0000
0001
0000
2000
0000
0000
3001
0100
,  // measure 35
0000
0000
0010
0200
0000
0301
0000
1000
,  // measure 36
0000
0000
0001
0020
0000
0031
0000
1000
,  // measure 37
0000
0000
0001
0200
0000
0301
0000
1000
,  // measure 38
0000
0100
1000
0100
0000
0010
0000
0002
,  // measure 39
0000
0000
0000
0003
,  // measure 40
2000
0000
3020
0030
,  // measure 41
0200
0000
0301
1000
,  // measure 42
0020
0000
0430
0300
,  // measure 43
0002
0000
0103
0010
,  // measure 44
2000
0000
0000
0000
3001
0000
0000
0100
,  // measure 45
0002
0000
1003
0010
0000
1000
0000
0004
,  // measure 46
0000
0000
0000
0003
0000
0000
0000
1000
,  // measure 47
0200
0000
1300
0001
0000
0010
0000
0100
,  // measure 48
0000
0010
0000
0002
0000
0003
0000
0000
,  // measure 49
2000
0000
3100
0010
,  // measure 50
0002
0000
0043
0030
,  // measure 51
0200
0000
1300
0001
,  // measure 52
0020
0000
0000
0000
0130
0000
0000
0010
,  // measure 53
0002
0000
1003
0010
0000
1000
0000
0400
,  // measure 54
0000
0000
0000
0300
0000
0000
0000
0010
,  // measure 55
0002
0000
1003
0010
0000
0100
0000
0010
,  // measure 56
0000
1000
0000
0002
0000
0003
0000
0000
,  // measure 57
0200
0000
0300
0000
,  // measure 58
0010
0000
0010
0000
1000
0010
1000
0000
,  // measure 59
0001
0001
1000
1000
,  // measure 60
0010
0000
0010
0000
0100
0001
0100
0000
,  // measure 61
0010
0010
1000
1000
,  // measure 62
0001
0000
0001
0000
0010
0001
0010
0000
,  // measure 63
0100
0100
1000
1000
,  // measure 64
0001
0000
0001
0000
0010
0100
0010
0000
,  // measure 65
0001
0000
0001
0000
1000
0100
1000
0000
,  // measure 66
0001
0000
0001
0000
1000
0010
1000
0000
,  // measure 67
0010
0010
0100
0100
,  // measure 68
0001
0000
0001
0000
1000
0001
1000
0000
,  // measure 69
0100
0100
0010
0010
,  // measure 70
0001
0000
0001
0000
1000
0001
1000
0000
,  // measure 71
0010
0010
0100
0100
,  // measure 72
0001
0000
0001
0000
1000
0100
1000
0000
,  // measure 73
0002
0000
0000
0000
0003
0000
0000
0000
1000
0000
0000
0100
0000
0000
0010
0000
,  // measure 74
0001
0000
0000
0000
0000
0000
0000
0000
1000
0000
0000
0010
0000
0000
0100
0000
,  // measure 75
0001
0000
0000
0000
1000
0000
0000
0001
,  // measure 76
0010
0000
0000
0000
0000
0000
0000
0000
0001
0000
0000
0010
0000
0000
0100
0000
,  // measure 77
1000
0000
0000
0001
0000
0000
1000
0000
0010
0000
0000
0000
0000
0000
0100
0000
,  // measure 78
0001
0000
0000
0000
0000
0000
0000
0000
1000
0000
0000
0010
0000
0000
0100
0000
,  // measure 79
0001
0000
0000
1000
0100
0000
0000
0010
,  // measure 80
0001
0000
0000
0000
0000
0000
0000
0000
1000
0000
0000
0010
0000
0000
1000
0000
,  // measure 81
0001
0000
0000
0000
0000
0000
0000
1000
1000
1000
0000
0000
,  // measure 82
0000
0001
0001
0001
0000
0000
0000
0010
0010
0010
0000
0000
,  // measure 83
0000
0000
0100
0000
0100
0000
0100
0000
0000
0000
0000
0000
0000
0000
0000
0000
0000
0000
1000
0000
0000
0002
0000
0000
,  // measure 84
0000
0000
1003
0010
0000
0000
1000
0002
,  // measure 85
0000
0023
0000
0130
0000
0000
0010
0200
,  // measure 86
0000
2300
0000
3004
0000
0203
0000
0320
,  // measure 87
0000
0000
1030
0001
0000
0000
1000
0200
,  // measure 88
0000
0320
0000
0031
0000
0000
1000
0020
,  // measure 89
0000
2030
0000
3001
0000
0000
0010
0100
,  // measure 90
0000
0010
0000
0002
0000
1003
0000
0010
,  // measure 91
0000
0000
0100
0002
0000
0000
1003
0400
,  // measure 92
0000
0000
0000
0000
,  // measure 93
0000
0300
4000
0000
,  // measure 94
0000
3000
0002
0000
,  // measure 95
0103
0010
2000
0000
,  // measure 96
3004
0003
0020
0000
,  // measure 97
0130
1000
0002
0000
,  // measure 98
0103
0000
0000
0010
2000
0000
3001
0010
,  // measure 99
0000
0100
0000
4000
0000
0000
0000
3000
,  // measure 100
0000
0000
0000
0001
0020
0000
0031
1000
,  // measure 101
0000
0010
0000
1000
0000
0001
0000
0020
,  // measure 102
0000
0030
0000
0000
0200
0000
0000
0000
,  // measure 103
1300
0001
0200
0000
,  // measure 104
0340
0030
2000
0000
,  // measure 105
3001
0010
0200
0000
,  // measure 106
1300
0000
0000
0001
0020
0000
0031
1000
,  // measure 107
0000
0010
0000
0400
0000
0000
0000
0300
,  // measure 108
0000
0000
0000
0010
2000
0000
3001
0010
,  // measure 109
0000
0001
0000
1000
0000
0010
0000
0200
,  // measure 110
0000
0300
0000
0000
0001
0000
0001
0000
,  // measure 111
0100
0010
0100
0000
0001
0000
0001
0000
,  // measure 112
1000
1000
2002
0000
,  // measure 113
0000
0003
0400
0000
,  // measure 114
0000
3300
0100
0100
,  // measure 115
0010
0001
0010
0000
0100
0000
0100
0000
,  // measure 116
1000
1000
0001
0001
,  // measure 117
1000
0010
1000
0000
0010
0000
0010
0000
,  // measure 118
0100
0010
0100
0000
0002
0000
0000
0000
,  // measure 119
0000
0000
0000
0000
,  // measure 120
0000
0000
0003
0000
;

//---------------dance-single - Medium----------------
#NOTES:
     dance-single:
     Ace Of Hearts (2012):
     Medium:
     5:
     0.274,0.139,0.035,0.250,0.000: // measure 1
0000
0000
0000
0000
,  // measure 2
0000
0000
0000
0000
,  // measure 3
0000
0000
0000
0000
,  // measure 4
2000
0000
3001
0001
,  // measure 5
0002
0000
1003
0000
,  // measure 6
0020
0000
0130
0100
,  // measure 7
0200
0000
0310
0000
,  // measure 8
1000
0000
0000
1000
0000
1000
0000
4000
,  // measure 9
0000
0000
0000
3000
0000
0000
0000
0000
,  // measure 10
0001
0000
0000
0001
0000
0000
0000
0010
,  // measure 11
0000
0010
0000
0010
0000
0000
0000
0000
,  // measure 12
0200
0000
1300
1000
,  // measure 13
2000
0000
3001
0000
,  // measure 14
0002
0000
0103
0100
,  // measure 15
0200
0000
0310
0000
,  // measure 16
0100
0000
0000
0100
0000
0100
0000
0400
,  // measure 17
0000
0000
0000
0300
0000
0000
0000
0000
,  // measure 18
0010
0000
0000
0010
0000
0000
0000
1000
,  // measure 19
0000
1000
0000
1000
0000
0000
0000
0000
,  // measure 20
0000
0000
0000
0000
,  // measure 21
0001
0001
0001
0000
,  // measure 22
0100
0100
0100
0000
,  // measure 23
0010
0010
0010
0000
,  // measure 24
1000
1000
1000
0000
,  // measure 25
0001
0001
0001
0000
,  // measure 26
0010
0010
0010
0000
,  // measure 27
0001
0001
0001
0000
,  // measure 28
1000
1000
1000
0000
,  // measure 29
0002
0000
0003
0000
,  // measure 30
2002
0000
0000
0000
,  // measure 31
3003
0000
0000
1000
0000
1000
0000
1000
,  // measure 32
0000
0000
0000
0100
0000
0100
0000
0100
,  // measure 33
0000
0000
0000
1000
0000
1000
0000
1000
,  // measure 34
0000
0000
0000
0002
0000
0000
0000
0103
,  // measure 35
0000
0000
0000
0010
0000
0010
0000
0010
,  // measure 36
0000
0000
0000
1000
0000
1000
0000
1000
,  // measure 37
0000
0000
0000
0001
0000
0001
0000
0001
,  // measure 38
0000
0000
0000
0100
0000
0100
0000
0200
,  // measure 39
0000
0000
0000
0300
,  // measure 40
0002
0000
0003
0000
,  // measure 41
2000
0000
3001
0010
,  // measure 42
0002
0000
1003
0000
,  // measure 43
0020
0000
1030
0001
,  // measure 44
2000
0000
3100
0000
,  // measure 45
0020
0000
0000
0031
0000
1000
0000
0004
,  // measure 46
0000
0000
0000
0003
0000
0000
0000
0000
,  // measure 47
1000
0000
0000
1000
0000
0000
0000
0001
,  // measure 48
0000
0100
0000
0001
0000
0000
0000
0000
,  // measure 49
2000
0000
3001
0010
,  // measure 50
0002
0000
1003
0000
,  // measure 51
0020
0000
1030
0001
,  // measure 52
2000
0000
3100
0000
,  // measure 53
0020
0000
0000
0031
0000
1000
0000
0004
,  // measure 54
0000
0000
0000
0003
0000
0000
0000
0000
,  // measure 55
1000
0000
0000
1000
0000
0000
0000
0010
,  // measure 56
0000
1000
0000
0020
0000
0030
0000
0000
,  // measure 57
2000
0000
3000
0000
,  // measure 58
0001
0010
0001
0000
,  // measure 59
1000
0001
1000
0000
,  // measure 60
0001
0100
0001
0000
,  // measure 61
1000
0010
1000
0000
,  // measure 62
0001
1000
0001
0000
,  // measure 63
1000
0100
1000
0000
,  // measure 64
0001
0010
0001
0000
,  // measure 65
0010
0100
0010
0000
,  // measure 66
0001
1000
0001
0000
,  // measure 67
1000
0010
1000
0000
,  // measure 68
0001
0100
0001
0000
,  // measure 69
1000
0001
1000
0000
,  // measure 70
0010
1000
0010
0000
,  // measure 71
0100
0001
0100
0000
,  // measure 72
0001
1000
0001
0000
,  // measure 73
2000
3000
0001
0001
,  // measure 74
0001
0000
1000
1000
,  // measure 75
1000
0000
0010
0000
,  // measure 76
0010
0000
0100
0100
,  // measure 77
0100
0001
0001
0000
,  // measure 78
1000
0000
0001
0001
,  // measure 79
0001
0000
1000
0000
,  // measure 80
0100
0000
0010
0010
,  // measure 81
0010
0000
0000
0011
,  // measure 82
0000
1001
0000
1100
,  // measure 83
0000
0000
0110
0000
0000
0000
0000
0020
,  // measure 84
0000
0000
0000
0031
0000
0000
0000
1000
,  // measure 85
0000
0100
0000
1000
0000
0000
0000
0001
,  // measure 86
0000
0100
0000
0001
0000
0000
0000
2000
,  // measure 87
0000
0000
0000
3010
0000
0000
0000
0100
,  // measure 88
0000
0001
0000
0100
0000
0000
0000
0010
,  // measure 89
0000
0100
0000
0010
0000
0000
0000
1000
,  // measure 90
0000
1000
0000
0001
0000
0001
0000
0010
,  // measure 91
0000
0000
0000
0200
0000
0000
0000
4300
,  // measure 92
0000
0000
0000
0000
,  // measure 93
0000
3000
0000
0000
,  // measure 94
0000
0000
0002
0000
,  // measure 95
1003
0010
2000
0000
,  // measure 96
3001
0000
0020
0000
,  // measure 97
0031
1000
0002
0000
,  // measure 98
0103
0000
0000
0000
0020
0000
0000
0130
,  // measure 99
0000
0001
0000
0400
0000
0000
0000
0300
,  // measure 100
0000
0000
0000
0000
0010
0000
0000
0010
,  // measure 101
0000
0000
0000
1000
0000
0001
0000
1000
,  // measure 102
0000
0000
0002
0000
,  // measure 103
1003
0100
2000
0000
,  // measure 104
3001
0000
0200
0000
,  // measure 105
0310
1000
0020
0000
,  // measure 106
0130
0000
0000
0000
0001
0000
0000
1000
,  // measure 107
0000
0100
0000
4000
0000
0000
0000
3000
,  // measure 108
0000
0000
0000
0000
0001
0000
0000
0001
,  // measure 109
0000
0000
0000
1000
0000
0010
0000
2000
,  // measure 110
0000
3000
0001
0100
,  // measure 111
0001
0000
1000
0001
,  // measure 112
1000
0001
2002
0000
,  // measure 113
0000
0000
0000
0000
,  // measure 114
0000
3003
1000
0010
,  // measure 115
1000
0000
0001
0010
,  // measure 116
0001
0000
1000
0100
,  // measure 117
1000
0000
0001
1000
,  // measure 118
0001
0000
0200
0000
,  // measure 119
0000
0000
0000
0000
,  // measure 120
0000
0000
0300
0000
;

//---------------dance-single - Easy----------------
#NOTES:
     dance-single:
     Ace Of Hearts (2012):
     Easy:
     3:
     0.182,0.070,0.012,0.140,0.000: // measure 1
0000
0000
0000
0000
,  // measure 2
0000
0000
0000
0000
,  // measure 3
0000
0000
0000
0000
,  // measure 4
0001
0000
0001
0000
,  // measure 5
0002
0000
0003
0000
,  // measure 6
1000
0000
1000
0000
,  // measure 7
2000
0000
3000
0000
,  // measure 8
0010
0000
0010
0000
,  // measure 9
0040
0000
0000
0030
0000
0000
0000
0000
,  // measure 10
0100
0000
0100
0000
,  // measure 11
0100
0000
0100
0000
,  // measure 12
0010
0000
0010
0000
,  // measure 13
0020
0000
0030
0000
,  // measure 14
1000
0000
1000
0000
,  // measure 15
2000
0000
3000
0000
,  // measure 16
0001
0000
0001
0000
,  // measure 17
0004
0000
0000
0003
0000
0000
0000
0000
,  // measure 18
0100
0000
0100
0000
,  // measure 19
0100
0000
0100
0000
,  // measure 20
0000
0000
0000
0000
,  // measure 21
0010
0000
0010
0000
,  // measure 22
1000
0000
1000
0000
,  // measure 23
0001
0000
0001
0000
,  // measure 24
1000
0000
1000
0000
,  // measure 25
0100
0000
0100
0000
,  // measure 26
0010
0000
0010
0000
,  // measure 27
0100
0000
0100
0000
,  // measure 28
1000
0000
1000
0000
,  // measure 29
0002
0000
0003
0000
,  // measure 30
2002
0000
3003
0000
,  // measure 31
0000
0000
1000
0000
,  // measure 32
1000
0000
0001
0000
,  // measure 33
0001
0000
0010
0000
,  // measure 34
0010
0000
0020
0000
,  // measure 35
0030
0000
0100
0000
,  // measure 36
0100
0000
1000
0000
,  // measure 37
1000
0000
0001
0000
,  // measure 38
0001
0000
1000
0000
,  // measure 39
2000
0000
0000
3000
,  // measure 40
0002
0000
0003
0000
,  // measure 41
0100
0000
0100
0000
,  // measure 42
0200
0000
0300
0000
,  // measure 43
0010
0000
0010
0000
,  // measure 44
0020
0000
0030
0000
,  // measure 45
1000
0000
1000
0000
,  // measure 46
4000
0000
0000
3000
0000
0000
0000
0000
,  // measure 47
0001
0000
0001
0000
,  // measure 48
0100
0000
0100
0000
,  // measure 49
0010
0000
0010
0000
,  // measure 50
0020
0000
0030
0000
,  // measure 51
0100
0000
0100
0000
,  // measure 52
0200
0000
0300
0000
,  // measure 53
0001
0000
0001
0000
,  // measure 54
0004
0000
0000
0003
0000
0000
0000
0000
,  // measure 55
1000
0000
1000
0000
,  // measure 56
0100
0000
0100
0000
,  // measure 57
2000
0000
3000
0000
,  // measure 58
0001
0000
0001
0000
,  // measure 59
0100
0000
0100
0000
,  // measure 60
0010
0000
0010
0000
,  // measure 61
1000
0000
1000
0000
,  // measure 62
0001
0000
0001
0000
,  // measure 63
0010
0000
0010
0000
,  // measure 64
0100
0000
0100
0000
,  // measure 65
1000
0000
1000
0000
,  // measure 66
0001
0000
0001
0000
,  // measure 67
0100
0000
0100
0000
,  // measure 68
0010
0000
0010
0000
,  // measure 69
1000
0000
1000
0000
,  // measure 70
0001
0000
0001
0000
,  // measure 71
0010
0000
0010
0000
,  // measure 72
0100
0000
0100
0000
,  // measure 73
2000
3000
0001
0000
,  // measure 74
0001
0000
1000
0000
,  // measure 75
1000
0000
0010
0000
,  // measure 76
0010
0000
0100
0000
,  // measure 77
0100
0000
0001
0000
,  // measure 78
0001
0000
1000
0000
,  // measure 79
1000
0000
0100
0000
,  // measure 80
0100
0000
1000
0000
,  // measure 81
1000
0000
0000
0001
,  // measure 82
0000
1000
0000
0010
,  // measure 83
0000
1000
0000
0000
,  // measure 84
0001
0000
0001
0000
,  // measure 85
0100
0000
0100
0000
,  // measure 86
0010
0000
0010
0000
,  // measure 87
0020
0000
0030
0000
,  // measure 88
1000
0000
1000
0000
,  // measure 89
0001
0000
0001
0000
,  // measure 90
0010
0000
0010
0000
,  // measure 91
0010
0000
0400
0000
,  // measure 92
0000
0000
0000
0000
,  // measure 93
0000
0300
0000
0000
,  // measure 94
0000
0000
1000
0000
,  // measure 95
1000
0000
2000
0000
,  // measure 96
3000
0000
0001
0000
,  // measure 97
0001
0000
0002
0000
,  // measure 98
0003
0000
0100
0000
,  // measure 99
0100
0000
0000
0000
0400
0000
0000
0300
,  // measure 100
0000
0000
0010
0000
,  // measure 101
0010
0000
1000
0000
,  // measure 102
1000
0000
0001
0000
,  // measure 103
0001
0000
0002
0000
,  // measure 104
0003
0000
1000
0000
,  // measure 105
1000
0000
2000
0000
,  // measure 106
3000
0000
0100
0000
,  // measure 107
0100
0000
0000
0000
0400
0000
0000
0300
,  // measure 108
0000
0000
0010
0000
,  // measure 109
0010
0000
0100
0000
,  // measure 110
0100
0000
1000
0000
,  // measure 111
1000
0000
0001
0000
,  // measure 112
0001
0000
2002
0000
,  // measure 113
0000
0000
0000
0000
,  // measure 114
3003
0000
1000
0000
,  // measure 115
1000
0000
0010
0000
,  // measure 116
0010
0000
0100
0000
,  // measure 117
0100
0000
0001
0000
,  // measure 118
0001
0000
2000
0000
,  // measure 119
0000
0000
0000
0000
,  // measure 120
0000
0000
3000
0000
;

//---------------dance-single - Novice----------------
#NOTES:
     dance-single:
     Ace Of Hearts (2012):
     Beginner:
     1:
     0.121,0.070,0.012,0.198,0.000: // measure 1
0000
0000
0000
0000
,  // measure 2
0000
0000
0000
0000
,  // measure 3
0000
0000
0000
0000
,  // measure 4
2000
0000
3000
0000
,  // measure 5
2000
0000
3000
0000
,  // measure 6
0020
0000
0030
0000
,  // measure 7
0020
0000
0030
0000
,  // measure 8
0200
0000
0000
0000
,  // measure 9
0300
0000
0000
0000
,  // measure 10
0001
0000
0000
0000
,  // measure 11
0001
0000
0000
0000
,  // measure 12
2000
0000
3000
0000
,  // measure 13
2000
0000
3000
0000
,  // measure 14
0200
0000
0300
0000
,  // measure 15
0200
0000
0300
0000
,  // measure 16
0010
0000
0000
0000
,  // measure 17
0010
0000
0000
0000
,  // measure 18
0001
0000
0000
0000
,  // measure 19
0001
0000
0000
0000
,  // measure 20
0000
0000
0000
0000
,  // measure 21
1000
0000
0000
0000
,  // measure 22
1000
0000
0000
0000
,  // measure 23
0010
0000
0000
0000
,  // measure 24
0010
0000
0000
0000
,  // measure 25
0100
0000
0000
0000
,  // measure 26
0100
0000
0000
0000
,  // measure 27
0001
0000
0000
0000
,  // measure 28
0001
0000
0000
0000
,  // measure 29
2000
0000
3000
0000
,  // measure 30
2002
0000
3003
0000
,  // measure 31
0000
0000
0001
0000
,  // measure 32
0000
0000
0001
0000
,  // measure 33
0000
0000
0100
0000
,  // measure 34
0000
0000
0100
0000
,  // measure 35
0000
0000
0001
0000
,  // measure 36
0000
0000
0001
0000
,  // measure 37
0000
0000
1000
0000
,  // measure 38
0000
0000
2000
0000
,  // measure 39
0000
0000
0000
0000
,  // measure 40
3000
0000
0000
0000
,  // measure 41
0002
0000
0003
0000
,  // measure 42
0002
0000
0003
0000
,  // measure 43
0200
0000
0300
0000
,  // measure 44
0200
0000
0300
0000
,  // measure 45
0010
0000
0000
0000
,  // measure 46
0010
0000
0000
0000
,  // measure 47
1000
0000
0000
0000
,  // measure 48
1000
0000
0000
0000
,  // measure 49
0002
0000
0003
0000
,  // measure 50
0002
0000
0003
0000
,  // measure 51
0020
0000
0030
0000
,  // measure 52
0020
0000
0030
0000
,  // measure 53
0100
0000
0000
0000
,  // measure 54
0100
0000
0000
0000
,  // measure 55
1000
0000
0000
0000
,  // measure 56
1000
0000
0000
0000
,  // measure 57
0002
0000
0003
0000
,  // measure 58
1000
0000
0000
0000
,  // measure 59
1000
0000
0000
0000
,  // measure 60
0010
0000
0000
0000
,  // measure 61
0010
0000
0000
0000
,  // measure 62
0100
0000
0000
0000
,  // measure 63
0100
0000
0000
0000
,  // measure 64
0001
0000
0000
0000
,  // measure 65
0001
0000
0000
0000
,  // measure 66
1000
0000
0000
0000
,  // measure 67
1000
0000
0000
0000
,  // measure 68
0100
0000
0000
0000
,  // measure 69
0100
0000
0000
0000
,  // measure 70
1000
0000
0000
0000
,  // measure 71
1000
0000
0000
0000
,  // measure 72
0001
0000
0000
0000
,  // measure 73
0002
0003
1000
0000
,  // measure 74
0000
0000
1000
0000
,  // measure 75
0000
0000
0100
0000
,  // measure 76
0000
0000
0100
0000
,  // measure 77
0000
0000
0010
0000
,  // measure 78
0000
0000
0010
0000
,  // measure 79
0000
0000
0001
0000
,  // measure 80
0000
0000
0001
0000
,  // measure 81
0000
0000
0000
1000
,  // measure 82
0000
1000
0000
0010
,  // measure 83
0000
0010
0000
0000
,  // measure 84
0000
0000
0100
0000
,  // measure 85
0000
0000
0100
0000
,  // measure 86
0000
0000
0001
0000
,  // measure 87
0000
0000
0001
0000
,  // measure 88
0000
0000
1000
0000
,  // measure 89
0000
0000
1000
0000
,  // measure 90
0000
0000
0100
0000
,  // measure 91
0000
0000
0400
0000
,  // measure 92
0000
0000
0000
0000
,  // measure 93
0000
0300
0000
0000
,  // measure 94
0000
0000
2000
0000
,  // measure 95
3000
0000
2000
0000
,  // measure 96
3000
0000
0002
0000
,  // measure 97
0003
0000
0002
0000
,  // measure 98
0003
0000
0100
0000
,  // measure 99
0000
0000
0100
0000
,  // measure 100
0000
0000
0010
0000
,  // measure 101
0000
0000
0010
0000
,  // measure 102
0000
0000
2000
0000
,  // measure 103
3000
0000
2000
0000
,  // measure 104
3000
0000
0020
0000
,  // measure 105
0030
0000
0020
0000
,  // measure 106
0030
0000
0100
0000
,  // measure 107
0000
0000
0100
0000
,  // measure 108
0000
0000
0001
0000
,  // measure 109
0000
0000
0001
0000
,  // measure 110
0000
0000
1000
0000
,  // measure 111
0000
0000
1000
0000
,  // measure 112
0000
0000
2002
0000
,  // measure 113
0000
0000
0000
0000
,  // measure 114
3003
0000
0001
0000
,  // measure 115
0000
0000
0001
0000
,  // measure 116
0000
0000
1000
0000
,  // measure 117
0000
0000
1000
0000
,  // measure 118
0000
0000
0200
0000
,  // measure 119
0000
0000
0000
0000
,  // measure 120
0000
0000
0300
0000
;
