#TITLE:Two-Faced Lovers;
#SUBTITLE:;
#ARTIST:Miku Hatsune;
#TITLETRANSLIT:;
#SUBTITLETRANSLIT:;
#ARTISTTRANSLIT:;
#GENRE:;
#CREDIT:Ace Of Hearts;
#BANNER:Two-Faced Lovers - bn.png;
#BACKGROUND:Two-Faced Lovers - Bg.png;
#LYRICSPATH:;
#CDTITLE:Ace Of Hearts.png;
#MUSIC:Two-Faced Lovers.ogg;
#OFFSET:1.360;
#SAMPLESTART:55.900;
#SAMPLELENGTH:12.000;
#SELECTABLE:YES;
#BPMS:0.000=159.000;
#STOPS:;
#BGCHANGES:8.000=Two-Faced Lovers Video (Diva).avi=1.000=0=0=1=====,
99999=-nosongbg-=1.000=0=0=0 // don't automatically add -songbackground-
;
#KEYSOUNDS:;

//---------------dance-single - Ace Of Hearts (2012)----------------
#NOTES:
     dance-single:
     Ace Of Hearts (2012):
     Challenge:
     12:
     1.000,0.000,0.357,1.000,1.000:
0000
0000
0000
0000
,
0000
0000
0000
0000
,
0000
0000
0000
0000
,
0MM0
0000
M00M
0000
,
MMMM
0000
0000
0000
,
0000
0000
0000
0000
0000
0000
0000
0000
0001
0000
1000
0000
0001
0010
0100
1000
,
0001
0100
0001
0100
0010
1000
0010
1000
0001
0000
0010
0000
0200
0000
0000
0000
,
1300
0100
1000
0100
0010
0001
0010
0001
1000
0000
0010
0000
0200
0000
0000
0000
,
0301
0100
0010
1000
0010
0100
0001
1000
0001
0000
0010
0000
0200
0000
0000
0000
,
1300
0100
0010
0001
0010
0100
1000
0001
1000
0000
0010
0000
0200
0000
0000
0000
,
0301
0100
0001
0100
0010
1000
0010
1000
0001
0000
0010
0000
0200
0000
0000
0000
,
1300
0001
1000
0001
0100
0010
0100
0010
1000
0000
0001
0000
0200
0000
0000
0000
,
0310
1000
0010
1000
0001
0100
0001
0100
0010
0000
1000
0000
0002
0000
0000
0000
,
0013
0100
0010
0100
1000
0100
1000
0100
0010
0001
0010
0001
1000
0001
1000
0001
,
0020
0000
0031
0010
0100
1000
0100
1000
0001
0010
0001
0010
0100
0010
0200
0000
,
03MM
0000
1000
0100
0010
0001
1000
0001
0100
0010
0100
0000
M002
0000
20M3
0000
,
3010
0100
0001
M200
0000
0310
1000
0010
0100
0001
1000
00M2
0000
1003
0100
0010
,
0001
1000
0001
1000
0010
1000
0010
2000
0M00
3001
0010
0001
0010
0001
0010
0100
,
2000
0000
3M01
0020
0000
0031
1000
0010
1000
0001
1000
0001
0010
0100
1000
0000
,
MMM0
0000
0001
0000
1000
001M
0000
0000
M100
0000
0000
02M2
0300
0000
2003
0000
,
3001
0010
0100
1000
0100
0010
0100
0010
0100
1000
0100
2000
0000
30M1
0100
0001
,
0100
0000
002M
0000
1030
0001
1000
0001
1000
0010
1000
0010
0100
0001
0100
0001
,
1000
0000
0200
0300
0110
0000
20M0
0000
3001
0100
0010
0000
0100
0001
10M0
0000
,
0100
0010
0001
0M00
2000
000M
3010
0100
0001
00M0
1000
0100
0010
0002
2000
0000
,
0000
0000
0000
0000
0000
0000
0000
0003
0000
3010
0100
0000
0001
0000
1000
0000
,
0M02
M023
203M
3M20
,
M032
0000
1003
0010
0200
0000
03M1
1000
0002
M000
0013
0100
1000
0002
00M0
0103
,
0000
0M00
0010
0100
0001
0000
1000
0100
001M
0000
01M0
0000
1M00
0000
M002
0000
,
02M0
0003
002M
0300
0M02
0030
20M0
0003
,
020M
0000
3000
M000
0310
00M0
2000
0000
,
3001
0010
0100
1000
0100
0010
0001
1000
0001
0000
1000
0000
0200
0000
0000
0000
,
0310
0100
1000
0100
0010
0001
0010
0100
1000
0000
0001
0000
0200
0000
0000
0000
,
0310
0100
0001
0100
0010
1000
0010
0100
0001
0000
1000
0000
0200
0000
0000
0000
,
0310
0100
1000
0100
0010
0001
0010
0100
1000
0000
0001
0000
0200
0000
0000
0000
,
0310
0100
0010
0100
0001
0100
0001
0100
0010
0000
1000
0000
0002
0000
0000
0000
,
0013
0100
0010
0100
1000
0100
1000
0100
0010
0000
0001
0000
2000
0000
0000
0000
,
3010
1000
0001
0010
0100
1000
0100
0010
0001
0000
1000
0000
0200
0000
0000
0000
,
0310
0100
1000
0001
0100
0001
1000
0100
0010
0001
1000
0001
0010
0100
1000
0100
,
0020
0000
0130
1000
0001
0100
0001
1000
0100
1000
0001
0010
0M02
0000
1003
0010
,
0200
000M
0310
1000
0002
0M00
1003
0100
0010
0001
0010
0100
1000
0001
0100
0001
,
20M0
0000
3100
0010
0001
0010
0001
1000
0M20
0000
0130
0001
0100
0010
1000
0001
,
M020
0000
023M
0000
1300
0100
0010
0100
1000
0001
1000
0000
02M0
0000
0300
0000
,
0M10
0001
0010
0200
000M
1300
0001
0100
0001
1000
0100
0020
0030
M011
0000
0001
,
1000
0010
0200
0000
0301
0100
0010
2000
0000
3001
0020
0000
0M31
0000
000M
0000
,
1000
0M20
0000
M130
0002
0M00
0103
M020
0000
0130
200M
0000
31M0
0002
0000
1M03
,
0020
0000
1030
0010
0100
0010
1000
0000
2002
0000
0000
0000
3000
0000
0013
0100
,
0010
M000
0002
0M00
1003
0010
0100
0010
1000
0001
0000
M101
0000
0000
1MM0
0001
,
0100
0010
0100
0001
1000
0100
0010
0100
1000
0001
0000
0101
0000
0MM0
1000
0001
,
0000
0000
0011
0000
0000
0000
00M0
0000
1000
0000
0100
0000
0010
M000
0001
0M00
0000
00M0
0000
0M00
0001
M000
0010
0000
0100
0000
100M
0000
00M0
0000
0M00
0000
,
1001
0000
1000
0010
0100
0010
1000
0001
0100
0010
0100
0000
01M1
0000
0M00
0000
,
10M0
0100
0010
0001
M020
0000
0130
1000
0001
0000
010M
0010
1000
000M
1000
0010
,
0001
0M00
0001
0010
1000
00M0
1000
0001
001M
0100
0010
0000
0M02
0000
20M3
3000
,
102M
0M30
021M
03M0
M102
00M3
2M02
30M3
,
1000
0100
1000
0100
0010
0001
0010
0001
1000
0001
1000
0001
1000
0001
1000
0001
,
0020
0000
0130
1000
0100
0010
0001
0010
0100
0000
1000
0000
2M02
0000
3000
0000
,
0103
0010
1000
0010
0100
0001
1000
0001
0010
0000
0100
0000
22M0
0000
0300
0000
,
3002
0000
0103
0010
1000
0010
0100
0001
1000
0000
0100
0000
M220
0000
0300
0000
,
0032
0000
1003
0010
1000
0001
0010
0001
2M00
0000
302M
0000
M230
0000
03M2
0003
,
2001
0000
3100
0010
0001
0010
0100
1000
0001
0000
1000
0000
202M
0000
3000
0000
,
0230
0000
0301
0100
0010
1000
0001
0100
0010
0000
1000
0000
20M2
0000
3000
0000
,
0023
0000
0130
1000
0100
0010
0001
1000
0001
0000
0100
0000
012M
0000
2030
3000
,
20M2
3M03
M022
0M33
022M
M330
22M0
330M
,
10M1
0000
1000
0100
0010
0001
0010
0100
1000
0001
0100
0010
1000
0010
0100
0001
,
2000
3200
2300
3200
0320
0032
0023
0032
2003
3200
2300
3200
0320
0000
0000
0000
,
0031
0010
0100
1000
0001
1000
0001
0100
0002
0000
1003
0010
0100
0010
2000
3000
,
2220
000M
3330
0000
0222
M000
0333
0000
2022
0M00
3033
0000
2222
0000
3333
0000
,
1000
0001
0010
0001
1000
0010
1000
0001
0010
0000
0100
0000
2000
0000
0000
0000
,
3001
0100
0010
0100
0001
1000
0010
0100
0001
0000
1000
0000
0200
0000
0000
0000
,
0310
0001
1000
0010
1000
0001
0010
0001
1000
0000
0010
0000
0200
0000
0000
0000
,
0301
0100
0001
1000
0100
1000
0001
0100
0001
0000
1000
0000
0020
0000
0000
0000
,
0130
0001
1000
0100
0010
0001
0010
0100
1000
0000
0001
0000
0200
0000
0000
0000
,
0310
1000
0001
1000
0100
0010
0100
1000
0001
0000
0100
0000
0020
0000
0000
0000
,
0130
0010
1000
0001
0010
0001
1000
0010
0100
0000
0001
0000
2000
0000
0000
0000
,
3001
0010
0100
0010
0001
1000
0010
0100
0010
1000
0001
1000
0010
0100
0010
1000
,
0001
0010
0100
1000
0100
0010
0001
1000
0001
0100
0010
0100
0001
1000
0001
0000
,
0MMM
0000
1000
0100
0010
0100
2000
00M0
3001
0100
0020
0000
2M30
0000
3001
0000
,
1000
0010
0100
0002
00M0
1003
0200
0000
M310
0100
1000
00M2
0000
0103
0010
1000
,
0001
0010
0001
0010
0100
1000
0100
1000
0001
1000
0001
1000
0010
0100
0010
0100
,
M002
0000
1003
02M0
0000
0310
0100
1000
0001
0100
0001
0100
0010
1000
0010
0000
,
0MMM
0000
1000
0000
00M1
0100
0000
0000
012M
0000
0000
2030
0M00
0000
3100
0000
,
0010
0100
0010
0100
1000
0001
0100
0010
0100
0001
0000
20M1
0000
3100
0010
0001
,
1000
0010
0100
0010
0100
0001
1000
0001
0010
0100
1000
0100
0010
0001
1000
0001
,
0100
M0M0
0M0M
0000
0110
0000
2M00
0000
0000
3001
0100
0010
0100
0001
1000
0100
,
0010
0001
1000
0000
M001
0000
010M
0000
0M10
0000
0100
0001
1000
0000
2002
0000
,
0000
0000
0000
0000
3003
0001
010M
0M10
,
20M0
000M
3M20
M000
0M32
M000
0M23
000M
,
2030
0000
3001
0100
0010
1000
0010
0100
0001
0000
100M
0100
0010
0200
00M0
1300
,
0000
0001
0100
0010
0100
0001
1000
0010
0100
0000
0M01
0000
100M
0000
M100
0000
,
0M20
000M
M200
003M
00M2
M300
02M0
M003
,
002M
M300
2M00
003M
0M20
300M
M002
0M30
,
2003
0000
3010
0100
0010
1000
0001
0100
0001
1000
0100
1000
00M2
0000
0103
0010
,
2000
000M
3010
0100
0002
00M0
1003
0100
0010
0100
1000
0001
0100
0010
0100
0001
,
2000
0M00
3001
0100
0001
1000
0100
0010
0002
0M00
1003
0010
0200
0000
03M1
1000
,
0010
1000
0002
0M00
0003
0011
0000
001M
0100
1000
0001
0000
M202
0000
0003
0000
,
031M
1000
0001
0010
0100
0010
0001
1000
0010
0100
0010
2000
3000
11M0
0000
M010
,
0001
1000
0010
0100
0010
1000
0001
0010
0100
1000
0002
0003
0101
0000
M0M0
0M0M
,
0010
0200
M000
0301
2000
00M0
3100
0002
M000
0103
2000
00M0
3001
0100
0000
0010
,
0200
0000
03M1
1000
0100
0010
0001
0000
2002
0000
0000
0000
0003
0000
3010
0100
,
0001
0M00
2001
0000
3100
0010
0100
1000
0001
0100
0000
011M
0000
0000
0M10
1000
,
0002
0000
0013
0100
1000
0100
0010
0001
1000
0001
0000
0101
0000
000M
0010
1000
,
0000
1100
0000
M000
0010
0001
0000
0101
0000
00M0
0001
0100
0010
1000
000M
0000
,
11M0
0000
0100
0010
0001
1000
0010
0100
0001
1000
0001
0000
0101
0000
0M00
0000
,
2000
0000
3001
0100
0002
0000
1003
0100
0001
00M0
0001
0100
1000
0000
1M00
0001
,
0100
0000
0001
0100
1000
00M0
1000
0100
0001
0100
0010
0000
1000
0000
0001
0000
,
020M
00M0
002M
M300
0M02
M030
20M0
0M03
,
020M
30M0
M020
030M
2M00
003M
0002
3000
,
00M3
0000
00M0
0000
2000
0000
3001
0010
0100
1000
0100
0010
0001
0000
1000
0000
,
220M
0000
3000
0000
0320
0000
0130
1000
0100
0010
0001
1000
0001
0000
0100
0000
,
M220
0000
0300
0000
2030
0000
3001
0010
0100
0010
0001
1000
0010
1000
0001
0000
,
0M22
0000
0003
0000
0230
0000
1300
0001
0100
0001
1000
0100
0020
0000
0230
0000
,
2300
0000
3002
0003
0201
0000
0310
1000
0010
0100
0001
0100
0001
0000
1000
0000
,
220M
0000
3000
0000
0320
0000
0130
1000
0100
0010
0001
1000
0001
0000
0100
0000
,
M220
0000
0300
0000
2030
0000
3001
0010
0001
1000
0100
1000
0001
0000
1000
0000
,
120M
0000
0320
0030
0022
MM00
0033
0000
0220
M00M
0330
0000
2200
00MM
3300
0000
,
2002
0MM0
3003
0000
2000
0000
3010
0100
0001
1000
0100
0010
0001
0000
1000
0000
,
202M
0000
3000
0000
0230
0000
0301
1000
0100
0010
0001
1000
0010
0000
0100
0000
,
M202
0000
0300
0000
2003
0000
3100
0010
0001
1000
0001
0100
0010
0000
1000
0000
,
22M0
0000
3000
0000
0320
0000
0031
1000
0010
1000
0001
0010
0100
0000
1M00
0000
,
M001
0000
010M
0000
0M20
0000
1030
0001
0010
0100
0010
0001
1000
0000
0010
0000
,
M220
0000
0030
0000
0302
0000
1003
0100
0010
0100
1000
0001
0100
0000
0010
0000
,
202M
0000
0030
0000
3002
0000
0013
0100
0010
0001
1000
0010
0100
0000
0001
0000
,
2M01
0000
3020
0030
0220
M00M
0330
0000
0202
M0M0
0303
0000
2002
0MM0
3003
0000
,
2200
00MM
3300
0000
0220
M00M
0330
0000
0000
M00M
0MM0
0000
0000
0000
0000
0000
;

//---------------dance-single - Ace Of Hearts (2012)----------------
#NOTES:
     dance-single:
     Ace Of Hearts (2012):
     Medium:
     8:
     0.653,0.000,0.027,0.506,0.067:
0000
0000
0000
0000
,
0000
0000
0000
0000
,
0000
0000
0000
0000
,
0000
0000
0000
0000
,
0000
0000
0000
0000
,
0000
0000
0000
0000
1000
0010
0400
0000
,
0301
0100
0010
1000
0001
1000
0200
0000
,
0310
0001
0010
0100
1000
0001
2000
0000
,
3010
1000
0001
0010
0001
1000
0020
0000
,
1030
0010
0100
0010
1000
0001
0200
0000
,
0310
1000
0001
0010
0100
1000
0002
0000
,
1003
0010
0100
0010
1000
0001
0020
0000
,
0130
1000
0100
0010
0001
1000
0200
0000
,
1300
0001
0100
0010
4000
0000
0000
0000
,
3001
0100
0010
0100
0001
1000
0100
1000
,
00M0
0001
0100
0010
0100
0001
1000
0001
,
0020
0030
0M00
0001
1000
0010
0100
0001
,
0100
0010
1000
0001
0010
0100
1000
0001
,
0010
0001
1000
0010
0100
0010
1000
0001
,
M000
0000
0010
0000
0100
0000
000M
0000
1000
0000
0M00
0002
0000
0000
M013
0000
,
0100
1000
0001
0100
0010
0100
0001
1000
,
0100
0010
0100
1000
0001
0100
0010
0100
,
0001
1000
0001
0010
0100
0010
0001
1000
,
0010
0100
0010
1000
0001
0010
0001
2002
,
0000
0000
0000
0000
3003
1000
0010
0100
,
0002
2003
3020
0230
,
0301
0000
1000
0000
0100
0000
0010
0000
0100
0000
1000
0000
00M2
0000
0000
0103
,
0000
M010
0100
0001
1000
0100
0010
0001
,
0020
0230
1300
M002
,
2003
0000
3010
0200
,
0301
0100
0010
1000
0001
0010
0002
0000
,
1003
0010
1000
0001
0010
0100
2000
0000
,
3010
0100
0010
1000
0001
0010
0200
0000
,
0310
0001
1000
0010
0100
0001
2000
0000
,
3100
0010
0001
1000
0010
0100
0002
0000
,
1003
0010
1000
0001
0010
0001
2000
0000
,
3010
0100
0001
1000
0100
0010
0002
0000
,
0013
0100
1000
0001
0040
0000
0000
0000
,
0031
1000
0010
0100
0010
1000
0001
0010
,
0100
1000
0100
0010
0001
1000
0100
0010
,
0100
1000
0001
0100
0010
0100
0001
1000
,
0100
0010
000M
0100
1000
0001
0200
03M0
,
M010
0000
000M
2000
0000
0000
3001
0000
0010
0000
000M
0200
M000
0000
0310
0000
,
0001
1000
0010
1000
0001
0010
0100
0000
,
M010
0000
0000
0000
0M01
0000
0000
M010
0000
0000
0100
0000
1000
0000
0000
0000
,
0001
0100
0010
1000
2002
0000
3003
0001
,
0010
0000
0100
0000
0010
0000
0001
0000
1000
0000
000M
1000
0000
0000
0010
0000
,
1000
0000
0001
0000
0100
0000
0010
0000
0100
0000
000M
0100
0000
0000
M001
0000
,
0000
0001
0000
0000
1000
0000
000M
1000
0000
0000
0010
0000
0M10
0000
0000
0000
,
1000
0001
0010
0100
0010
0100
1000
000M
,
M100
0010
0M10
0001
00M1
1000
100M
0100
,
01M0
1000
1M00
0001
M001
0100
0010
1000
,
0001
M000
0200
0000
0320
0000
2030
0000
,
3001
0010
0001
1000
0010
0100
0002
0000
,
1003
0100
0010
0001
0010
0100
2000
00M0
,
3001
0100
0010
1000
0010
0100
0002
00M0
,
1003
0100
0010
0100
1000
0001
2000
0M00
,
3001
0100
0010
0100
0001
1000
0001
0010
,
0001
1000
0010
1000
0001
0010
0200
M000
,
0310
0001
1000
0001
0010
0100
2000
00M0
,
3001
0100
0010
1000
0001
0010
0200
1300
,
00M1
1M00
M010
010M
,
0004
0400
0000
0000
0000
0000
0000
0000
0000
0000
0000
0000
0303
0000
0000
0000
,
0400
0040
0000
0000
0000
0000
0000
0000
0000
0000
0000
0000
0330
0000
0000
0000
,
0040
4000
0000
0000
0000
0000
0000
0000
3030
0000
1000
0000
0001
0000
0010
0000
,
010M
01M0
M100
01M0
,
0010
0001
1000
0010
0100
0001
2000
0000
,
3010
0100
0001
0100
0010
1000
0002
0000
,
0013
0100
1000
0100
0010
0001
2000
0000
,
3001
0010
0100
0010
0001
1000
0020
0000
,
0130
0010
1000
0001
0010
0100
2000
0000
,
3001
0100
0010
1000
0010
0100
0002
0000
,
1003
0100
0010
0100
1000
0001
0200
0000
,
0301
1000
0010
1000
0004
0000
0000
0000
,
1003
0100
0010
0100
1000
0001
0010
0100
,
00M0
1000
0001
0100
0010
0100
0001
1000
,
0010
0000
M000
0200
00M0
0000
0301
0000
1000
0000
0100
0000
0010
0000
0100
0000
,
1000
0001
0100
0010
1000
0010
0100
0001
,
1000
0000
000M
0020
M000
0000
0130
0000
0001
0000
1000
0000
0010
0000
0100
0000
,
M000
0000
0001
0000
1000
0000
00M0
0000
0100
0000
000M
2000
0M00
0000
3001
0000
,
0100
0000
0001
0000
1000
0000
0100
0000
0010
0000
0000
0002
0M00
0000
M013
0000
,
0100
1000
0001
0100
0001
1000
0100
0010
,
M001
0MM0
1000
0002
0000
0103
0010
1000
,
0001
0010
0100
1000
0001
0100
0001
2002
,
0000
0000
0000
0000
3003
1000
0010
0100
,
0002
2003
3020
0230
,
0301
0000
1000
0000
0100
0000
0010
0000
0100
0000
1000
0000
00M2
0000
0000
0103
,
0000
0010
0100
0001
1000
0100
0010
0100
,
2000
3002
0203
0302
,
2003
3200
0320
0230
,
0310
0001
1000
0010
0100
0001
0100
0010
,
1000
0001
0010
0100
1000
0100
0010
0001
,
1000
0010
1000
0001
0010
0001
1000
0100
,
0010
0002
0003
1M00
0010
0100
0001
M000
,
0100
0000
M000
0020
000M
0000
1030
0000
0M01
0000
0000
02M0
0000
0000
0301
0000
,
1000
0100
0010
0100
1000
0001
0100
0000
,
001M
0000
0000
0000
10M0
0000
0000
001M
0000
0000
0100
0000
0001
0000
0M00
0000
,
1000
0100
0010
0001
2002
0000
3003
1000
,
0010
0000
1000
0000
0001
0000
0010
0000
0100
0000
000M
0100
M000
0000
0010
0000
,
0001
0000
1000
0000
0010
0000
0100
0000
0001
0000
M000
0001
00M0
0000
1000
0000
,
000M
1000
0000
0000
0010
0000
M000
0010
0000
0000
0100
0000
000M
0100
0000
0000
,
0001
1000
0100
1000
0001
1000
0100
00M0
,
1000
0001
0M01
0010
M010
0001
0M01
1000
,
100M
0100
M100
0010
0M10
0001
1000
0010
,
0200
0302
2003
3200
,
0320
0230
2300
3002
,
0M03
0M00
1000
0010
0100
0001
0100
0010
,
2000
0M00
3001
0010
0100
1000
0100
0010
,
0002
M000
0013
0100
1000
0001
1000
0100
,
0020
000M
0130
1000
0001
0100
0001
1000
,
0010
0100
0001
1000
0100
0010
0100
1000
,
0002
0M00
1003
0010
0100
0010
1000
0001
,
0020
000M
0130
1000
0100
0010
0001
1000
,
0002
0013
M100
0000
100M
0000
0M01
0000
,
001M
0000
0100
1000
0001
0100
0001
1000
,
0200
00M0
1300
0001
0100
0010
0100
0001
,
2000
0M00
3001
0100
0010
1000
0001
0010
,
0200
000M
1300
0100
0010
0001
1000
0010
,
0100
0001
1000
0100
0010
0100
1000
0001
,
0200
00M0
0301
1000
0010
0100
0001
1000
,
0002
00M0
1003
0100
0010
0100
1000
0001
,
0200
0310
1000
0000
0M01
0000
M010
0000
,
00M1
0000
1MM1
0000
0000
M00M
0000
0000
;

//---------------dance-single - Ace Of Hearts (2012)----------------
#NOTES:
     dance-single:
     Ace Of Hearts (2012):
     Hard:
     10:
     0.914,0.000,0.027,0.809,0.809:
0000
0000
0000
0000
,
0000
0000
0000
0000
,
0000
0000
0000
0000
,
M000
0000
MM00
0000
,
M00M
0000
0000
0000
,
0000
0000
0000
0000
1000
0010
4000
0000
,
3001
0000
1000
0000
0001
0010
0001
0010
0001
0000
1000
0000
0200
0000
0000
0000
,
0310
0000
0100
0000
1000
0100
1000
0100
1000
0000
0001
0000
0020
0000
0000
0000
,
0031
0000
1000
0000
0010
0100
0010
0100
0010
0000
1000
0000
0002
0000
0000
0000
,
1003
0000
0010
0000
0100
0001
0100
0001
0100
0000
0010
0000
2000
0000
0000
0000
,
3001
0000
0010
0000
0001
1000
0001
1000
0001
0000
0010
0000
0200
0000
0000
0000
,
0310
0000
0001
0000
1000
0010
1000
0010
1000
0000
0001
0000
0020
0000
0000
0000
,
0130
0000
1000
0000
0001
0100
0001
0100
0001
0000
1000
0000
0200
0000
0000
0000
,
0310
0000
0001
0000
4000
0400
0000
0000
0000
0000
0000
0000
0000
0000
3300
0000
,
0100
0000
0010
0001
0010
0000
0100
0000
1000
0001
1000
0000
0010
0000
0100
0000
,
M000
0000
0001
0100
0001
0000
1000
0000
0100
0010
0100
0000
1000
0000
0001
0000
,
0100
0000
0001
1000
0M00
1000
0010
0000
0100
0000
0001
1000
00M0
1000
0100
0000
,
0010
0000
0100
1000
0100
0000
0010
0001
0010
0001
0010
0000
0100
1000
0100
1000
,
0100
0000
0010
0002
0000
0000
1003
0010
1000
0000
0001
0000
1000
0100
1000
0000
,
00M0
0000
0001
0000
1000
0020
0M00
0000
013M
0000
M000
0002
00M0
0000
1003
0000
,
0010
0000
0100
0001
00M0
0001
1000
0000
0100
0000
0010
0100
000M
0100
2000
0000
,
3001
0000
0100
0000
0010
0100
0010
0100
0010
0000
1000
0000
0001
0010
0002
0000
,
1M03
0000
0010
0000
0100
0000
0001
0000
1000
0100
1000
0000
0001
0010
0001
0000
,
1000
0010
1000
0000
0001
0000
0010
0000
0100
0000
1000
0001
1000
0002
2000
0000
,
0000
0000
0000
0000
0000
0000
0003
0000
0000
3100
0010
0000
0100
0000
1000
0000
,
0002
0203
0320
2030
,
3001
0000
0010
0100
0020
0000
M031
0010
0001
0000
1000
0010
1000
0020
0000
0130
,
000M
0000
00M1
1000
0001
0000
0010
0001
0010
0000
010M
0000
10M0
0000
0M01
0000
,
M200
0000
0000
0000
0302
0000
0000
0000
0023
0000
0000
000M
0230
0000
0000
0000
,
2300
0000
0000
0000
3010
0M0M
0200
0000
,
0301
0000
1000
0000
0001
0010
0100
0010
0001
0000
1000
0000
0020
0000
0000
0000
,
1030
0000
0001
0000
1000
0100
0010
0100
1000
0000
0001
0000
0200
0000
0000
0000
,
0310
0000
1000
0000
0001
0100
0010
0100
0001
0000
1000
0000
0200
0000
0000
0000
,
0310
0000
0001
0000
1000
0010
0100
0010
1000
0000
0001
0000
0020
0000
0000
0000
,
0130
0000
1000
0000
0100
0010
0001
0010
0100
0000
1000
0000
0200
0000
0000
0000
,
1300
0000
0001
0000
0100
0010
1000
0010
0100
0000
0001
0000
2000
0000
0000
0000
,
3001
0000
0010
0000
0100
0010
0001
0010
0100
0000
1000
0000
0002
0000
0000
0000
,
1003
0000
0010
0000
0400
0004
0000
0000
0000
0000
0000
0000
0000
0000
0303
0000
,
0001
0000
1000
0100
0010
0001
0010
0100
2000
0M00
3001
0010
0002
0000
10M3
0100
,
2000
0000
3M01
0010
0002
0000
1M03
0010
1000
0010
1000
0000
0001
0000
0010
0100
,
0010
0000
0001
0010
0001
0010
0001
0000
2M00
0000
3010
0100
0020
0000
M130
0001
,
0100
0000
0002
0000
00M0
2003
0000
3100
0010
0000
010M
0000
2000
0000
3000
0000
,
0001
0100
0001
0200
M000
0000
0310
1000
0010
0000
0010
2000
0000
3002
0M00
0013
,
0100
0010
0100
0000
10M0
0100
100M
0200
0000
0310
0001
0000
10M0
0000
0M00
0000
,
00M1
0200
0000
0301
20M0
0000
3001
0200
00M0
0301
2000
0000
30M1
0100
0000
0001
,
10M0
0000
1000
0001
0100
0001
1000
0000
2002
0000
0000
0000
3000
0000
0013
0100
,
0010
0000
0001
0010
0001
0000
1000
0010
1000
0020
000M
0130
0000
0000
0001
0100
,
0001
0000
1000
0100
1000
0000
0001
0010
0001
0020
M000
0130
0000
0000
1000
0002
,
0000
0103
0000
0000
0010
0100
M01M
0100
0000
0000
0001
1000
0MM1
1000
0000
0000
,
0001
0000
0010
0100
0010
0100
0010
0000
0001
1000
0002
0000
0013
0000
0000
0000
,
0200
0000
1300
0100
2000
0000
3001
0010
0001
0000
1000
010M
1000
0000
0001
M100
,
0001
0000
1000
0M01
1000
0000
0010
1000
0010
1000
0010
0000
0100
0000
0001
0000
,
2000
3020
0230
0302
,
0013
0100
1000
0100
0010
0001
0020
0000
,
0031
0000
1000
0010
1000
0010
1000
0000
0001
0000
0010
0000
0200
0000
M000
0000
,
0310
0000
0001
1000
0001
1000
0001
0000
0100
0000
0010
0000
2000
0000
000M
0000
,
3010
0000
0100
0001
0100
0001
0100
0000
0010
0000
1000
0000
0002
0000
0M00
0000
,
0013
0000
0100
1000
0100
1000
0100
0000
0010
0000
0001
0000
1000
0000
0100
0000
,
1000
0000
0001
0100
0001
0100
0001
0000
1000
0000
0100
0000
0020
0000
000M
0000
,
0130
0000
1000
0001
1000
0001
1000
0000
0010
0000
0100
0000
0002
0000
0M00
0000
,
1003
0000
0100
0010
0100
0010
0100
0000
1000
0000
0001
0000
0200
0000
0310
0000
,
100M
0M01
010M
0M10
,
1M0M
0010
1000
0010
0100
0010
1000
0010
4000
0000
0000
0000
0000
0000
0000
0000
,
3001
0010
0001
0010
0100
0010
0001
0010
0001
0000
1000
0000
0040
0000
0000
0000
,
0130
0001
0100
0001
1000
0001
0100
0001
0200
0000
0301
1000
0001
0000
2000
0000
,
31M0
010M
01M0
M11M
,
0010
0000
0001
0000
1000
0001
0010
0001
1000
0000
0010
0000
0200
0000
0000
0000
,
0301
0000
0100
0000
0001
1000
0100
1000
0001
0000
1000
0000
0020
0000
0000
0000
,
0130
0000
0010
0000
1000
0010
0100
0010
1000
0000
0001
0000
2000
0000
0000
0000
,
3010
0000
0100
0000
0001
0100
0010
0100
0001
0000
1000
0000
0200
0000
0000
0000
,
0310
0000
0100
0000
1000
0001
0100
0001
1000
0000
0100
0000
0020
0000
0000
0000
,
0130
0000
1000
0000
0001
0010
0100
0010
0001
0000
1000
0000
0020
0000
0000
0000
,
0130
0000
0010
0000
1000
0001
0010
0001
1000
0000
0010
0000
0200
0000
0000
0000
,
0301
0000
1000
0000
0400
0040
0000
0000
0000
0000
0000
0000
0000
0000
0330
0000
,
0010
0001
0010
0001
0010
0000
0100
1000
0100
0000
1000
0000
0001
0100
0001
0000
,
00M0
0000
1000
0010
1000
0010
1000
0000
0001
0010
0001
0000
2000
0000
3001
0000
,
10M0
0100
100M
0200
0000
0310
M001
0000
0M02
0000
1003
0010
0000
0010
010M
0000
,
M001
0100
0001
0100
0010
1000
0010
1000
0010
0000
0100
0001
0100
0010
0100
0001
,
0100
0000
0001
1000
0000
1000
0100
0010
0001
0010
0100
1000
0100
0010
0001
0000
,
0M00
0000
100M
0000
0100
0020
0000
0000
M130
0000
0000
2000
00M0
0000
3001
0000
,
1000
0010
1000
0010
0000
0010
0100
0000
0100
0002
00M0
2M03
0000
3100
0010
0000
,
0010
0001
0010
0001
0010
0000
0100
0000
1000
0100
1000
0100
1000
0000
0001
0000
,
0100
0000
0MM0
0000
0010
0000
2000
0000
0000
3001
0010
0000
0100
1000
0100
0000
,
0010
0000
0001
1000
0001
0000
0100
0000
0010
0000
1000
0001
1000
0000
2002
0000
,
0000
0000
0000
0000
3000
0103
0010
1000
,
0002
0203
0320
2030
,
3M02
0000
0013
0100
M020
0000
0031
1000
0M02
0000
1003
0010
1000
0020
000M
0130
,
0000
0000
0001
0100
0001
0000
1000
0100
10M0
0000
0M01
0000
M100
0000
001M
0000
,
2000
3002
0203
0302
,
0023
0230
2300
3002
,
M203
0000
0310
1000
0010
1000
0010
0000
M200
0000
0301
1000
00M2
0000
1003
0100
,
200M
0000
3100
0010
M200
0000
0310
0001
0010
0001
0M10
0000
0200
0000
1300
0001
,
10M0
0000
0001
0100
0001
0100
0001
0000
2M00
0000
3100
0010
020M
0000
0310
0001
,
M020
0000
0130
0000
000M
0000
10M0
0100
0010
0100
2000
0000
30M1
0000
0M00
0000
,
1000
0010
1000
0020
M000
0130
0001
0100
00M2
0000
1003
0200
000M
0310
0000
0001
,
0100
0001
0100
0000
0010
1000
0010
0000
0100
0001
0200
0000
0301
0000
00M0
0000
,
1M00
0020
0000
1030
0M02
0000
1003
0020
0M00
1030
0002
0000
1M03
0020
0000
1030
,
0M01
0000
0001
1000
0100
1000
0001
0000
2002
0000
0000
0000
0003
0000
3100
0010
,
0100
0000
2000
0000
3001
0100
0002
0000
10M3
0200
000M
0310
0000
0000
0001
0010
,
0001
0000
1000
0100
1000
0000
0001
0000
1M00
0020
0000
013M
0000
0000
0001
2000
,
0000
3100
0000
0000
100M
0100
0010
M001
0M00
M000
0001
0010
0100
100M
0000
0000
,
0001
0000
1000
0100
1000
0000
0001
0010
0001
0010
0001
0000
1M00
0000
000M
0000
,
0020
0000
1030
0001
2000
0000
3001
0010
0M01
0000
1000
0010
100M
0000
0001
0100
,
M001
0000
1000
0001
10M0
0000
0001
0010
M001
0010
0001
0000
1000
0000
0010
0000
,
0200
0320
2030
3200
,
0320
0032
2003
3020
,
0M30
0000
0M00
0000
1000
0000
0001
0010
0100
0010
0001
0000
1000
0000
0001
0000
,
0200
0000
00M0
0000
0301
0000
1000
0100
0010
0100
1000
0000
0001
0000
1000
0000
,
0020
0000
0000
0000
1030
0000
0001
0100
0010
0100
0001
0000
1000
0000
0100
0000
,
0020
0000
0M00
0000
0031
0000
1000
0010
0100
0010
1000
0000
0M01
0000
M010
0000
,
010M
0000
10M0
0000
0001
0000
0010
0100
1000
0100
0010
0000
0001
0000
1000
0000
,
0020
0000
0M00
0000
1030
0000
0001
0100
0010
0100
0001
0000
1000
0000
0001
0000
,
0200
0000
00M0
0000
0301
0000
1000
0001
0010
0001
1000
0000
0010
0000
0100
0000
,
0002
1003
0M10
0000
010M
0000
0M01
0000
,
100M
0000
0000
0000
0100
0000
0010
0000
0001
0010
0001
0010
0100
0000
1000
0000
,
0002
0000
0M00
0000
0013
0000
0100
0000
1000
0001
1000
0001
0100
0000
0010
0000
,
2000
0000
000M
0000
3010
0000
0100
0000
0001
0100
0001
0100
0010
0000
1000
0000
,
0002
0000
00M0
0000
1003
0000
0100
0000
1000
0001
1000
0001
01M0
0000
001M
0000
,
1M00
0000
00M1
0000
0010
0000
0100
0000
1000
0100
0010
0100
1000
0000
0001
0000
,
0200
0000
00M0
0000
0301
0000
1000
0000
0001
0100
0010
0100
0001
0000
1000
0000
,
0020
0000
0M00
0000
1030
0000
0001
0000
0010
0100
1000
0100
0010
0000
0001
0000
,
2000
3100
001M
0000
01M0
0000
1M00
0000
,
M001
MM11
00MM
0000
;

//---------------dance-single - Ace Of Hearts (2012)----------------
#NOTES:
     dance-single:
     Ace Of Hearts (2012):
     Easy:
     6:
     0.275,0.000,0.005,0.165,0.000:
0000
0000
0000
0000
,
0000
0000
0000
0000
,
0000
0000
0000
0000
,
0000
0000
0000
0000
,
0000
0000
0000
0000
,
0000
0000
0000
0000
,
0004
0000
0003
0000
,
4000
0000
3000
0000
,
0040
0000
0030
0000
,
0400
0000
0300
0000
,
0004
0000
0003
0000
,
4000
0000
3000
0000
,
0400
0000
0300
0000
,
4000
0000
3000
0000
,
0001
0001
0001
0001
,
M000
0100
0100
000M
,
0010
0010
0010
0010
,
1000
1000
1000
1000
,
0001
0001
0001
0001
,
M000
00M0
0200
0000
,
0301
0001
0001
0001
,
1000
1000
1000
1000
,
0100
0100
0100
0100
,
1000
1000
1000
2000
,
0000
0000
3000
1000
,
0001
0001
0001
0001
,
0010
0010
0010
0020
,
0030
0100
0100
0100
,
1000
1000
1000
1000
,
0002
0000
0003
0001
,
4000
0000
3000
0000
,
0040
0000
0030
0000
,
0400
0000
0300
0000
,
0004
0000
0003
0000
,
4000
0000
3000
0000
,
0400
0000
0300
0000
,
4000
0000
3000
0000
,
0004
0000
0003
0000
,
0100
0100
0100
0100
,
0001
0001
0001
0001
,
1000
1000
1000
1000
,
0010
000M
0100
0100
,
0001
0001
0001
0001
,
1000
1000
1000
1000
,
0100
0100
0100
0100
,
0010
0010
0020
0000
,
0031
0001
0001
0M00
,
1000
1000
1000
0M00
,
0010
0010
000M
0010
,
0100
0100
0100
M000
,
0001
0001
0001
0001
,
1000
1000
1000
1000
,
0010
0010
0010
0010
,
0100
0100
0100
0100
,
0001
0001
0002
0M03
,
1000
1000
2000
3M00
,
0010
0010
0020
M030
,
0100
0100
0200
0300
,
M001
0001
0002
00M3
,
1000
1000
2000
300M
,
0100
0100
0200
030M
,
1000
1000
0001
0001
,
0400
0000
0000
0300
,
0040
0000
0000
0030
,
4000
0000
3000
0000
,
0001
0001
0001
0001
,
0400
0000
0300
0000
,
0004
0000
0003
0000
,
4000
0000
3000
0000
,
0400
0000
0300
0000
,
0040
0000
0030
0000
,
0004
0000
0003
0000
,
4000
0000
3000
0000
,
0040
0000
0030
0000
,
0100
0100
0100
0100
,
M000
0001
0001
00M0
,
1000
1000
1000
1000
,
0100
0100
0100
0100
,
0010
0010
0010
0010
,
M000
000M
0200
0000
,
1300
1000
1000
1000
,
0001
0001
0001
0001
,
2000
0000
300M
0000
,
0100
0100
0100
0020
,
0000
0000
0030
0010
,
0001
0001
0001
0001
,
1000
1000
1000
2000
,
3000
0001
0001
0001
,
0010
0010
0010
0010
,
0100
0100
0100
0100
,
1000
1000
1000
1000
,
0001
0001
0001
0001
,
0100
0100
0100
0100
,
0010
000M
1000
1000
,
0001
0001
0001
0001
,
0010
0010
0010
0010
,
0100
0100
0100
0100
,
1000
1000
2000
0000
,
3001
0001
0001
0000
,
1000
1000
1000
000M
,
0100
0100
M000
0010
,
0001
0001
0001
0001
,
1000
1000
1000
1000
,
0100
0100
0100
0100
,
0010
0010
0010
0010
,
0001
0001
0001
0002
,
00M3
0100
0100
0200
,
M300
0010
0010
0020
,
003M
1000
1000
2000
,
30M0
0001
0001
0010
,
M010
0100
0100
0200
,
03M0
1000
1000
2000
,
3M00
0001
0001
0002
,
00M3
1000
1000
0001
,
0001
0010
0010
0020
,
003M
0100
0100
0200
,
03M0
1000
1000
2000
,
30M0
0001
0001
0002
,
00M3
0100
0100
0200
,
030M
0010
0010
0020
,
0M30
1000
1000
2000
,
3M00
0001
0001
0100
,
0100
0000
0110
0000
0000
M00M
0000
0000
;

//---------------dance-single - Ace Of Hearts (2012)----------------
#NOTES:
     dance-single:
     Ace Of Hearts (2012):
     Beginner:
     2:
     0.169,0.000,0.005,0.218,0.000: // measure 1
0000
0000
0000
0000
,  // measure 2
0000
0000
0000
0000
,  // measure 3
0000
0000
0000
0000
,  // measure 4
0000
0000
0000
0000
,  // measure 5
0000
0000
0000
0000
,  // measure 6
0000
0000
0000
0000
,  // measure 7
2000
0000
3000
0000
,  // measure 8
2000
0000
3000
0000
,  // measure 9
0002
0000
0003
0000
,  // measure 10
0002
0000
0003
0000
,  // measure 11
0200
0000
0300
0000
,  // measure 12
0200
0000
0300
0000
,  // measure 13
0020
0000
0030
0000
,  // measure 14
0020
0000
0030
0000
,  // measure 15
1000
0000
1000
0000
,  // measure 16
2000
0000
3000
0000
,  // measure 17
0001
0000
0001
0000
,  // measure 18
0004
0000
0000
0000
,  // measure 19
0000
0000
0003
0000
,  // measure 20
2000
0000
3000
0000
,  // measure 21
0010
0000
0010
0000
,  // measure 22
0010
0000
0010
0000
,  // measure 23
0100
0000
0100
0000
,  // measure 24
0100
0000
0100
0000
,  // measure 25
0200
0000
0300
0000
,  // measure 26
0002
0000
0003
0000
,  // measure 27
1000
0000
1000
0000
,  // measure 28
2000
0000
3000
0000
,  // measure 29
0001
0000
0001
0000
,  // measure 30
0002
0000
0003
0000
,  // measure 31
0020
0000
0030
0000
,  // measure 32
0020
0000
0030
0000
,  // measure 33
0200
0000
0300
0000
,  // measure 34
0200
0000
0300
0000
,  // measure 35
2000
0000
3000
0000
,  // measure 36
2000
0000
3000
0000
,  // measure 37
0002
0000
0003
0000
,  // measure 38
0002
0000
0003
0000
,  // measure 39
1000
0000
1000
0000
,  // measure 40
1000
0000
1000
0000
,  // measure 41
0010
0000
0010
0000
,  // measure 42
0010
0000
0010
0000
,  // measure 43
0400
0000
0000
0000
,  // measure 44
0000
0000
0300
0000
,  // measure 45
0001
0000
0001
0000
,  // measure 46
0001
0000
0002
0000
,  // measure 47
0003
0000
0000
0000
,  // measure 48
1000
0000
1000
0000
,  // measure 49
0020
0000
0030
0000
,  // measure 50
1000
0000
1000
0000
,  // measure 51
0001
0000
0001
0000
,  // measure 52
0001
0000
0001
0000
,  // measure 53
0010
0000
0010
0000
,  // measure 54
0020
0000
0030
0000
,  // measure 55
0100
0000
0100
0000
,  // measure 56
1000
0000
1000
0000
,  // measure 57
0001
0000
0001
0000
,  // measure 58
1000
0000
1000
0000
,  // measure 59
0010
0000
0010
0000
,  // measure 60
0100
0000
0100
0000
,  // measure 61
0001
0000
0001
0000
,  // measure 62
2000
0000
3000
0000
,  // measure 63
0004
0000
0003
0000
,  // measure 64
0040
0000
0030
0000
,  // measure 65
0004
0000
0003
0000
,  // measure 66
2000
0000
3000
0000
,  // measure 67
0020
0000
0030
0000
,  // measure 68
0020
0000
0030
0000
,  // measure 69
0200
0000
0300
0000
,  // measure 70
0200
0000
0300
0000
,  // measure 71
0002
0000
0003
0000
,  // measure 72
0002
0000
0003
0000
,  // measure 73
2000
0000
3000
0000
,  // measure 74
2000
0000
3000
0000
,  // measure 75
0001
0000
0001
0000
,  // measure 76
0000
0000
0010
0000
,  // measure 77
0010
0000
0010
0000
,  // measure 78
0100
0000
0100
0000
,  // measure 79
1000
0000
1000
0000
,  // measure 80
0000
0000
0001
0000
,  // measure 81
0001
0000
0001
0000
,  // measure 82
1000
0000
1000
0000
,  // measure 83
2000
0000
3000
0000
,  // measure 84
0010
0000
0010
0000
,  // measure 85
0020
0000
0030
0000
,  // measure 86
0100
0000
0100
0000
,  // measure 87
0001
0000
0001
0000
,  // measure 88
0001
0000
0001
0000
,  // measure 89
1000
0000
1000
0000
,  // measure 90
1000
0000
1000
0000
,  // measure 91
0100
0000
0100
0000
,  // measure 92
0100
0000
0100
0000
,  // measure 93
1000
0000
1000
0000
,  // measure 94
1000
0000
1000
0000
,  // measure 95
0001
0000
0001
0000
,  // measure 96
0001
0000
0001
0000
,  // measure 97
0100
0000
0100
0000
,  // measure 98
0100
0000
0200
0000
,  // measure 99
0300
0000
0010
0000
,  // measure 100
0010
0000
0010
0000
,  // measure 101
1000
0000
1000
0000
,  // measure 102
1000
0000
1000
0000
,  // measure 103
0001
0000
0001
0000
,  // measure 104
0001
0000
0001
0000
,  // measure 105
0010
0000
0010
0000
,  // measure 106
0020
0000
0000
0030
,  // measure 107
0000
0100
0000
0100
,  // measure 108
0000
1000
0000
1000
,  // measure 109
0000
0001
0000
0001
,  // measure 110
0000
0100
0000
0100
,  // measure 111
0000
0001
0000
0001
,  // measure 112
0000
1000
0000
1000
,  // measure 113
0000
0010
0000
0010
,  // measure 114
0000
0020
0000
0030
,  // measure 115
0000
1000
0000
1000
,  // measure 116
0000
0001
0000
0001
,  // measure 117
0000
0010
0000
0010
,  // measure 118
0000
0100
0000
0100
,  // measure 119
0000
1000
0000
1000
,  // measure 120
0000
0001
0000
0001
,  // measure 121
0000
0100
0000
0100
,  // measure 122
0000
0002
0000
0003
,  // measure 123
0000
1001
0000
0000
;
