#TITLE:To the Beginning;
#SUBTITLE:;
#ARTIST:Kalafina;
#TITLETRANSLIT:;
#SUBTITLETRANSLIT:;
#ARTISTTRANSLIT:;
#GENRE:J-Hymn;
#CREDIT:Ace Of Hearts;
#BANNER:To the Beginning - bn.png;
#BACKGROUND:To the Beginning - bg.png;
#LYRICSPATH:;
#CDTITLE:Ace Of Hearts.png;
#MUSIC:To the Beginning.ogg;
#OFFSET:2.625;
#SAMPLESTART:56.300;
#SAMPLELENGTH:12.000;
#SELECTABLE:YES;
#BPMS:0.000=76.600,12.000=153.200,80.000=76.300,104.000=153.200;
#STOPS:;
#BGCHANGES:3.000=Fate Zero Season 2 OP.avi=1.000=1=0=1===CrossFade==,
99999=-nosongbg-=1.000=0=0=0 // don't automatically add -songbackground-
;
#KEYSOUNDS:;

//---------------dance-single - Hard----------------
#NOTES:
     dance-single:
     Ace Of Hearts (2012):
     Hard:
     7:
     0.492,0.270,0.000,1.000,0.067: // measure 1
0000
0000
0000
0000
,  // measure 2
0002
0000
0000
0203
0000
0000
0320
0000
1030
0000
0001
0000
0010
0000
0001
0000
,  // measure 3
2000
0000
0000
3200
0000
0000
0320
0000
0002
0000
0000
0000
0030
0000
0000
0000
,  // measure 4
4003
0000
0000
0000
,  // measure 5
3001
0100
0001
1000
0000
0010
0000
0200
,  // measure 6
0000
0301
0100
0004
0000
0000
0003
1000
,  // measure 7
0100
1000
0001
0100
0000
0010
0000
2000
,  // measure 8
0000
3001
0100
0002
0000
1003
0020
0000
,  // measure 9
1030
0001
1000
0010
0000
0100
0000
0002
,  // measure 10
0000
1003
0010
4000
0000
0000
3000
0000
,  // measure 11
0001
0100
0001
1000
0000
0100
0000
0020
,  // measure 12
0000
0031
1000
0200
0000
0000
0300
0000
,  // measure 13
2000
0000
3001
0200
0000
0000
0302
0000
,  // measure 14
2003
0000
3010
0200
0000
0300
0001
1000
,  // measure 15
0002
0000
0003
1000
0200
0000
0310
0002
,  // measure 16
0000
1003
0040
0000
0000
0000
0030
0000
,  // measure 17
2000
0000
3001
0020
0000
0000
0230
0000
,  // measure 18
2300
0000
3001
0400
0000
0000
0301
1000
,  // measure 19
0002
0000
0003
1000
0020
0000
0130
0002
,  // measure 20
0000
1003
0200
0000
0000
0000
0310
0001
,  // measure 21
0020
0000
0130
4000
0000
0000
3100
0000
0020
0000
0031
4000
0000
0000
3000
0000
,  // measure 22
0002
0000
1003
0200
0000
0000
0310
0000
0002
0000
1003
0400
0000
0000
0300
0000
,  // measure 23
2000
0000
3001
0400
0000
0000
0310
0000
2000
0000
3002
0000
0023
0000
0230
0000
,  // measure 24
2300
0000
3001
0010
0004
0000
0003
0000
2000
0000
3020
0000
0230
0000
0302
0000
,  // measure 25
2003
0000
3010
0200
0000
0000
0301
0000
2000
0000
3001
0040
0000
0000
0030
0000
,  // measure 26
0002
0000
1003
0020
0000
0000
1030
0000
0020
0000
0130
0004
0000
0000
0003
0000
,  // measure 27
1000
0100
1000
0002
0000
1003
0000
0002
,  // measure 28
0000
1003
0010
2000
0000
3001
0040
0000
,  // measure 29
0430
0000
0000
0000
2300
0000
0000
3004
,  // measure 30
0000
2003
3010
0200
,  // measure 31
0302
0000
2003
0000
3020
0000
0000
0230
,  // measure 32
0000
0302
4003
3002
,  // measure 33
0023
0000
0230
0000
2300
0000
0000
3002
,  // measure 34
0000
0000
1003
0010
2000
0000
3001
0000
,  // measure 35
0020
0230
2300
0000
,  // measure 36
3004
0000
0000
1003
0020
0000
0230
0000
,  // measure 37
0302
0000
2003
0000
3400
0000
0300
0020
,  // measure 38
0000
0230
2300
3002
,  // measure 39
2003
0000
3200
0000
0320
0000
0000
0032
,  // measure 40
0000
2003
3020
0030
,  // measure 41
0200
0000
0302
0000
2003
0000
0000
3004
,  // measure 42
0000
0203
0320
0030
,  // measure 43
2000
0000
3002
0000
0023
0000
0000
0130
,  // measure 44
2000
3000
0002
0023
,  // measure 45
0230
0000
2300
0000
3004
0000
0003
1000
,  // measure 46
0400
0000
0300
0000
0020
0000
0000
0130
,  // measure 47
2000
0000
3002
0000
0013
0100
0010
0001
,  // measure 48
0000
1000
0040
0000
0000
0000
0000
0000
,  // measure 49
0000
0000
0000
0000
0000
0030
0000
0000
;

//---------------dance-single - Expert----------------
#NOTES:
     dance-single:
     Ace Of Hearts (2012):
     Challenge:
     9:
     0.726,0.351,0.111,0.756,0.367: // measure 1
0000
0000
0000
0000
,  // measure 2
400M
0000
0000
3020
0000
0000
0230
0300
M101
0000
0002
0000
2003
0000
3200
0000
,  // measure 3
032M
0000
0000
0230
0000
0000
2300
0000
00M2
0000
0000
0000
0M00
0000
0000
3003
,  // measure 4
0201
0000
0310
2000
0000
3001
0010
0001
1000
0001
1000
0010
1000
0010
0100
0001
,  // measure 5
2000
3100
0001
0100
0000
0M1M
0000
0400
,  // measure 6
0000
0310
0100
4000
0000
0000
3000
0001
,  // measure 7
0100
1000
0100
0001
0000
4MM0
0000
3002
,  // measure 8
0000
0013
0100
4000
0000
3001
0020
0030
,  // measure 9
0100
0100
1000
0001
0000
M1M0
0000
0040
,  // measure 10
0000
1030
0001
0400
0000
0000
0300
0000
,  // measure 11
0010
1000
0001
0010
0000
M1M0
0000
2000
,  // measure 12
0000
0000
3001
0010
0001
0010
0100
0010
0100
1000
0100
1000
0001
0000
1000
0000
,  // measure 13
0200
0310
0002
2003
0000
3010
0100
0001
,  // measure 14
2000
3100
0010
0200
0000
1300
0001
0100
,  // measure 15
0020
0000
1030
0001
1000
0000
0100
0000
0020
0000
0031
0000
0010
0000
0200
0000
,  // measure 16
0310
0001
2000
3010
0100
0001
1000
0001
,  // measure 17
0020
0000
0130
0000
1000
0000
0002
0000
0103
0000
0010
0100
0010
0100
0010
0000
,  // measure 18
2000
0000
3001
0000
0010
0000
0100
1000
0100
1000
0100
0000
0010
0000
0001
0000
,  // measure 19
2000
0000
3001
0000
0010
0000
0001
1000
0001
1000
0001
0000
0100
0000
0120
0000
,  // measure 20
0000
0000
1030
0000
0001
0000
1000
0100
1000
0000
0001
0000
0100
0000
0010
0000
,  // measure 21
2M00
0000
3001
0010
010M
0000
0010
0001
M010
0100
1000
0001
10M0
0100
1000
0000
,  // measure 22
0M01
0010
0001
1000
01M0
1000
0001
0000
M100
0010
0100
0001
1000
0001
0010
0000
,  // measure 23
M100
0010
0001
0010
0100
1000
0001
0000
0M10
0001
0010
0100
1000
0001
0100
0000
,  // measure 24
M010
0100
0001
0100
0010
1000
0001
0000
2M00
0000
32M0
0000
032M
0000
M032
0000
,  // measure 25
1M03
0010
0100
0010
1M00
0001
1000
0000
001M
0100
0010
1000
001M
0100
0010
0000
,  // measure 26
M100
0001
0100
0010
100M
0010
0100
0000
M001
0100
0010
0100
00M1
1000
0001
1000
,  // measure 27
1100
0100
0010
0012
0000
1003
0010
0210
,  // measure 28
0000
0000
0301
0000
1000
0000
1020
0000
0000
0000
0130
0000
0001
0000
1000
0100
,  // measure 29
1000
0001
1000
0001
0010
0001
0010
0100
2000
0000
3001
0000
0100
0000
0020
0000
,  // measure 30
0000
0130
0001
1000
0400
0000
0310
0001
,  // measure 31
1000
0010
0100
0001
20M0
3100
0010
0M02
,  // measure 32
1003
0010
M200
0301
40M0
0000
3100
0010
,  // measure 33
0100
1000
0001
0100
M020
0130
0001
20M0
,  // measure 34
3100
0000
0010
0000
M002
0000
1003
0000
0M40
0000
0000
0000
0130
0000
0001
1000
,  // measure 35
0001
1000
0001
0000
0010
0000
0001
0000
2M00
0000
3010
0000
0100
0000
0001
0000
,  // measure 36
04M0
0000
0301
1000
02M0
0000
0320
0000
,  // measure 37
203M
0000
3M20
0000
0034
0000
1003
0020
,  // measure 38
0000
0000
1030
0100
0010
0100
1000
0001
,  // measure 39
0100
0010
0100
0001
20M0
3100
0010
0M02
,  // measure 40
1003
0010
020M
0301
20M0
3001
0010
0100
,  // measure 41
0010
0001
1000
0001
02M0
0000
0000
034M
,  // measure 42
0000
M032
0M23
2030
,  // measure 43
3001
0000
0010
0100
0010
0100
0010
0000
0002
0000
1003
0000
0010
0000
0100
0000
,  // measure 44
0020
0000
1030
0001
1000
0001
1000
0000
0020
0000
0130
0000
0002
0000
1003
0000
,  // measure 45
0200
0310
0002
1003
0M40
0000
0130
0001
,  // measure 46
40M0
0000
3010
0100
M002
0000
0013
0100
,  // measure 47
20M0
3001
0100
0010
1M10
100M
00M1
0101
,  // measure 48
00M0
1M00
2040
0000
0000
0000
0000
0000
,  // measure 49
0000
0000
0000
0000
0000
3030
0000
0000
;

//---------------dance-single - Medium----------------
#NOTES:
     dance-single:
     Ace Of Hearts (2012):
     Medium:
     5:
     0.276,0.081,0.000,0.378,0.000: // measure 1
0000
0000
0000
0000
,  // measure 2
1000
1000
1000
0000
,  // measure 3
0010
0010
0020
0000
,  // measure 4
2030
0000
3000
0000
,  // measure 5
0001
0001
0001
0000
,  // measure 6
0100
0100
0100
0000
,  // measure 7
0010
0010
0010
0000
,  // measure 8
2000
0000
3000
0000
,  // measure 9
0002
0003
0001
0000
,  // measure 10
0010
0010
0010
0000
,  // measure 11
0100
0100
0100
0000
,  // measure 12
2000
0000
3000
0000
,  // measure 13
0001
0001
0001
0000
,  // measure 14
0100
0100
0100
0010
,  // measure 15
0010
0000
1000
1000
,  // measure 16
2000
0000
0000
3000
,  // measure 17
0001
0001
0001
0100
,  // measure 18
0100
0100
0100
0010
,  // measure 19
0010
0000
1000
0000
,  // measure 20
0001
0002
0000
0003
,  // measure 21
1000
1000
1000
0000
2000
0000
3000
0000
,  // measure 22
0001
0001
0001
0000
0002
0000
0003
0000
,  // measure 23
0100
0100
0100
0000
0010
0010
0010
0000
,  // measure 24
0200
0000
0300
0000
0001
0001
0010
0010
,  // measure 25
0100
0100
0100
0000
0200
0000
0300
0000
,  // measure 26
1000
1000
0001
0001
0020
0000
0030
0000
,  // measure 27
0200
0000
2300
0000
,  // measure 28
3002
0000
0203
0000
,  // measure 29
0304
0000
2003
0000
,  // measure 30
3010
0010
0010
0100
,  // measure 31
0100
0100
0002
0000
,  // measure 32
1003
1000
2000
0000
,  // measure 33
3010
0010
0020
0000
,  // measure 34
0130
0100
0200
0000
,  // measure 35
0301
0001
0002
0000
,  // measure 36
2003
0000
3001
0001
,  // measure 37
0010
0010
0200
0000
,  // measure 38
1300
1000
0001
0001
,  // measure 39
0100
0100
0020
0000
,  // measure 40
1030
1000
2000
0000
,  // measure 41
3001
0001
0002
0000
,  // measure 42
0013
0010
0020
0000
,  // measure 43
0130
0100
0200
0000
,  // measure 44
2300
0000
3001
0001
,  // measure 45
1000
1000
0200
0000
,  // measure 46
2300
0000
3002
0000
,  // measure 47
2003
0000
3001
0001
,  // measure 48
0010
0040
0000
0000
,  // measure 49
0000
0000
0000
0000
0000
0030
0000
0000
;

//---------------dance-single - Easy----------------
#NOTES:
     dance-single:
     Ace Of Hearts (2012):
     Easy:
     3:
     0.143,0.054,0.011,0.167,0.000: // measure 1
0000
0000
0000
0000
,  // measure 2
0001
0000
0001
0000
,  // measure 3
0002
0000
0003
0000
,  // measure 4
4000
0000
3000
0000
,  // measure 5
0001
0000
0001
0000
,  // measure 6
0002
0000
0003
0000
,  // measure 7
1000
0000
1000
0000
,  // measure 8
2000
0000
3000
0000
,  // measure 9
0010
0000
0010
0000
,  // measure 10
0020
0000
0030
0000
,  // measure 11
0100
0000
0100
0000
,  // measure 12
0200
0000
0300
0000
,  // measure 13
0001
0000
0001
0000
,  // measure 14
0001
0000
0000
0000
,  // measure 15
1000
0000
1000
0000
,  // measure 16
1000
0000
0000
0000
,  // measure 17
0100
0000
0100
0000
,  // measure 18
0100
0000
0000
0000
,  // measure 19
1000
0000
1000
0000
,  // measure 20
1000
0000
0000
0000
,  // measure 21
0001
0001
0001
0000
,  // measure 22
0100
0100
0100
0000
,  // measure 23
0010
0010
0020
0000
,  // measure 24
0030
0000
2000
3000
,  // measure 25
0001
0001
0001
0000
,  // measure 26
0010
0010
0010
0000
,  // measure 27
0002
0000
0003
0000
,  // measure 28
2000
0000
3000
0000
,  // measure 29
0004
0000
0003
0000
,  // measure 30
0001
0000
0001
0000
,  // measure 31
0000
0000
0010
0000
,  // measure 32
0010
0000
0010
0000
,  // measure 33
0000
0000
0100
0000
,  // measure 34
0100
0000
0100
0000
,  // measure 35
0000
0000
2000
0000
,  // measure 36
3000
0000
0001
0000
,  // measure 37
0001
0000
0001
0000
,  // measure 38
0000
0000
0100
0000
,  // measure 39
0100
0000
0100
0000
,  // measure 40
0000
0000
0010
0000
,  // measure 41
0010
0000
0010
0000
,  // measure 42
0000
0000
1000
0000
,  // measure 43
1000
0000
2000
0000
,  // measure 44
3000
0000
0001
0000
,  // measure 45
0001
0000
0002
0000
,  // measure 46
0003
0000
0200
0000
,  // measure 47
0300
0000
0001
0000
,  // measure 48
0000
2002
0000
0000
,  // measure 49
0000
0000
0000
0000
0000
3003
0000
0000
;

//---------------dance-single - Novice----------------
#NOTES:
     dance-single:
     Ace Of Hearts (2012):
     Beginner:
     1:
     0.092,0.054,0.011,0.178,0.000: // measure 1
0000
0000
0000
0000
,  // measure 2
0002
0000
0003
0000
,  // measure 3
0020
0000
0000
0000
,  // measure 4
0030
0000
0000
0000
,  // measure 5
0001
0000
0000
0000
,  // measure 6
0001
0000
0000
0000
,  // measure 7
1000
0000
0000
0000
,  // measure 8
1000
0000
0000
0000
,  // measure 9
0010
0000
0000
0000
,  // measure 10
0010
0000
0000
0000
,  // measure 11
0100
0000
0000
0000
,  // measure 12
0100
0000
0000
0000
,  // measure 13
0001
0000
0000
0000
,  // measure 14
0001
0000
0000
0000
,  // measure 15
0002
0000
0000
0000
,  // measure 16
0003
0000
0000
0000
,  // measure 17
1000
0000
0000
0000
,  // measure 18
1000
0000
0000
0000
,  // measure 19
2000
0000
0000
0000
,  // measure 20
3000
0000
0000
0000
,  // measure 21
0020
0000
0030
0000
,  // measure 22
0200
0000
0300
0000
,  // measure 23
0001
0000
0001
0000
,  // measure 24
0001
0000
0001
0000
,  // measure 25
2000
0000
3000
0000
,  // measure 26
0002
0000
0003
0000
,  // measure 27
1000
0000
0000
0000
,  // measure 28
2000
0000
3000
0000
,  // measure 29
0000
0000
0001
0000
,  // measure 30
0000
0000
0001
0000
,  // measure 31
0000
0000
0002
0000
,  // measure 32
0000
0000
0003
0000
,  // measure 33
0000
0000
0020
0000
,  // measure 34
0000
0000
0030
0000
,  // measure 35
0000
0000
0100
0000
,  // measure 36
0000
0000
0200
0000
,  // measure 37
0000
0000
0300
0000
,  // measure 38
0000
0000
1000
0000
,  // measure 39
0000
0000
1000
0000
,  // measure 40
0000
0000
1000
0000
,  // measure 41
0000
0000
0020
0000
,  // measure 42
0000
0000
0030
0000
,  // measure 43
0000
0000
0100
0000
,  // measure 44
0000
0000
0200
0000
,  // measure 45
0000
0000
0300
0000
,  // measure 46
0000
0000
0001
0000
,  // measure 47
0000
0000
1000
0000
,  // measure 48
0000
2002
0000
0000
,  // measure 49
0000
0000
0000
0000
0000
3003
0000
0000
;
