#TITLE:Steady Kiss;
#SUBTITLE:;
#ARTIST:Ave-New;
#TITLETRANSLIT:;
#SUBTITLETRANSLIT:;
#ARTISTTRANSLIT:;
#GENRE:Silly J-Pop;
#CREDIT:Ace Of Hearts;
#BANNER:Steady Kiss - Bn.png;
#BACKGROUND:Steady Kiss - Bg.png;
#LYRICSPATH:;
#CDTITLE:Ace Of Hearts.png;
#MUSIC:Steady Kiss.ogg;
#OFFSET:0.220;
#SAMPLESTART:70.100;
#SAMPLELENGTH:12.000;
#SELECTABLE:YES;
#BPMS:0.000=160.000,156.000=80.000,164.000=160.000;
#STOPS:;
#BGCHANGES:0.625=Step x Steady OP.avi=1.000=1=0=1===CrossFade==,
323.000=Steady Background.png=1.000=0=0=1=Centered====,
99999=-nosongbg-=1.000=0=0=0 // don't automatically add -songbackground-
;
#KEYSOUNDS:;

//---------------dance-single - Hard----------------
#NOTES:
     dance-single:
     Ace Of Hearts (2012):
     Hard:
     8:
     0.530,0.000,0.209,0.850,0.058:
0000
0000
0000
0000
,
0000
0000
0000
0000
,
0000
0000
0000
0000
,
0000
0000
1000
0000
0001
0100
0000
0004
,
0000
0003
1000
0001
0010
0001
0000
2000
,
0000
0000
0000
0000
3000
0000
0000
0001
,
0000
1001
0000
1000
0100
0000
0000
0020
,
0000
0130
1000
0001
1000
0000
0001
0100
,
0010
0100
0001
2000
0000
0000
3000
0002
,
0000
0013
0100
0010
0002
0000
1003
0010
,
1000
0001
1000
0020
0000
0000
0000
0000
,
0030
1000
1001
0000
,
0002
2000
3003
1001
0000
0001
0100
0001
,
2000
0000
0000
3010
0000
0000
1000
0000
0002
0000
0000
0013
0000
0000
0100
0000
,
4000
0000
3000
0001
0100
0010
1000
0001
,
0100
0001
1000
0000
0020
0000
1030
0010
,
0100
0001
1000
0200
0000
0300
0000
0020
,
0000
0130
1000
0001
0020
0000
0031
1000
,
0010
0100
0001
2000
0000
0000
0000
3000
,
0000
0000
0001
0000
0010
0100
0000
2000
,
0000
0000
3001
0000
1000
0010
0000
0200
,
0000
0000
0310
0000
1010
0000
0000
2000
,
0000
3001
0010
0200
0000
0000
0300
0000
,
0000
1000
0002
0023
,
0230
0000
0310
0002
0000
0000
0000
0003
,
0000
2000
3020
0230
,
0302
0000
1003
0100
0000
0010
0000
0022
,
0000
0000
0030
0000
0003
0000
2000
0200
,
0000
0000
3000
0000
0300
0000
0010
0001
,
2000
3020
0230
0302
,
2003
0000
3000
0100
0020
0000
0000
0030
,
0000
0002
2003
3020
,
0230
0000
0302
2003
0000
0000
0000
0000
,
3000
0020
0230
0302
,
2003
0000
3100
0010
0000
0001
0000
2002
,
0000
0000
0003
0000
3000
0000
0020
0200
,
0000
0000
0030
0000
0300
0000
0001
0100
,
0020
0000
1030
0002
0000
0013
0000
0200
,
0000
0000
0300
1000
0004
0000
0003
0000
,
2000
0000
3001
0020
0000
0032
0000
0013
0100
0010
0100
4000
0000
0000
3000
0000
,
0002
0000
1003
0200
0000
4300
0000
3001
0100
0001
0100
0020
0000
0000
0030
0000
,
1000
0001
1000
0200
0000
0310
0100
2000
,
0000
0000
3001
0000
0100
0000
0000
0000
0020
0000
0000
0130
0000
0000
0001
0000
,
2000
0000
3000
0001
0020
0000
0000
0130
,
0000
1000
0000
0001
0101
0000
0000
0200
,
0000
0310
1000
0001
0010
0000
0100
1000
,
0001
0100
0001
2000
0000
0000
3000
0002
,
0000
0013
0100
1000
0002
0000
1003
0010
,
1000
0001
0010
0200
0000
0000
0000
0300
,
0000
1000
1001
0000
,
0002
2000
3003
1001
0000
1000
0010
0100
,
0002
0000
0000
1003
0000
0000
0100
0000
0020
0000
0000
0130
0000
0000
1000
0000
,
0400
0000
0300
0010
0100
1000
0001
0100
,
0010
1000
0001
0000
0010
0100
1000
0100
,
0010
0001
1000
0020
0000
0000
0030
0200
,
0000
0301
0100
0010
1000
0000
0001
0010
,
0100
0010
0001
2000
0000
0000
0000
3000
,
0000
0000
0020
0000
0130
0002
0000
2003
,
0000
0000
3100
0000
0010
0100
0000
2000
,
0000
0000
3001
0000
0101
0000
0000
0200
,
0000
0310
1000
0002
0000
0000
0003
0021
,
0000
0130
1000
0200
0000
0310
0001
0020
,
0000
0130
1000
0000
1001
0000
0000
2010
,
0000
3001
0010
0002
0000
1003
0010
2000
,
0000
3001
0010
0000
0110
0000
0000
2100
,
0000
3001
0010
0002
0000
0013
0100
0020
,
0000
0031
1000
0000
1010
0000
0000
0102
,
0000
1003
0010
2000
0000
3010
0100
0020
,
0000
1030
0001
0000
0101
0000
0000
0120
,
0000
1030
0001
0020
0000
0130
1000
0002
,
0000
0103
0010
0000
1010
0000
0000
1002
,
0000
0013
0100
2000
0000
3100
0010
0002
,
0000
1003
0010
0000
0110
0000
0000
0102
,
0000
1003
0010
0200
0000
0310
1000
0002
,
0000
0013
0100
0000
1100
0000
0000
0012
,
0000
1003
0010
0200
0000
0301
1000
0100
,
0000
0000
0010
0000
0100
2000
0000
3004
,
0000
0003
0010
0000
0110
0000
0000
0200
,
0000
1300
0001
2000
0000
3000
2040
0000
,
0000
3000
0000
0000
,
0000
0000
0000
0030
;

//---------------dance-single - Expert----------------
#NOTES:
     dance-single:
     Ace Of Hearts (2012):
     Challenge:
     10:
     0.737,0.000,0.827,0.773,0.085: // measure 1
0000
0000
0000
0000
,  // measure 2
0000
0000
0000
0000
,  // measure 3
0000
0000
0000
0000
,  // measure 4
2001
0000
3010
0000
0100
0001
0000
4002
,  // measure 5
0000
3003
1000
0100
0010
0100
0000
2200
,  // measure 6
0000
0000
0000
0000
0000
0000
0000
0010
,  // measure 7
0000
0011
0000
0010
0001
0000
3300
1002
,  // measure 8
0000
0103
0010
1000
1001
0000
1000
0001
,  // measure 9
0010
1000
0010
0002
0000
1003
0010
0210
,  // measure 10
0000
0301
1000
0100
0110
0000
0010
0001
,  // measure 11
1000
0100
0001
0200
0000
0310
0001
2001
,  // measure 12
0000
3010
0100
0000
0101
0000
1001
0000
,  // measure 13
2000
0002
0000
0010
3003
0001
0010
0100
,  // measure 14
2100
0000
0000
0010
0000
0000
3001
0000
0102
0000
0000
0010
0000
0000
1003
0000
,  // measure 15
2400
0000
3300
0100
0010
1000
0010
0001
,  // measure 16
1000
0100
0010
0000
0011
0000
0001
1000
,  // measure 17
0001
0100
1000
0200
0000
0310
1000
1002
,  // measure 18
0000
0013
0100
1000
1010
0000
0010
0100
,  // measure 19
1000
0100
0001
2000
0000
3001
0100
0120
,  // measure 20
0000
1030
0001
0000
0101
2M00
0000
3200
,  // measure 21
0000
0000
0310
0000
1001
020M
0000
0020
,  // measure 22
0300
0000
0130
0000
1100
0000
0000
1002
,  // measure 23
0000
0013
0100
2200
0300
0000
0101
0000
,  // measure 24
3000
0000
2000
0000
3002
0000
0203
0300
,  // measure 25
0120
0000
1030
1002
0000
0013
0100
1000
,  // measure 26
1002
0000
0000
0000
0203
0000
0000
0000
0320
0000
0000
0000
2030
0000
0000
3000
,  // measure 27
1200
0000
0310
0011
0000
0001
0000
0202
,  // measure 28
0000
0003
0010
0000
0001
0000
0310
2000
,  // measure 29
0000
0000
0001
0000
3100
0000
0010
0001
,  // measure 30
2001
0000
3010
0000
0210
0000
0301
1000
,  // measure 31
1200
0000
0310
0001
1000
0010
0100
0001
,  // measure 32
2001
0000
0000
0000
3200
0000
0000
0300
0120
0000
0000
0000
0032
0000
0003
0000
,  // measure 33
2001
0000
3010
0200
0000
0301
1000
0100
,  // measure 34
0120
0000
0031
1000
0010
0100
0001
1000
,  // measure 35
0100
0010
0001
1000
0010
0100
0001
0021
,  // measure 36
0000
0000
0100
0000
0001
0000
0130
2000
,  // measure 37
0000
0000
3001
0100
0010
0100
0001
1000
,  // measure 38
0200
0000
0310
0200
0000
1300
0001
0201
,  // measure 39
0000
0310
1000
0001
0100
0010
1000
0001
,  // measure 40
0101
0M00
1000
1100
0000
0M02
0000
1003
0010
0100
0001
0400
0000
0310
1000
0001
,  // measure 41
0011
0000
10M0
1010
0000
00M4
0000
0013
0110
0100
1000
0002
0000
0103
0010
1000
,  // measure 42
1001
0001
0010
0210
0000
1300
0001
0201
,  // measure 43
0000
0000
0310
0000
2000
0000
3000
0000
1200
0000
0000
0010
0000
0000
1300
0000
,  // measure 44
1002
0000
0013
0100
2100
3001
0100
0010
,  // measure 45
0000
1010
00M0
0001
0011
0010
0100
2100
,  // measure 46
0000
3001
0100
0010
1010
0000
1000
0001
,  // measure 47
0010
1000
0010
0002
0000
1003
0010
0210
,  // measure 48
0000
0301
1000
0100
0110
0000
0010
0001
,  // measure 49
0100
1000
0100
0002
0000
1003
0100
0020
,  // measure 50
0000
0130
1000
0000
0010
0000
1010
0000
,  // measure 51
2000
0002
0000
0010
3003
0001
0010
0100
,  // measure 52
1000
0000
0000
1002
0000
0000
0103
0000
0010
0000
0000
2010
0000
0000
3001
0000
,  // measure 53
0402
0000
0303
0100
0010
1000
0001
0010
,  // measure 54
0100
1000
0001
0000
0101
0100
0010
1000
,  // measure 55
0100
0001
0100
2000
0000
3001
0100
0120
,  // measure 56
0000
1030
0100
0010
2000
0000
3010
0001
,  // measure 57
1000
0100
0001
0200
0000
1300
0001
0202
,  // measure 58
0003
0310
2000
0000
3001
0010
0100
2200
,  // measure 59
0300
3001
0100
0010
0001
0010
0000
2020
,  // measure 60
0030
3001
0010
0000
0110
0100
1000
1002
,  // measure 61
0000
0013
0100
2200
0000
0000
3300
1002
,  // measure 62
0000
0103
0010
2010
0000
3001
0010
0210
,  // measure 63
0000
1300
0001
0000
0101
0100
0010
2010
,  // measure 64
0000
3001
0010
0210
0000
1300
0001
0201
,  // measure 65
0000
0310
1000
0000
1100
0100
0010
0012
,  // measure 66
0000
1003
0010
0110
0100
0001
1000
1100
,  // measure 67
0100
0010
0011
0001
1001
1000
0010
0210
,  // measure 68
0000
0301
1000
1010
0010
0100
0001
1001
,  // measure 69
1000
0000
0100
0000
0110
0000
0010
0000
0011
0000
0001
1000
0001
0000
0201
0000
,  // measure 70
0000
0310
1000
1001
0001
0010
0100
1100
,  // measure 71
1000
0001
0101
0100
0110
0010
1000
1002
,  // measure 72
0000
0013
0100
1100
1000
0001
0100
0110
,  // measure 73
0010
0000
1000
0000
1010
0000
0010
0000
0110
0000
0100
0001
0100
0000
0110
0000
,  // measure 74
0010
1000
0001
0011
0010
0100
1000
1001
,  // measure 75
0001
0100
0110
0010
1010
1000
0001
0011
,  // measure 76
0010
0100
1000
1001
0001
0100
0010
1010
,  // measure 77
0000
1000
0001
0000
0010
0100
0000
2200
,  // measure 78
0300
3001
0010
0000
0110
0000
0100
2000
,  // measure 79
0000
3001
0010
0200
0000
0000
2040
0000
,  // measure 80
3000
0300
0000
0000
,  // measure 81
0000
0000
0000
0030
;

//---------------dance-single - Medium----------------
#NOTES:
     dance-single:
     Ace Of Hearts (2012):
     Medium:
     6:
     0.409,0.000,0.023,0.788,0.008:
0000
0000
0000
0000
,
0000
0000
0000
0000
,
0000
0000
0000
0000
,
0000
0000
0001
0000
0010
0100
0000
4000
,
0000
3000
0001
0000
1000
0010
0000
0200
,
0000
0000
0000
0000
0300
0000
0000
0001
,
0000
0001
0000
0001
1000
0000
0000
0002
,
0000
1003
0010
1000
,
0001
0000
1000
0020
0000
0000
0030
0200
,
0000
0301
1000
0001
,
0010
0000
0100
2000
0000
0000
0000
3000
,
0000
0001
0100
0000
,
0002
2000
3003
1001
0000
0000
0001
0000
,
2000
3000
0020
0030
,
0400
0300
0001
0100
,
0020
1030
0001
0010
,
0100
0000
1000
0002
0000
0000
0003
2000
,
0000
3010
0100
0001
,
1000
0000
0010
0200
0000
0000
0000
0300
,
0000
0000
0001
0000
0010
0100
0000
2000
,
0000
0000
3001
0000
0010
0100
0000
2000
,
0000
0000
3001
0000
0100
0000
0000
0020
,
0000
0000
1030
0002
0000
0000
0003
0000
,
0000
0020
0032
2003
,
3002
0000
1003
0020
0000
0000
0000
0000
,
0030
0200
0302
2003
,
3002
0000
1003
0200
0000
0310
0000
0002
,
0000
0000
0000
0000
0003
0000
0010
0200
,
0000
0000
0300
1000
,
0002
2003
3020
0230
,
0302
0000
0000
1003
0200
0000
0000
0000
,
0300
0020
0230
0320
,
0032
0000
1003
0020
0000
0000
0000
0000
,
0030
0200
0320
0230
,
0302
0000
1003
0020
0000
1030
0000
0002
,
0000
0000
0000
0000
0003
0000
1000
0200
,
0000
0000
0300
0010
,
0002
0000
1003
0020
0000
1030
0000
0002
,
0000
0000
0000
0013
0400
0000
0300
0000
,
1000
0000
0000
1000
0000
0000
0000
0000
0002
0000
0000
0000
0003
0000
0000
0000
,
0010
0000
0000
0010
0000
0000
0000
0000
0200
0000
0000
0000
0300
0000
0000
0000
,
2000
0000
3001
0200
0000
0000
0301
2000
,
0000
0000
3010
0000
0200
0000
0000
0301
,
2000
0000
0000
3001
0020
0000
0000
0130
,
0000
0100
0000
0100
1000
0000
0000
0002
,
0000
1003
0010
1000
,
0002
0000
0103
0020
0000
0000
0000
2030
,
0000
3001
0100
0010
,
1000
0000
0001
0020
0000
0000
0000
0030
,
0000
0100
1000
0000
,
0002
2000
3003
1001
0000
0000
0001
0000
,
0200
0300
0020
0030
,
4000
3000
0001
0100
,
0010
0100
0001
1000
,
0001
0000
1000
0200
0000
0000
0300
0020
,
0000
0130
1000
0000
0001
0000
0100
0000
,
0010
0000
1000
0002
0000
0000
0000
0003
,
0000
0000
0010
0000
0100
1000
0000
0002
,
0000
0000
1003
0000
0010
1000
0000
0002
,
0000
0000
0013
0000
0100
0000
0000
2000
,
0000
0000
3002
0200
0000
0003
0000
0320
,
0000
0000
1030
0002
0000
0000
1003
0200
,
0000
0310
0001
0000
0001
0000
0000
2000
,
0000
0000
3001
0200
0000
0000
0310
2000
,
0000
3010
0100
0000
0100
0000
0000
0020
,
0000
0000
0130
0002
0000
0000
1003
0200
,
0000
0310
0001
0000
0001
0000
0000
2000
,
0000
0000
3001
0200
0000
0000
0310
2000
,
0000
3001
0010
0000
0010
0000
0000
0200
,
0000
0310
0001
0020
0000
0031
1000
0002
,
0000
1003
0010
0000
0010
0000
0000
2000
,
0000
3010
1000
0020
0000
1030
0001
2000
,
0000
3001
0100
0000
0100
0000
0000
0020
,
0000
1030
0001
2000
0000
3001
0010
0002
,
0000
1003
0010
0000
0010
0000
0000
0200
,
0000
0301
0100
0002
0000
1003
0001
1000
,
0000
0000
0010
0000
1000
0001
0000
0040
,
0000
0030
0001
0000
1000
0000
0000
0200
,
0000
1300
0001
2000
0000
3000
2002
0000
,
0000
0000
0000
0000
,
3003
0000
0000
0000
;

//---------------dance-single - Easy----------------
#NOTES:
     dance-single:
     Ace Of Hearts (2012):
     Easy:
     4:
     0.206,0.000,0.039,0.309,0.000:
0000
0000
0000
0000
,
0000
0000
0000
0000
,
0000
0000
0000
0000
,
0000
0000
0001
0000
,
0001
0000
1000
0000
,
2000
0000
3000
0000
,
0010
0010
0010
0000
,
0100
0100
0100
0000
,
0002
0000
0003
0000
,
1000
1000
1000
0000
,
0200
0000
0000
0300
,
0000
1000
1000
0000
,
2002
0000
3003
0000
,
0001
0000
0001
0000
,
0001
0000
0000
0000
,
0100
0100
0100
0000
,
0020
0000
0030
0000
,
1000
1000
1000
0000
,
0002
0000
0003
0000
,
0000
0000
1000
0000
,
1000
0000
0010
0000
,
0010
0000
0100
0000
,
0200
0000
0300
0000
,
0000
0000
0001
0000
,
0001
0000
0001
0000
,
0000
0000
1000
0000
,
1000
0000
0010
0000
,
0020
0000
0030
0000
,
0200
0000
0300
0000
,
0001
0000
0001
0000
,
0002
0000
0003
0000
,
0000
0000
0010
0000
,
0010
0000
0010
0000
,
0000
0000
0100
0000
,
0100
0000
1000
0000
,
2000
0000
3000
0000
,
0002
0000
0003
0000
,
0100
0000
0100
0000
,
0200
0000
0300
0000
,
0010
0010
0010
0000
,
1000
1000
1000
0000
,
0001
0000
0001
0000
,
0100
0000
0100
0000
,
0220
0000
0000
0000
,
0000
0000
0330
0000
,
0010
0010
0010
0000
,
2000
0000
3000
0000
,
0001
0001
0001
0000
,
0200
0000
0300
0000
,
0000
0001
0001
0000
,
2002
0000
3003
0000
,
1000
0000
1000
0000
,
1000
0000
0000
0000
,
0100
0100
0100
0000
,
2000
0000
3000
0000
,
0001
0001
0001
0000
,
0200
0000
0300
0000
,
0000
0000
0010
0000
,
0010
0000
1000
0000
,
2000
0000
3000
0000
,
2002
0000
3003
0000
,
0002
0000
2003
0000
,
3100
0100
0100
0000
,
0020
0000
0230
0000
,
1300
1000
1000
0000
,
0002
0000
2003
0000
,
3010
0010
0010
0000
,
0200
0000
0320
0000
,
1030
1000
1000
0000
,
0001
0010
0002
0000
,
1003
1000
1000
0000
,
0010
1000
0020
0000
,
0130
0100
0100
0000
,
0001
0100
0002
0000
,
1003
1000
1000
0000
,
0010
1000
0020
0000
,
0130
0000
0001
0000
,
0001
0000
1000
0000
,
2000
0000
3000
2002
,
0000
0000
0000
0000
,
3003
0000
0000
0000
;

//---------------dance-single - Novice----------------
#NOTES:
     dance-single:
     Ace Of Hearts (2012):
     Beginner:
     2:
     0.136,0.000,0.023,0.147,0.000:
0000
0000
0000
0000
,
0000
0000
0000
0000
,
0000
0000
0000
0000
,
0000
0000
0000
0000
,
1000
0000
0000
0000
,
2000
0000
3000
0000
,
0002
0000
0003
0000
,
0010
0000
0010
0000
,
0010
0000
0000
0000
,
0100
0000
0100
0000
,
0100
0000
0000
0000
,
1000
0000
1000
0000
,
2002
0000
3003
0000
,
0001
0000
0001
0000
,
0001
0000
0000
0000
,
1000
0000
1000
0000
,
1000
0000
0000
0000
,
0010
0000
0000
0000
,
0020
0000
0030
0000
,
0000
0000
0000
0000
,
0100
0000
0000
0000
,
0200
0000
0300
0000
,
0002
0000
0003
0000
,
1000
0000
0000
0000
,
1000
0000
0000
0000
,
0010
0000
0000
0000
,
0010
0000
0000
0000
,
2000
0000
3000
0000
,
0002
0000
0003
0000
,
0010
0000
0000
0000
,
0010
0000
0000
0000
,
0001
0000
0000
0000
,
0001
0000
0000
0000
,
1000
0000
0000
0000
,
1000
0000
0000
0000
,
0020
0000
0030
0000
,
0200
0000
0300
0000
,
0001
0000
0000
0000
,
0002
0000
0003
0000
,
1000
0000
1000
0000
,
0001
0000
0001
0000
,
0100
0000
0000
0000
,
0100
0000
0000
0000
,
0020
0000
0000
0000
,
0030
0000
0000
0000
,
1000
0000
1000
0000
,
1000
0000
0000
0000
,
0100
0000
0100
0000
,
0100
0000
0000
0000
,
1000
0000
1000
0000
,
2002
0000
3003
0000
,
0001
0000
0001
0000
,
0001
0000
0000
0000
,
0010
0000
0010
0000
,
0010
0000
0000
0000
,
0100
0000
0100
0000
,
0100
0000
0000
0000
,
1000
0000
0000
0000
,
1000
0000
0000
0000
,
0001
0000
0000
0000
,
0002
0000
0003
0000
,
1000
0000
1000
0000
,
1000
0000
0000
0000
,
0010
0000
0010
0000
,
0010
0000
0000
0000
,
0100
0000
0100
0000
,
0100
0000
0000
0000
,
0001
0000
0001
0000
,
0001
0000
0000
0000
,
1000
0000
1000
0000
,
1000
1000
1000
0000
,
0001
0000
0001
0000
,
0001
0001
0001
0000
,
0010
0000
0010
0000
,
0010
0010
0010
0000
,
0100
0000
0100
0000
,
0100
0000
0000
0000
,
2000
0000
3000
0000
,
0001
0000
0000
2002
,
0000
0000
0000
0000
,
3003
0000
0000
0000
;
