#TITLE:Original!;
#SUBTITLE:;
#ARTIST:Yuria;
#TITLETRANSLIT:;
#SUBTITLETRANSLIT:;
#ARTISTTRANSLIT:;
#GENRE:J-Pop;
#CREDIT:Ace Of Hearts;
#BANNER:Original - Bn.png;
#BACKGROUND:Original - Bg.jpg;
#LYRICSPATH:;
#CDTITLE:Ace Of Hearts.png;
#MUSIC:Original.ogg;
#OFFSET:0.740;
#SAMPLESTART:45.200;
#SAMPLELENGTH:12.000;
#SELECTABLE:YES;
#BPMS:0.000=177.040;
#STOPS:;
#BGCHANGES:2.000=Shuffle On the Stage OP.avi=1.000=1=0=1===CrossFade==,
99999=-nosongbg-=1.000=0=0=0 // don't automatically add -songbackground-
;
#KEYSOUNDS:;

//---------------dance-single - Asa----------------
#NOTES:
     dance-single:
     Ace Of Hearts (2012):
     Hard:
     8:
     0.538,0.071,0.011,0.618,0.011: // measure 1
0000
0000
0000
0000
,  // measure 2
4000
0004
0000
0000
0000
0000
0000
0000
0000
0000
3003
0000
0000
0000
0000
0000
,  // measure 3
0001
0000
2000
0000
3001
0020
0000
0130
,  // measure 4
0000
0000
0000
1000
0100
0010
0100
1000
,  // measure 5
0001
0000
0200
0000
0310
2000
0000
3001
,  // measure 6
0000
0000
0000
1000
0010
0100
0010
1000
,  // measure 7
0001
0000
0020
0000
0130
2000
0000
3001
,  // measure 8
0000
0000
0000
1000
0001
0010
0001
1000
,  // measure 9
0010
0000
0200
0000
0301
2000
0000
3200
,  // measure 10
0000
0310
0001
0010
0200
0000
0300
0000
,  // measure 11
0010
0001
0010
0100
1000
0001
0000
1000
,  // measure 12
0000
0020
0000
0130
0001
0000
0000
1000
,  // measure 13
0100
0000
0010
0000
0100
2000
0000
3002
,  // measure 14
0000
0403
0000
0000
0000
0000
0300
0000
,  // measure 15
0010
0000
0200
0301
1000
0100
0000
0020
,  // measure 16
0000
0130
0000
1000
0001
0000
0000
1000
,  // measure 17
0010
0100
0001
0100
0010
0000
1000
0001
,  // measure 18
0000
0000
0010
0200
0000
0310
0001
0000
,  // measure 19
0010
0100
1000
0100
0010
0001
0000
2000
,  // measure 20
0000
3100
0000
0010
0100
0000
0000
0010
,  // measure 21
0001
0000
1000
0000
0010
0100
0000
0002
,  // measure 22
0000
4003
0000
0000
0000
0000
3000
0000
,  // measure 23
0002
0000
0013
0100
0010
0001
0000
2000
,  // measure 24
0000
3010
0000
1000
0001
0000
0000
0010
,  // measure 25
0100
1000
0100
0010
0001
0000
1000
0200
,  // measure 26
0000
1300
0001
0100
0010
0100
0001
0000
,  // measure 27
1000
0000
0001
0100
0000
0100
0020
0000
,  // measure 28
0130
0001
0100
0010
0000
0010
2000
0000
,  // measure 29
3001
0000
0001
0010
0000
0010
0100
1000
,  // measure 30
0001
0100
0000
0020
0000
0000
0030
0000
,  // measure 31
0100
0000
0100
0001
0000
0001
1000
0000
,  // measure 32
0200
0000
0310
0001
0000
0001
1000
0000
,  // measure 33
0020
0000
0000
0000
,  // measure 34
0130
0001
1000
0200
0000
0310
0100
0000
,  // measure 35
1000
0000
0002
0000
0103
0002
0000
2003
,  // measure 36
0000
3010
0100
0001
0000
0000
1000
0100
,  // measure 37
0010
0000
0100
0010
0001
0000
0000
2000
,  // measure 38
0000
3010
0100
0001
2000
0000
3100
0000
,  // measure 39
0020
0000
0130
0000
1000
0001
0000
0200
,  // measure 40
0000
0310
0100
0001
0000
0000
1000
0100
,  // measure 41
0010
0000
0001
0010
0100
0000
0000
2000
,  // measure 42
0000
3001
0100
0010
1000
0010
0100
0001
,  // measure 43
1000
0000
0200
0000
0310
0002
0000
2003
,  // measure 44
0000
3010
0100
0001
0000
0000
1000
0010
,  // measure 45
0100
0000
0001
0100
0010
0000
0000
2000
,  // measure 46
0000
3010
0100
0001
0200
0000
0310
0000
,  // measure 47
1000
0000
0002
0000
0013
0100
0000
2000
,  // measure 48
0000
3001
0100
0001
0000
0000
1000
0100
,  // measure 49
0010
0000
0100
0010
0001
0000
0000
0020
,  // measure 50
0000
0130
0010
0001
1000
0010
0100
0001
,  // measure 51
0000
0000
2000
0000
3100
0020
0000
0130
,  // measure 52
0000
0000
0000
1000
0100
0010
0001
0010
,  // measure 53
0100
0000
2000
0000
3001
0200
0000
0310
,  // measure 54
0000
0000
0000
1000
0001
0010
0001
1000
,  // measure 55
0010
0000
0200
0000
0301
2000
0000
3100
,  // measure 56
0000
0000
0000
0010
0001
0010
0100
1000
,  // measure 57
0001
0000
0200
0000
0301
2000
0000
3100
,  // measure 58
0000
0010
0001
0010
0400
0000
0300
2000
,  // measure 59
0000
0000
3000
0002
0000
0003
0200
0000
,  // measure 60
0000
0000
0000
0000
0000
0000
0304
4000
0000
0000
0000
0000
0000
0000
0000
0000
,  // measure 61
0000
0000
0000
0000
,  // measure 62
0000
0000
0000
0000
,  // measure 63
0000
0000
0000
3003
,  // measure 64
0000
0000
0000
2002
0000
0000
0000
0000
,  // measure 65
3003
0000
0000
0000
;

//---------------dance-single - Kaede----------------
#NOTES:
     dance-single:
     Ace Of Hearts (2012):
     Challenge:
     10:
     0.814,0.459,0.497,1.000,0.155: // measure 1
0000
0000
0000
0000
,  // measure 2
0001
0010
0001
0010
0001
1000
0100
1000
0100
0010
0001
0010
0100
0000
0000
0000
,  // measure 3
1100
0M00
0002
0003
0101
2M00
3000
1100
,  // measure 4
0000
0000
0000
0100
0010
1000
0010
0001
,  // measure 5
1001
M000
0200
0300
0110
00M2
0003
1001
,  // measure 6
0000
0000
0000
1000
0010
0001
0010
1000
,  // measure 7
1001
M000
0020
0030
0110
0M02
0003
1001
,  // measure 8
0000
0000
0000
1000
0100
0001
0100
1000
,  // measure 9
1001
0000
000M
0000
0200
0000
0310
0100
1000
0000
0002
0000
0003
0000
0201
0000
,  // measure 10
0000
0310
1000
0001
0202
0003
0310
0000
,  // measure 11
1000
0010
0001
0010
1000
0001
0000
0020
,  // measure 12
0000
0230
0000
1300
0001
0100
0010
1000
,  // measure 13
0001
0000
0010
0000
0100
2000
0000
3002
,  // measure 14
0000
0043
0100
0000
1000
0000
0230
0000
,  // measure 15
0310
0000
0002
1003
0010
0001
0000
0020
,  // measure 16
0000
0230
0000
0301
1000
0100
0010
0001
,  // measure 17
1000
0100
0001
0100
2000
0000
3001
0200
,  // measure 18
0000
0310
1000
0200
0000
0310
0100
1000
,  // measure 19
0001
0010
1000
0010
0001
1000
0000
0020
,  // measure 20
0000
0230
0000
0301
0010
0100
1000
0001
,  // measure 21
0100
0000
0010
0000
1000
0001
0000
0020
,  // measure 22
0000
0430
1000
0000
0001
0000
2300
0000
,  // measure 23
3002
0000
1003
0100
0001
0100
0000
0020
,  // measure 24
0000
0032
0000
1003
0100
1000
0001
0100
,  // measure 25
0010
0000
0001
0000
0010
0000
1000
0001
0010
0000
0100
0000
1000
0000
0002
0000
,  // measure 26
0000
0000
0013
0000
0100
0000
1000
0100
0010
0000
0001
0000
0010
0100
1000
0000
,  // measure 27
0001
0020
1030
0020
0031
2000
3010
0200
,  // measure 28
0310
0002
0013
2000
3001
0020
0130
2000
,  // measure 29
3001
0200
1300
0200
0301
2000
3100
0020
,  // measure 30
0130
2000
3000
2020
3000
0230
0301
2000
,  // measure 31
3100
0020
0031
2000
3010
0200
0301
2000
,  // measure 32
3100
0002
0103
2000
3001
0200
0310
2000
,  // measure 33
3002
0000
0000
0000
0000
0000
0000
0003
,  // measure 34
1001
001M
0100
0002
0003
0101
1001
0000
,  // measure 35
1200
0000
0310
0000
0011
10M0
0000
1200
,  // measure 36
0000
0000
0310
0000
0001
0000
0101
0000
0000
0MM0
0000
0000
0001
0000
0100
0000
,  // measure 37
1000
00MM
1000
0100
0001
0000
0000
2000
,  // measure 38
0000
3001
1000
0002
0020
0000
1000
0033
,  // measure 39
0210
0000
1300
0000
1001
M100
0000
0020
,  // measure 40
0000
1030
0001
0101
0000
0000
0100
0010
,  // measure 41
2000
0000
3001
0010
0100
0000
0000
0020
,  // measure 42
0000
0000
0031
0000
0100
0000
1000
0000
0100
0000
0001
0000
0010
0000
0100
1000
,  // measure 43
0001
0000
2000
3000
1010
M200
0300
0102
,  // measure 44
0000
0013
0100
1000
0000
0000
1000
0010
,  // measure 45
0001
MM00
0001
0010
1000
0000
0000
2000
,  // measure 46
0000
3001
0100
0020
2000
0000
0001
3030
,  // measure 47
0210
0000
0301
0000
1001
010M
0000
0120
,  // measure 48
0000
0031
0100
0010
0000
0000
1000
0100
,  // measure 49
0001
M0M0
0001
0100
1000
0001
0100
0020
,  // measure 50
0000
0000
1030
0000
0001
0000
0010
0000
0001
0000
1000
0010
0100
0000
0002
0000
,  // measure 51
0000
0000
0103
0000
0110
2M00
3000
1100
,  // measure 52
0000
0000
0110
0010
0001
1000
0010
0100
,  // measure 53
0001
0000
0020
0030
0110
20M0
3000
1001
,  // measure 54
0000
0000
0101
0100
0010
0001
0010
1000
,  // measure 55
0001
0000
0200
0300
0110
2M00
3000
1001
,  // measure 56
0000
0000
0000
0000
0011
0000
0010
0000
1000
0000
0010
0000
0001
0000
1000
0100
,  // measure 57
0020
0030
0022
0033
1001
2020
3030
0202
,  // measure 58
0303
0000
0001
0000
1000
0000
0010
1000
0010
1000
0001
0100
0001
0000
2002
0000
,  // measure 59
0003
3100
0010
0022
0000
0033
0220
0000
,  // measure 60
0000
0000
0000
0000
0300
0000
0430
4000
0000
0000
0000
0000
0000
0000
0000
0000
,  // measure 61
0000
0000
0000
0000
0000
0000
3300
0000
0000
0000
1000
0100
0010
0100
0000
0000
,  // measure 62
0010
0000
0000
0100
0000
0000
1000
0000
0000
0000
0001
0000
0000
0000
1000
0000
0000
0000
0010
0000
0000
0000
0100
0000
0000
0000
0001
0000
0000
0000
1000
0000
0000
0000
0100
0000
0000
0000
0010
0000
0000
0000
0001
0000
0000
0000
0000
0000
,  // measure 63
1000
0000
0010
0000
0100
0000
0001
0000
1000
0000
0000
0200
0000
0000
0000
0000
,  // measure 64
0300
0000
0000
2202
0000
0000
0000
0000
,  // measure 65
3303
0000
0000
0000
;

//---------------dance-single - Lisianthus----------------
#NOTES:
     dance-single:
     Ace Of Hearts (2012):
     Medium:
     6:
     0.304,0.035,0.033,0.375,0.006: // measure 1
0000
0000
0000
0000
,  // measure 2
0004
0000
0003
0000
,  // measure 3
1000
0000
0001
0000
2000
0000
0000
3100
,  // measure 4
0000
0000
0010
0100
,  // measure 5
1000
0000
0100
0000
2000
0000
0000
3001
,  // measure 6
0000
0000
1000
0010
,  // measure 7
1000
0000
0001
0000
2000
0000
0000
3100
,  // measure 8
0000
0000
0010
0001
,  // measure 9
0010
0000
0100
0000
0020
0000
0000
0031
,  // measure 10
0000
1000
1000
0000
,  // measure 11
0010
0000
1000
0000
0010
0000
0000
1000
,  // measure 12
0000
2000
0000
0000
3001
0000
0000
0000
,  // measure 13
0010
0000
0001
0000
0010
0000
0000
0400
,  // measure 14
0000
0000
0000
0300
,  // measure 15
1000
0000
0100
0000
1000
0000
0000
0001
,  // measure 16
0000
0002
0000
0000
0103
0000
0000
0000
,  // measure 17
0010
0000
1000
0000
0010
0000
0000
0100
,  // measure 18
0000
0000
0000
0000
,  // measure 19
0001
0000
1000
0000
0001
0000
0000
0010
,  // measure 20
0000
0020
0000
0000
0130
0000
0000
0000
,  // measure 21
1000
0000
0001
0000
1000
0000
0000
0040
,  // measure 22
0000
0000
0000
0030
,  // measure 23
1000
0000
0010
0000
1000
0000
0000
0010
,  // measure 24
0000
0020
0000
0000
0130
0000
0000
0000
,  // measure 25
0001
0000
0100
0000
0001
0000
0000
1000
,  // measure 26
0000
0000
0000
0000
,  // measure 27
0002
0000
0000
0010
0000
0000
0013
0000
,  // measure 28
0200
0000
0000
1000
0000
0000
1300
0000
,  // measure 29
0002
0000
0000
0100
0000
0000
0103
0000
,  // measure 30
0010
0000
0000
2020
0000
3030
0000
0000
,  // measure 31
2000
0000
0000
0001
0000
0000
3001
0000
,  // measure 32
0200
0000
0000
0010
0000
0000
0310
0000
,  // measure 33
2000
0000
0000
3000
,  // measure 34
1001
0000
0000
0000
,  // measure 35
0001
0000
0010
0000
0001
0000
0000
2000
,  // measure 36
0000
0000
0000
3100
0000
0000
0000
0000
,  // measure 37
0010
0000
0001
0000
0010
0000
0000
0200
,  // measure 38
0000
1300
0001
0000
,  // measure 39
1000
0000
0010
0000
1000
0000
0000
0002
,  // measure 40
0000
0000
0000
0103
0000
0000
0000
0000
,  // measure 41
0010
0000
0100
0000
0010
0000
0000
2000
,  // measure 42
0000
3001
0010
0000
,  // measure 43
0001
0000
1000
0000
0001
0000
0000
0020
,  // measure 44
0000
0000
0000
0130
0000
0000
0000
0000
,  // measure 45
0010
0000
0001
0000
0010
0000
0000
0200
,  // measure 46
0000
1300
0001
0000
,  // measure 47
1000
0000
0100
0000
1000
0000
0000
0002
,  // measure 48
0000
0000
0000
0103
0000
0000
0000
0000
,  // measure 49
0010
0000
1000
0000
0010
0000
0000
2000
,  // measure 50
0000
0000
3001
0000
0010
0000
0000
0002
,  // measure 51
0000
0000
1003
0000
0020
0000
0000
0130
,  // measure 52
0000
0000
0001
0100
,  // measure 53
0001
0000
1000
0000
0002
0000
0000
0013
,  // measure 54
0000
0000
0100
1000
,  // measure 55
0001
0000
1000
0000
0002
0000
0000
0103
,  // measure 56
0000
0000
0010
0100
,  // measure 57
0010
0000
1000
0000
0020
0000
0000
0130
,  // measure 58
0000
0000
0000
0000
0000
0000
0000
0002
,  // measure 59
0000
0000
0000
2003
0000
0000
3200
0000
,  // measure 60
0000
0000
0000
0000
0000
0000
4300
0004
0000
0000
0000
0000
0000
0000
0000
0000
,  // measure 61
0000
0000
0000
0000
,  // measure 62
0000
0000
0000
0000
,  // measure 63
0000
0000
0000
3003
,  // measure 64
0000
0000
0000
2002
0000
0000
0000
0000
,  // measure 65
3003
0000
0000
0000
;

//---------------dance-single - Nerine----------------
#NOTES:
     dance-single:
     Ace Of Hearts (2012):
     Easy:
     4:
     0.216,0.000,0.033,0.177,0.000: // measure 1
0000
0000
0000
0000
,  // measure 2
0000
0000
0000
0000
,  // measure 3
0001
0001
0001
0000
,  // measure 4
0001
0000
0010
0000
,  // measure 5
0100
0100
0100
0000
,  // measure 6
0100
0000
1000
0000
,  // measure 7
0001
0001
0001
0000
,  // measure 8
0001
0000
1000
0000
,  // measure 9
0010
0010
0010
0000
,  // measure 10
0020
0000
0030
0000
,  // measure 11
1000
1000
1000
0000
,  // measure 12
0002
0000
0003
0000
,  // measure 13
0010
0010
0010
0000
,  // measure 14
0040
0000
0030
0000
,  // measure 15
0100
0100
0100
0000
,  // measure 16
1000
0000
1000
0000
,  // measure 17
0001
0001
0001
0000
,  // measure 18
0001
0000
0000
0000
,  // measure 19
1000
1000
1000
0000
,  // measure 20
0020
0000
0030
0000
,  // measure 21
0100
0100
0100
0000
,  // measure 22
0400
0000
0300
0000
,  // measure 23
0001
0001
0001
0000
,  // measure 24
1000
0000
1000
0000
,  // measure 25
0100
0100
0100
0000
,  // measure 26
0100
0000
0000
0000
,  // measure 27
0010
0000
0010
0000
,  // measure 28
0001
0000
0001
0000
,  // measure 29
1000
0000
1000
0000
,  // measure 30
0020
0000
0030
0000
,  // measure 31
0100
0000
0100
0000
,  // measure 32
0001
0000
0001
0000
,  // measure 33
2000
0000
0000
0000
,  // measure 34
3001
0000
0000
0000
,  // measure 35
0010
0010
0010
0000
,  // measure 36
0200
0000
0300
0000
,  // measure 37
1000
0000
1000
0000
,  // measure 38
0001
0001
0001
0000
,  // measure 39
0100
0000
0100
0000
,  // measure 40
0002
0000
0003
0000
,  // measure 41
1000
1000
1000
0000
,  // measure 42
0200
0000
0300
0000
,  // measure 43
0010
0010
0010
0000
,  // measure 44
0200
0000
0300
0000
,  // measure 45
1000
0000
1000
0000
,  // measure 46
0001
0000
0001
0000
,  // measure 47
0100
0100
0100
0000
,  // measure 48
0020
0000
0030
0000
,  // measure 49
1000
1000
1000
0000
,  // measure 50
0002
0000
0003
0000
,  // measure 51
0010
0010
0010
0000
,  // measure 52
0010
0000
0000
0000
,  // measure 53
0100
0100
0100
0000
,  // measure 54
0100
0000
0000
0000
,  // measure 55
1000
1000
1000
0000
,  // measure 56
1000
0000
0000
0000
,  // measure 57
0001
0001
0001
0000
,  // measure 58
0001
0000
0000
0000
,  // measure 59
2000
0000
3000
2002
,  // measure 60
0000
0000
0000
0000
,  // measure 61
0000
0000
3003
4004
,  // measure 62
0000
0000
0000
0000
,  // measure 63
0000
0000
0000
3003
,  // measure 64
0000
0000
0000
2002
0000
0000
0000
0000
,  // measure 65
3003
0000
0000
0000
;

//---------------dance-single - Primula----------------
#NOTES:
     dance-single:
     Ace Of Hearts (2012):
     Beginner:
     2:
     0.158,0.000,0.044,0.132,0.000: // measure 1
0000
0000
0000
0000
,  // measure 2
0000
0000
0000
0000
,  // measure 3
0001
0000
0001
0000
,  // measure 4
0001
0000
0000
0000
,  // measure 5
1000
0000
1000
0000
,  // measure 6
1000
0000
0000
0000
,  // measure 7
0010
0000
0010
0000
,  // measure 8
0010
0000
0000
0000
,  // measure 9
0100
0000
0100
0000
,  // measure 10
0200
0000
0300
0000
,  // measure 11
0001
0000
0001
0000
,  // measure 12
0001
0000
0000
0000
,  // measure 13
1000
0000
1000
0000
,  // measure 14
4000
0000
3000
0000
,  // measure 15
0010
0000
0010
0000
,  // measure 16
0010
0000
0000
0000
,  // measure 17
0100
0000
0100
0000
,  // measure 18
0100
0000
0000
0000
,  // measure 19
0001
0000
0001
0000
,  // measure 20
0001
0000
0000
0000
,  // measure 21
0100
0000
0100
0000
,  // measure 22
0400
0000
0300
0000
,  // measure 23
0010
0000
0010
0000
,  // measure 24
0010
0000
0000
0000
,  // measure 25
1000
0000
1000
0000
,  // measure 26
1000
0000
0000
0000
,  // measure 27
0001
0000
0000
0000
,  // measure 28
0001
0000
0000
0000
,  // measure 29
0010
0000
0000
0000
,  // measure 30
0020
0000
0030
0000
,  // measure 31
0100
0000
0000
0000
,  // measure 32
0100
0000
0000
0000
,  // measure 33
2000
0000
3000
0000
,  // measure 34
1001
0000
0000
0000
,  // measure 35
0001
0000
0001
0000
,  // measure 36
0001
0000
0000
0000
,  // measure 37
0100
0000
0100
0000
,  // measure 38
0200
0000
0300
0000
,  // measure 39
0010
0000
0010
0000
,  // measure 40
0010
0000
0000
0000
,  // measure 41
1000
0000
1000
0000
,  // measure 42
2000
0000
3000
0000
,  // measure 43
0010
0000
0010
0000
,  // measure 44
0010
0000
0000
0000
,  // measure 45
0100
0000
0100
0000
,  // measure 46
0200
0000
0300
0000
,  // measure 47
0001
0000
0001
0000
,  // measure 48
0001
0000
0000
0000
,  // measure 49
1000
0000
1000
0000
,  // measure 50
2000
0000
3000
0000
,  // measure 51
0010
0000
0010
0000
,  // measure 52
0010
0000
0000
0000
,  // measure 53
0100
0000
0100
0000
,  // measure 54
0100
0000
0000
0000
,  // measure 55
0001
0000
0001
0000
,  // measure 56
0001
0000
0000
0000
,  // measure 57
1000
0000
1000
0000
,  // measure 58
1000
0000
0000
0000
,  // measure 59
0002
0000
0003
2002
,  // measure 60
0000
0000
0000
0000
,  // measure 61
3003
0000
0000
4004
,  // measure 62
0000
0000
0000
0000
,  // measure 63
0000
0000
0000
3003
,  // measure 64
0000
0000
0000
2002
0000
0000
0000
0000
,  // measure 65
3003
0000
0000
0000
;
