#TITLE:Oath Sign;
#SUBTITLE:;
#ARTIST:LiSA;
#TITLETRANSLIT:;
#SUBTITLETRANSLIT:;
#ARTISTTRANSLIT:;
#GENRE:J-Rock;
#CREDIT:Ace Of Hearts;
#BANNER:Oath Sign - bn.png;
#BACKGROUND:Oath Sign - bg.png;
#LYRICSPATH:;
#CDTITLE:Ace Of Hearts.png;
#MUSIC:Oath Sign.ogg;
#OFFSET:2.480;
#SAMPLESTART:52.500;
#SAMPLELENGTH:12.000;
#SELECTABLE:YES;
#BPMS:0.000=76.000,19.000=152.000,46.500=76.000,48.500=152.000,81.000=76.000,89.000=152.000,173.000=76.000,176.000=152.000,186.000=76.000;
#STOPS:18.000=0.788
;
#BGCHANGES:3.125=Fate Zero OP 1.avi=1.000=1=0=1===CrossFade==,
99999=-nosongbg-=1.000=0=0=0 // don't automatically add -songbackground-
;
#KEYSOUNDS:;

//---------------dance-single - Hard----------------
#NOTES:
     dance-single:
     Ace Of Hearts (2012):
     Hard:
     8:
     0.529,0.240,0.180,0.798,0.073: // measure 1
0000
0000
0000
0000
,  // measure 2
0M02
1003
0010
1000
00M1
0010
0002
0003
,  // measure 3
2M00
3020
0230
0302
20M3
3020
0230
0320
,  // measure 4
203M
0000
0000
0000
3001
0000
0001
0000
2M00
0000
0000
0000
3001
0010
0100
0010
,  // measure 5
M002
0000
01M3
0020
,  // measure 6
1030
0002
0000
0023
0000
0430
0000
0000
,  // measure 7
1300
0002
0000
0203
0000
0320
0000
0000
,  // measure 8
1030
0001
0000
0000
0010
0200
0000
1300
,  // measure 9
0001
0040
0000
0031
1000
0000
0020
0000
,  // measure 10
0130
0002
0000
0403
0000
0320
0000
0000
,  // measure 11
1030
0001
0000
4000
0000
3020
0000
0030
,  // measure 12
0000
0000
0100
0000
001M
0000
1000
0000
0001
0000
M020
0000
013M
4000
00M0
0000
,  // measure 13
3000
0002
0000
0000
0013
0200
0000
1300
,  // measure 14
0000
1002
0000
0003
0100
0010
0000
1000
,  // measure 15
0000
1200
0000
0000
0310
0001
0000
1000
,  // measure 16
0000
1020
0000
0130
0001
4000
0000
0000
,  // measure 17
3000
1200
0000
0000
0310
0001
0000
1000
,  // measure 18
0000
1002
0000
0000
0013
0100
0000
1000
,  // measure 19
0000
0000
2020
0000
0000
0000
3030
0000
0000
0000
0010
0100
0010
0000
1000
0000
,  // measure 20
0001
0020
0000
0130
1000
0004
0000
0000
,  // measure 21
0000
0000
0003
0000
2000
0000
3001
0000
04M0
0000
0310
2000
0M00
3004
0000
1003
,  // measure 22
01M0
0000
0040
0000
M030
0000
0100
0000
20M0
0000
3001
0200
000M
0340
0000
0130
,  // measure 23
M001
4000
3000
0001
0100
0020
0000
0430
,  // measure 24
0000
0302
0000
1003
0100
4000
0000
3000
,  // measure 25
0000
0001
0020
0000
0130
2000
0000
3001
,  // measure 26
0100
0020
0000
0000
0000
0000
0000
0030
,  // measure 27
0100
0002
0000
1003
0100
0010
0001
1000
,  // measure 28
0010
0000
0100
0010
0100
0000
0001
0000
1000
0000
0100
0000
M000
0000
0040
0000
,  // measure 29
0000
0000
0031
1000
0001
0000
1000
0000
0010
0000
0100
0000
00M0
0000
0004
0000
,  // measure 30
0000
0003
1000
0010
0100
0020
0000
0130
,  // measure 31
0001
4000
0000
3000
1M20
0030
021M
0300
,  // measure 32
M102
0000
4003
0000
3010
0200
0000
0301
,  // measure 33
1000
1200
0000
0310
0001
2000
0000
3010
,  // measure 34
0100
0000
0001
1000
0010
0100
0001
2000
,  // measure 35
0000
3200
0000
1300
0001
0100
0010
1000
,  // measure 36
0001
0000
0010
0001
0010
0000
0100
0000
1000
0000
0001
0000
00M0
0000
0400
0000
,  // measure 37
0000
0310
1000
0001
0010
0100
M000
0040
,  // measure 38
0000
0030
0001
1000
0010
0200
0000
0301
,  // measure 39
1000
0100
0000
0000
M120
0030
0M12
0003
,  // measure 40
20M1
0000
320M
0000
0310
M002
0000
1003
,  // measure 41
0010
020M
0000
0301
1000
01M0
0000
1000
,  // measure 42
0001
0020
0000
0000
0000
0130
1000
0001
,  // measure 43
0100
0020
0000
1030
0002
0000
2003
0000
,  // measure 44
3200
032M
M000
023M
,  // measure 45
1300
0001
0100
0010
1000
0001
0010
0100
,  // measure 46
0000
2100
0000
3000
0001
0100
0010
1000
,  // measure 47
0000
1002
0000
0003
0204
0000
0000
0000
,  // measure 48
0000
0000
0000
0303
0000
0000
0000
0000
;

//---------------dance-single - Expert----------------
#NOTES:
     dance-single:
     Ace Of Hearts (2012):
     Challenge:
     10:
     0.747,0.240,0.540,0.753,0.371: // measure 1
0000
0000
0000
0000
,  // measure 2
200M
3010
0M10
0100
M001
1000
020M
0300
,  // measure 3
0M20
0032
M023
0230
230M
3002
02M3
0320
,  // measure 4
M230
0000
0000
0000
03M1
0000
1000
0000
020M
0000
0000
0000
0310
0001
0010
0100
,  // measure 5
2000
000M
3M10
0210
,  // measure 6
0301
1000
0000
010M
0000
0140
0000
0000
,  // measure 7
0031
0100
0000
0M01
0000
2001
0000
0000
,  // measure 8
3010
0100
0000
0M00
0001
0020
0000
0130
,  // measure 9
1000
0000
0004
0000
0000
0000
1003
0000
1100
0000
0100
0010
0100
0000
1000
0000
,  // measure 10
1001
0000
0001
0000
0100
0000
0010
0000
1010
0000
1000
0001
1000
0000
0100
0000
,  // measure 11
0010
0000
0001
0000
1000
0000
0001
0100
0001
0000
1000
0100
1000
0000
0001
0000
,  // measure 12
1000
0000
0010
0000
0100
0000
0001
0000
1M00
0000
01M0
0000
001M
0004
M000
0000
,  // measure 13
00M3
1001
0020
000M
0000
0000
0230
0000
0320
0000
2030
0000
3002
0000
0023
0000
,  // measure 14
0230
0300
2100
0000
0000
0000
3001
0100
0010
0000
1000
0100
0010
0000
0001
0000
,  // measure 15
1000
0000
1020
0000
0000
0000
1030
0001
0100
0000
0010
0100
0001
0000
1000
0000
,  // measure 16
0100
0000
1000
0100
0010
0001
0010
0100
1000
0000
0001
0100
0010
0000
0100
0000
,  // measure 17
0001
0000
2001
0000
0000
0000
3010
0100
0001
0000
1000
0100
0010
0000
0001
0000
,  // measure 18
1000
0000
1200
0000
0000
0000
0310
0100
1000
0000
0001
0100
0010
0000
1000
0000
,  // measure 19
0001
0000
0201
0000
0000
0000
0310
0100
0001
0000
1000
0100
0010
0000
0001
0000
,  // measure 20
1000
1020
0000
0130
0001
0021
0000
0130
,  // measure 21
1000
0000
0001
0000
M200
0000
031M
1000
0M01
0000
M010
0100
100M
0100
M010
0001
,  // measure 22
10M0
0100
001M
0100
20M0
0000
3M01
0200
031M
1000
0M20
0130
M010
2000
3M01
0010
,  // measure 23
010M
0000
1000
0100
0010
0001
0010
0100
2000
0000
0000
0000
3001
0000
0000
0000
0100
0000
0000
0000
0010
0000
0000
0000
0M0M
0000
0000
0000
4020
0000
0000
0000
,  // measure 24
0030
3002
0000
0013
0100
4000
0002
3000
,  // measure 25
0000
0000
0103
0010
2000
0000
3001
0000
0010
0000
0210
0000
0000
0000
1300
0000
,  // measure 26
0001
0000
0201
0000
0000
0000
0310
0000
1000
0000
0001
0000
0010
0000
0100
1000
,  // measure 27
0001
0000
0000
0021
0000
0000
0000
0000
0000
0130
0000
0000
1000
0000
0000
0001
0000
0000
2000
0000
0000
3001
0010
0100
,  // measure 28
1000
0000
0001
0100
0020
0000
0130
0000
0001
0000
1000
0000
0M0M
0000
1040
0000
,  // measure 29
0000
0000
0130
0001
1000
0000
0100
0000
0010
0000
0001
0000
M0M0
0000
0401
0000
,  // measure 30
0000
0300
0010
1000
0001
0020
0000
0130
,  // measure 31
1000
1004
0000
0003
0021
003M
0210
03M0
,  // measure 32
2100
0M00
3004
0000
1003
12M0
0000
0310
,  // measure 33
0001
0000
M201
0000
0000
0000
0310
0000
1000
0000
120M
0000
0000
0000
0310
0001
,  // measure 34
1000
0010
0110
0100
0101
0001
1001
1000
,  // measure 35
0000
0000
1200
0000
0000
0000
0310
0000
0002
0000
1003
0100
0010
0100
1000
0001
,  // measure 36
0010
0100
0010
0001
1000
0000
0010
0000
0100
0000
0001
0000
MM00
0000
0041
0000
,  // measure 37
0000
0130
1100
1000
0001
0101
00MM
0040
,  // measure 38
0000
0030
2010
3001
0010
0210
0000
1300
,  // measure 39
0001
0401
0000
0300
1020
M030
0210
03M0
,  // measure 40
0104
0000
0M00
0003
2001
0000
000M
0000
3100
0000
0120
0000
M000
0000
0031
0000
,  // measure 41
1000
1200
M000
0310
0001
0101
000M
0010
,  // measure 42
1000
0200
0020
0030
1300
0001
0100
0001
,  // measure 43
1000
0000
1020
0000
0000
0000
0130
0000
0001
0000
1000
0010
0100
0001
0100
0010
,  // measure 44
1000
0000
0000
0010
0000
0000
0100
0000
0000
0001
0000
0000
20M0
0000
0000
0000
0000
0000
0M00
0000
0000
0000
0000
0000
000M
0000
0000
0000
0000
0000
00M0
0000
0000
0000
0000
0000
0M00
0000
0000
3001
0000
0000
1000
0000
0000
0001
0010
0100
,  // measure 45
1000
0000
0001
0100
0010
1000
0001
0100
0001
0000
1000
0000
0001
0000
0011
0000
,  // measure 46
00M0
0000
1000
0010
0100
0010
1000
0001
0010
0000
0100
0000
1000
0000
1010
0000
,  // measure 47
00M0
0002
0000
0003
0024
0000
0000
0000
,  // measure 48
0000
0000
0000
0033
0000
0000
0000
0000
;

//---------------dance-single - Medium----------------
#NOTES:
     dance-single:
     Ace Of Hearts (2012):
     Medium:
     7:
     0.394,0.160,0.000,0.810,0.022: // measure 1
0000
0000
0000
0000
,  // measure 2
M001
0010
0001
0000
100M
0010
1000
0000
,  // measure 3
0M02
0023
0230
0000
230M
0000
3002
0000
,  // measure 4
0203
0000
0300
0000
002M
0000
1030
0001
,  // measure 5
2M00
0000
3010
2000
,  // measure 6
3001
0010
0000
0001
0000
2000
0000
0000
,  // measure 7
3001
0100
0000
0001
0000
2000
0000
0000
,  // measure 8
3001
0010
0000
0000
0100
2000
0000
0000
,  // measure 9
3001
0040
0000
0000
0030
0000
0002
0000
,  // measure 10
1003
0010
0000
1000
0000
0002
0000
0000
,  // measure 11
1003
0001
0000
0100
0000
0020
0000
0030
,  // measure 12
0000
1000
0001
0000
1000
0200
000M
00M0
,  // measure 13
0300
0020
0000
0000
0130
1000
0000
0001
,  // measure 14
0000
0200
0000
0000
0310
1000
0000
0001
,  // measure 15
0000
0020
0000
0000
0130
1000
0000
0002
,  // measure 16
0000
2003
0000
0000
3001
0400
0000
0300
,  // measure 17
0000
0020
0000
0000
0130
0001
0000
1000
,  // measure 18
0000
0200
0000
0000
0310
0001
0000
1000
,  // measure 19
0000
0020
0000
0030
0000
1000
0010
0000
,  // measure 20
1000
0001
0000
0000
0010
0200
0000
0000
,  // measure 21
0000
0000
0300
0000
0000
0000
1000
0000
0002
0000
0000
1003
0000
1000
0000
0000
,  // measure 22
0010
0000
0010
0000
0M00
0000
0100
0000
0200
0000
0000
0301
0000
0001
0000
0000
,  // measure 23
1000
1000
0000
0002
0000
0023
0000
0230
,  // measure 24
0000
2300
0000
3002
0000
0203
0000
0300
,  // measure 25
0000
0010
0200
0000
0000
0302
0000
1003
,  // measure 26
0010
2000
0000
0000
0000
0000
3000
0000
,  // measure 27
0001
0200
0000
0000
0000
0000
0300
0000
,  // measure 28
0000
0010
2000
0000
3001
0100
0000
0040
,  // measure 29
0000
1030
0001
0000
1000
0100
0000
0040
,  // measure 30
0000
0030
0200
0000
0310
0002
0000
0000
,  // measure 31
1003
0100
0000
0000
002M
0000
M230
0000
,  // measure 32
230M
0000
3002
0000
1003
0200
0000
0000
,  // measure 33
0310
0002
0000
0000
0013
0200
0000
0300
,  // measure 34
0000
0000
0010
0001
0010
0000
0200
0000
,  // measure 35
0000
2300
0000
0000
0000
0000
3000
0000
,  // measure 36
0000
0010
0200
0000
0301
2000
0000
3040
,  // measure 37
0000
0130
0002
0000
1003
0200
0000
4300
,  // measure 38
0000
3000
0002
0000
0013
0200
0000
0000
,  // measure 39
1300
0001
0000
0000
200M
0000
3M20
0000
,  // measure 40
023M
0000
0302
0000
1003
0200
0000
0000
,  // measure 41
0310
0002
0000
0000
1003
0100
0000
0010
,  // measure 42
0001
0020
0000
0000
0000
0000
0000
0000
,  // measure 43
0000
0030
0000
0000
0200
0000
2300
0000
,  // measure 44
3002
M203
00M0
M302
,  // measure 45
0003
0000
0000
0000
2000
0000
3010
0100
,  // measure 46
0000
0002
0000
0000
0023
0000
0130
1000
,  // measure 47
0000
0002
0000
0000
0200
0000
0000
0000
,  // measure 48
0000
0000
0000
0303
0000
0000
0000
0000
;

//---------------dance-single - Easy----------------
#NOTES:
     dance-single:
     Ace Of Hearts (2012):
     Easy:
     5:
     0.207,0.080,0.011,0.360,0.000: // measure 1
0000
0000
0000
0000
,  // measure 2
0001
0001
0001
0000
,  // measure 3
0100
0100
0200
0000
,  // measure 4
0300
0000
0010
0010
,  // measure 5
0020
0000
0030
2000
,  // measure 6
0000
3001
0000
0001
0000
0002
0000
0000
,  // measure 7
0000
0103
0000
0100
0000
0200
0000
0000
,  // measure 8
0000
0310
0000
0000
0000
0020
0000
0000
,  // measure 9
0000
0030
0000
2000
,  // measure 10
0000
3001
0000
0001
0000
0002
0000
0000
,  // measure 11
0000
0013
0000
0010
0000
0020
0000
0000
,  // measure 12
0030
0000
0001
0000
0000
0002
0M00
0000
,  // measure 13
0003
2000
0000
0000
0000
3100
0000
0100
,  // measure 14
0000
0200
0000
0000
0000
1300
0000
1000
,  // measure 15
0000
2000
0000
0000
0000
3001
0000
0001
,  // measure 16
0000
0002
0000
0000
0000
0003
0000
0000
,  // measure 17
0000
0020
0000
0000
0000
0031
0000
0001
,  // measure 18
0000
0002
0000
0000
0000
1003
0000
1000
,  // measure 19
0000
2000
0000
3000
0000
0000
0010
0000
,  // measure 20
0000
0020
0000
0000
0000
0030
0000
0000
,  // measure 21
0000
0000
0100
0100
,  // measure 22
0100
00M0
0001
0001
,  // measure 23
0001
0000
0000
0000
0000
1000
0000
0000
,  // measure 24
0000
0200
0000
0000
0000
0300
0000
0000
,  // measure 25
0000
0000
0010
0000
0000
0010
0000
0000
,  // measure 26
0000
0020
0000
0000
0000
0000
0030
0000
,  // measure 27
0000
0002
0000
0000
0000
0000
0003
0000
,  // measure 28
0000
0000
1000
0000
0000
1000
0000
0000
,  // measure 29
0000
0000
0001
0000
0000
0001
0000
0000
,  // measure 30
0000
0200
0000
0000
,  // measure 31
0000
0300
0000
0000
0001
00M0
0001
0000
,  // measure 32
0000
0000
0100
0000
0000
0100
0000
0000
,  // measure 33
0000
0010
0000
0000
0000
0020
0000
0000
,  // measure 34
0030
1000
1000
1000
,  // measure 35
0000
0002
0000
0000
0000
0000
0003
0000
,  // measure 36
0000
0000
0100
0000
0000
0100
0000
0000
,  // measure 37
0000
0000
0010
0000
0000
0010
0000
0000
,  // measure 38
0000
0000
1000
0000
0000
1000
0000
0000
,  // measure 39
0000
1000
0000
0000
0001
0M00
0001
0000
,  // measure 40
0000
0000
0020
0000
0000
0230
0000
0000
,  // measure 41
0000
2300
0000
0000
0000
3001
0000
0000
,  // measure 42
0000
0020
0000
0000
0000
0000
0000
0000
,  // measure 43
0000
0030
0000
0000
0001
0000
0001
0000
,  // measure 44
0000
2000
000M
3200
,  // measure 45
0300
0000
0000
0000
0010
0000
0000
0010
,  // measure 46
0000
0000
0000
0000
0001
0000
0000
0001
,  // measure 47
0000
0000
2002
0000
,  // measure 48
0000
0000
0000
3003
0000
0000
0000
0000
;

//---------------dance-single - Novice----------------
#NOTES:
     dance-single:
     Ace Of Hearts (2012):
     Beginner:
     2:
     0.148,0.053,0.011,0.270,0.000: // measure 1
0000
0000
0000
0000
,  // measure 2
0002
0000
0003
0000
,  // measure 3
0200
0000
0000
0000
,  // measure 4
0300
0000
0020
0000
,  // measure 5
0030
0000
0010
1000
,  // measure 6
0000
1000
0000
1000
,  // measure 7
0000
1000
0000
0001
,  // measure 8
0000
0001
0000
0002
,  // measure 9
0000
0003
0000
0010
,  // measure 10
0000
0010
0000
0010
,  // measure 11
0000
0010
0000
0100
,  // measure 12
0000
0200
0000
0000
,  // measure 13
0300
1000
0000
1000
,  // measure 14
0000
1000
0000
1000
,  // measure 15
0000
0001
0000
0001
,  // measure 16
0000
0002
0000
0003
,  // measure 17
0000
0100
0000
0100
,  // measure 18
0000
0100
0000
0100
,  // measure 19
0000
0010
0000
0010
,  // measure 20
0000
0020
0000
0000
,  // measure 21
0030
0000
1000
2000
,  // measure 22
3000
0000
0001
0002
,  // measure 23
0003
0000
0000
0100
,  // measure 24
0000
0100
0000
0100
,  // measure 25
0000
0001
0000
0001
,  // measure 26
0000
0002
0000
0003
,  // measure 27
0000
2000
0000
3000
,  // measure 28
0000
0020
0000
0030
,  // measure 29
0000
0200
0000
0300
,  // measure 30
0000
0001
0000
0001
,  // measure 31
0000
0001
0000
0001
,  // measure 32
0000
1000
0000
1000
,  // measure 33
0000
2000
0000
3000
,  // measure 34
0000
0020
0000
0000
,  // measure 35
0000
0030
0000
0000
,  // measure 36
0000
2000
0000
3000
,  // measure 37
0000
0002
0000
0003
,  // measure 38
0000
0100
0000
0100
,  // measure 39
0000
0100
0000
0100
,  // measure 40
0000
0001
0000
0001
,  // measure 41
0000
0002
0000
0003
,  // measure 42
0000
0020
0000
0000
,  // measure 43
0000
0030
0000
0100
,  // measure 44
0000
0200
0000
0300
,  // measure 45
0000
0000
2000
0000
,  // measure 46
3000
0000
0002
0000
,  // measure 47
0003
0000
2002
0000
,  // measure 48
0000
0000
0000
3003
0000
0000
0000
0000
;
