#TITLE:My Skateboard Will Go On;
#SUBTITLE:;
#ARTIST:Anamanaguchi;
#TITLETRANSLIT:;
#SUBTITLETRANSLIT:;
#ARTISTTRANSLIT:;
#GENRE:Chiptune;
#CREDIT:Ace Of Hearts;
#BANNER:My Skateboard Will Go On - bn.png;
#BACKGROUND:My Skateboard Will Go On - bg.png;
#LYRICSPATH:;
#CDTITLE:Ace Of Hearts.png;
#MUSIC:My Skateboard Will Go On.ogg;
#OFFSET:2.100;
#SAMPLESTART:31.340;
#SAMPLELENGTH:12.000;
#SELECTABLE:YES;
#DISPLAYBPM:96.000:192.000;
#BPMS:0.000=96.000,20.000=192.000,25.500=384.000,27.500=192.000,41.500=384.000,43.500=192.000,89.500=384.000,91.500=192.000,105.500=386.000,107.500=192.000,121.500=386.000,123.500=192.000,137.500=384.000,139.500=192.000,180.000=384.000,181.000=192.000,182.000=384.000,183.000=192.000,188.000=384.000,189.000=192.000,190.000=384.000,191.000=192.000,196.000=384.000,197.000=192.000,198.000=384.000,199.000=192.000,201.500=384.000,203.500=192.000,239.500=96.000,241.500=192.000,343.500=386.000,345.500=192.000,359.500=384.000,361.500=192.000,375.500=384.000,377.500=192.000,426.000=384.000,427.000=192.000,427.500=384.000,429.500=192.000,455.500=384.000,457.500=192.000,493.500=96.000,495.500=192.000;
#STOPS:25.500=0.156
,26.500=0.156
,41.500=0.156
,42.500=0.156
,89.500=0.156
,90.500=0.156
,105.500=0.156
,106.500=0.156
,121.500=0.156
,122.500=0.156
,137.500=0.156
,138.500=0.156
,180.000=0.156
,182.000=0.156
,188.000=0.156
,190.000=0.156
,196.000=0.156
,198.000=0.156
,201.500=0.156
,202.500=0.156
,343.500=0.156
,344.500=0.156
,359.500=0.156
,360.500=0.156
,375.500=0.156
,376.500=0.156
,426.000=0.156
,427.500=0.156
,428.500=0.156
,455.500=0.156
,456.500=0.156
;
#BGCHANGES:;
#KEYSOUNDS:;

//---------------dance-single - Hard----------------
#NOTES:
     dance-single:
     Ace Of Hearts (2012):
     Hard:
     9:
     0.574,0.268,0.103,1.000,0.026:
0000
0000
0000
0000
,
0004
0000
1003
0100
0040
0000
0430
0000
,
4300
0000
3004
0000
,
4003
0000
3100
0010
0004
0000
4003
0000
,
3040
0000
0430
0000
,
0301
0000
1000
0000
0001
0000
0100
0000
0020
0000
0000
0000
4030
0004
0000
0000
,
0000
3003
0001
M010
0000
010M
0000
21M0
,
0000
3001
0100
0001
1000
0100
0010
0200
,
0000
1300
0001
0020
0000
0130
1000
0001
,
0100
0000
0010
0000
0100
0000
0010
0000
2000
0000
0000
0000
3004
0040
0000
0000
,
0000
0000
0033
M010
0000
010M
0000
21M0
,
0000
3001
0100
0010
0100
0001
1000
0200
,
0000
0310
0100
2000
0000
3002
0000
0000
,
0203
000M
000M
0320
,
2030
0M00
3002
M000
,
0203
00M0
00M0
0320
,
2030
0000
0M00
0000
0M00
3002
0000
0000
,
0023
M000
M000
0230
,
2300
0M00
3002
M000
,
0203
000M
000M
0320
,
2030
0000
00M0
0000
00M0
3002
0000
0000
,
0013
0100
0010
0100
2000
0000
3002
0000
,
1003
0010
0100
M001
0000
1M00
0000
240M
,
0000
0000
0000
0000
0000
3000
0000
0310
,
0001
1000
0100
0010
0004
0000
1003
0400
,
0000
0000
0000
0000
0000
0000
1300
0002
,
0000
0000
0013
M100
0000
100M
0000
2M20
,
0000
0000
0000
3000
0000
0130
0001
2000
,
0000
0000
0000
0000
,
3001
0100
0010
1000
0002
0000
0203
0000
,
0310
1000
0001
10M0
0000
001M
0000
M220
,
0000
0000
0000
0000
0000
0030
0000
0301
,
1000
0010
1000
0001
4000
0000
3100
0040
,
0000
0000
0000
0000
0000
0000
0130
2000
,
0000
0000
3100
100M
0000
M001
0000
0M42
,
0000
0000
0000
0003
0000
0130
1000
0002
,
0000
1003
0010
0200
0000
0301
2000
0000
,
3200
M000
M000
0320
,
0032
0M00
2003
000M
,
3200
00M0
00M0
0320
,
0032
0000
0M00
0000
0M00
2003
0000
0000
,
3020
M000
M000
0230
,
0302
00M0
2003
000M
,
3200
M000
M000
0320
,
0034
4000
0000
0000
0000
0000
0000
0000
0000
0000
0000
0000
3003
0000
0000
0000
,
1100
MMMM
1001
MMMM
,
0002
0000
0023
0000
0230
0000
2300
0000
3002
0000
2003
0000
3200
0000
0320
0030
,
0011
MMMM
1001
MMMM
,
4000
0000
0000
0000
0000
0000
3002
0000
0203
0000
0320
0000
2030
0000
3002
0003
,
0101
0000
MMMM
0000
0110
0000
0100
0002
,
0000
2003
3020
1M30
0000
00M1
0000
M202
,
0000
0000
0003
0320
,
4030
0004
0000
0000
0000
0000
0000
0000
0000
0000
0000
0000
3003
0000
0000
0000
,
0002
0000
0023
0000
,
0032
0000
1003
0200
0000
0000
0320
0000
,
0032
0000
2003
0000
3020
0000
0130
0002
,
0000
0000
0203
0000
,
0320
0000
0000
0000
1030
0001
0000
0200
,
0000
0301
1000
0100
0020
0000
0130
2000
,
0000
0000
0000
0000
0000
0000
3000
1M01
,
M001
0010
010M
0000
20M0
0000
0000
0000
3004
0000
0000
0000
0000
0000
0000
0000
,
0403
0000
0000
0000
0340
0000
0000
0430
,
0000
0302
2003
0000
,
3200
0000
0000
0000
0320
0000
0000
0230
,
0000
1300
0002
0000
4003
0000
0000
0000
,
0000
3010
0000
0400
0000
0000
0302
0000
,
2003
0000
3100
0020
0000
0000
0000
0000
,
0230
0000
0000
0000
2300
0000
3001
0100
,
0001
1000
0100
0010
0004
0000
2003
0000
,
3200
0320
0032
0000
,
2003
0000
3002
0000
,
0000
0000
0203
0000
,
0000
0310
1000
0001
0040
0000
0230
0000
,
2300
3002
2003
0000
,
3200
0000
0340
0000
,
0000
0000
0000
0000
0430
0000
1300
0001
,
0100
0010
0100
0001
4000
0000
3200
0000
,
0320
0032
4003
0000
,
3004
0000
0403
0000
,
0000
0000
0304
0000
,
0000
1003
0100
0010
0002
0000
4003
0000
,
3002
0203
0320
0000
,
2030
0000
0000
0000
3002
0013
0100
0100
,
1000
0000
1000
0000
0001
0000
0001
0000
4000
0400
0000
0000
0000
0000
0000
0000
,
0000
0000
0000
3300
1000
0001
0100
0100
,
0002
0000
2003
0000
3100
0010
0100
10M0
,
0000
M001
0000
02M2
0000
0000
0000
0000
,
0000
0003
0000
0310
1000
0001
0010
0001
,
4000
0000
3001
0400
0000
0000
0000
0000
,
0000
0000
0310
2000
0000
0000
3001
0M10
,
0000
00M1
0000
4M02
0000
0000
0000
0003
,
0000
3100
0010
0002
0000
0000
0000
0000
,
0000
0000
0000
0000
1003
0010
1000
0001
,
0400
0000
0302
0000
1003
0010
1000
0M01
,
0000
M010
0000
022M
0000
0000
0000
0000
,
0000
0030
0000
1300
0001
0100
0010
1000
,
0002
0000
1003
0020
0000
0000
0130
M001
,
0000
10M0
0000
0M01
0000
010M
0020
0030
,
1000
0001
0010
0002
0000
0000
0000
0000
,
1003
0010
0000
0400
0000
0000
0000
0000
,
0000
0000
0300
0002
,
2003
3200
0320
0230
,
2300
0000
3002
0000
0000
0103
0010
1000
,
0002
2003
3002
0023
,
0230
2300
3001
0020
,
0032
2003
3200
0320
,
0032
0000
2003
0000
301M
M000
01M0
M001
,
00M0
100M
0M00
0200
0000
0000
0310
0000
,
0001
0010
0200
0000
1300
0001
0100
0010
,
0100
0001
1000
0100
0020
0230
2300
3002
,
0203
0320
0230
0302
1003
0010
1000
0001
,
0010
0001
1000
0010
4000
0000
0000
3001
,
0010
0001
1000
0010
0100
0001
1000
0100
,
0010
0100
1000
0004
0000
1003
0100
100M
,
0000
0M01
0000
M202
0000
0000
0000
0000
,
0003
0000
0000
0000
0320
0000
0000
0000
4030
0004
0000
0000
0000
0000
0000
0000
,
3003
MMMM
0002
0000
,
0023
0000
0000
0000
0230
0000
0310
0002
,
0000
0000
0000
0000
2000
0003
0000
0000
3020
0000
0000
0000
0230
0000
0000
0000
,
0302
0000
1003
0020
0000
0000
0000
0000
,
0230
0000
0302
0000
,
0103
0010
0000
2000
0000
3001
0010
0100
,
2000
0000
3001
0200
0000
0000
0000
0000
,
0000
0000
0000
0000
0300
0000
011M
0000
0M10
1000
00M1
0000
M200
0000
0000
0000
,
0340
0000
4030
0000
,
3004
0000
0000
0403
0000
0000
0302
0000
,
4003
0000
3400
0000
,
0340
0000
0000
0230
0000
1300
0002
0000
,
4003
0000
0000
0000
0000
3001
0000
0400
,
0000
0000
0302
0000
2003
0000
3100
0020
,
0000
0000
0230
0000
,
2300
0000
3001
0010
0001
1000
0010
0100
,
0002
0M00
0M00
2003
,
3020
000M
0230
M000
,
0302
0M00
0M00
2003
,
3020
0000
000M
0000
0000
0230
0000
0000
,
0302
M000
M000
2003
,
3020
000M
2030
00M0
,
3200
M000
M000
0320
,
0034
4000
0000
0000
0000
0000
0000
0000
0000
0000
0000
0000
3003
0000
0000
0000
,
1000
0100
1000
0100
0020
0000
0230
0000
,
1300
0001
1000
0001
0010
0001
2000
0000
,
3010
0100
0010
0100
0002
0000
1003
0001
,
4000
0040
0000
0000
0000
0000
0000
0000
0000
0000
0000
0000
3030
0000
0000
0000
,
0010
0100
0010
0100
0002
0000
2003
0000
,
3001
0010
0001
0010
0100
0010
0002
0000
,
1003
0100
1000
0100
0020
0000
0130
1000
,
0001
0100
0001
0100
0010
1000
0001
0000
,
0402
0000
0000
0300
,
0M03
0000
0000
0000
;

//---------------dance-single - Expert----------------
#NOTES:
     dance-single:
     Ace Of Hearts (2012):
     Challenge:
     11:
     0.925,0.612,0.370,0.862,0.411: // measure 1
0000
0000
0000
0000
,  // measure 2
1000
1000
0100
0010
0001
0001
1000
1000
,  // measure 3
0010
0010
0010
0010
0100
0100
0100
0100
,  // measure 4
0001
0001
1000
0100
0010
0010
0100
0100
,  // measure 5
1000
1000
1000
1000
0001
0001
0001
0001
,  // measure 6
1000
0100
1000
0100
0010
0001
0010
0001
2000
0000
0000
0000
3010
0100
0010
0100
,  // measure 7
0001
0100
0001
0100
0010
0000
1M10
0000
0000
0000
1M0M
0000
0000
0000
22M0
0000
,  // measure 8
3000
0000
0310
0000
0001
0000
1000
0000
0010
0000
0100
0001
0100
0000
0120
0000
,  // measure 9
0000
0000
1030
0001
1000
0000
0100
0000
0010
0100
0010
0000
0001
0010
0100
0010
,  // measure 10
0001
0000
1000
0000
1010
0000
0010
0000
0210
0000
0000
0000
0301
0100
0010
1000
,  // measure 11
0010
0100
0001
1000
0001
0000
M011
0000
0000
0000
001M
0000
0000
0000
M220
0000
,  // measure 12
0030
0000
1300
0100
1000
0000
0001
0000
0100
0000
0010
0100
0010
0000
2010
0000
,  // measure 13
0000
0000
3001
0010
0001
0000
0010
0000
0110
0000
0100
0000
1100
0000
1000
0000
,  // measure 14
1M04
0M10
10M0
40M3
,  // measure 15
304M
010M
4M30
0M01
,  // measure 16
340M
001M
100M
M340
,  // measure 17
M034
0000
0000
0000
1003
0010
1000
0010
0100
0001
0100
0001
1000
0100
1000
0100
,  // measure 18
0040
M100
M001
0430
,  // measure 19
4300
00M1
34M0
001M
,  // measure 20
430M
0M01
0M10
30M4
,  // measure 21
02M3
0000
0000
0000
0310
1000
0010
1000
0001
0100
0001
0100
0010
0100
0010
0100
,  // measure 22
0001
0000
1000
0000
0100
0000
0010
0000
0012
0000
0000
0000
1003
0100
0010
0100
,  // measure 23
1000
0001
0100
M110
0000
1M00
0000
240M
,  // measure 24
0000
0000
0000
0000
0000
3000
0000
1300
,  // measure 25
0001
0100
1000
0100
0004
0000
1003
0400
,  // measure 26
0010
0000
1000
0000
0320
0000
0130
2000
,  // measure 27
3001
0100
0010
101M
0000
00M1
0000
M022
,  // measure 28
0000
0000
0000
0000
0000
0000
0003
0000
0000
0000
0130
1000
0100
0000
2000
0000
,  // measure 29
0000
0000
3001
0000
0101
0000
0100
0000
0010
0000
0100
0010
1000
0010
0100
0000
,  // measure 30
0101
0001
1001
1000
1020
0000
0130
0001
,  // measure 31
1000
0010
0100
M101
0000
001M
0000
M220
,  // measure 32
0000
0000
0000
0000
0000
0000
0030
0000
0000
0000
0301
1000
0001
0000
0010
0000
,  // measure 33
1000
0000
0010
0000
0001
0000
1000
0010
1000
0000
0001
0000
1000
0000
0010
0100
,  // measure 34
0010
1000
0001
0010
0210
0000
1300
0001
,  // measure 35
0100
0010
1000
10M1
0000
M100
0000
024M
,  // measure 36
0000
0000
0000
0000
0000
0000
0300
0000
0000
0000
1030
0001
1000
0000
1200
0000
,  // measure 37
0000
0000
0310
0000
0100
0000
1000
0100
1000
0000
0001
0010
0100
0010
0002
0003
,  // measure 38
4001
0M10
0M01
340M
,  // measure 39
034M
010M
0M34
1M00
,  // measure 40
0M43
M100
M001
M230
,  // measure 41
0310
0000
0001
0000
1000
0000
0010
1000
0010
0100
0010
0100
0001
0100
0001
0100
,  // measure 42
0040
100M
010M
403M
,  // measure 43
3M04
0M10
4M03
0M10
,  // measure 44
340M
001M
100M
032M
,  // measure 45
0032
0000
1003
0100
0010
0100
1000
0001
0010
0100
0010
0001
1000
0001
1000
0000
,  // measure 46
1010
0000
0000
0M0M
0000
M0M0
0000
0000
0101
0000
0000
0000
MMMM
0000
0000
0000
,  // measure 47
0002
0000
2003
0000
3200
0000
0302
0000
0203
0000
2300
0000
3002
0000
2003
3000
,  // measure 48
1010
0000
0000
0M0M
0000
M0M0
0000
0000
0101
0000
0000
0000
MMMM
0000
0000
0000
,  // measure 49
0440
0000
0000
0000
0300
0000
1030
0000
0001
0000
0010
0100
1000
0000
0001
0000
,  // measure 50
0101
0000
0000
M0M0
0000
0M0M
0000
0000
1010
0000
0MMM
0000
2000
0000
3002
0000
,  // measure 51
0000
0000
0023
0000
0230
0300
110M
0000
0000
0000
1M01
0000
0000
0000
M202
0000
,  // measure 52
0003
0000
0310
0000
1000
0000
0001
0010
0001
0000
1000
0000
0020
0000
0000
0000
,  // measure 53
0130
0001
0100
0010
1000
0010
0100
0001
1000
0100
0010
0001
0010
0100
1000
0001
,  // measure 54
2000
3100
0010
0001
2000
3010
0100
0001
,  // measure 55
0020
0130
2000
3002
0103
0010
2000
3001
,  // measure 56
0020
0130
2000
3001
0200
0310
2000
3002
,  // measure 57
0103
0000
0010
0000
1000
0000
0001
0100
0001
0000
1000
0000
0100
0000
0010
0100
,  // measure 58
0020
0000
0000
0000
0230
1300
0MM0
1002
,  // measure 59
0000
0013
1000
0010
0002
0000
0013
0200
,  // measure 60
0000
0000
1300
0000
0001
0100
0001
0000
1000
0000
0100
0000
0010
0000
M011
0000
,  // measure 61
0M01
1000
001M
0000
M200
0000
00M0
0000
0304
0000
0000
0000
0000
0000
0000
0000
,  // measure 62
4003
0000
0000
0000
3040
0000
0000
0430
,  // measure 63
0000
0302
2003
0000
,  // measure 64
3200
0000
0000
0000
0000
0000
0000
0000
0320
0000
0000
0000
0000
0000
0130
1000
,  // measure 65
0100
0010
0001
0010
0001
1000
0001
0000
0040
0000
0000
0000
0000
0000
0000
0000
,  // measure 66
0000
0130
0000
40MM
0000
0000
3002
0000
,  // measure 67
0203
0000
0301
2000
0000
0000
0000
0000
,  // measure 68
3002
0000
0000
0000
0000
0000
0000
0000
0203
0000
0310
1000
0010
0000
0100
0000
,  // measure 69
0001
1000
0001
1000
0001
0000
1000
0000
0040
0000
0130
0000
0002
0000
1003
0000
,  // measure 70
0200
0310
0002
1003
0020
0130
0010
1000
,  // measure 71
0002
0013
0100
1000
0002
0103
0010
0100
,  // measure 72
0001
0000
1000
0000
0100
0000
0010
0000
0002
0000
1003
0000
0010
0100
0010
0100
,  // measure 73
0010
1000
0001
1000
0040
1030
0002
0013
,  // measure 74
0200
0310
0002
1003
0020
0130
0001
1000
,  // measure 75
0200
0310
0100
1000
1004
0000
1000
0000
,  // measure 76
0100
0000
0000
0000
0100
0000
0000
0000
1003
0000
0010
0100
0010
1000
0010
1000
,  // measure 77
0001
0010
0001
0010
0100
1000
0100
1000
0004
0000
0103
0000
0020
0000
0130
0000
,  // measure 78
0002
1003
0200
0310
0002
0013
0100
1000
,  // measure 79
0002
0103
0010
1000
0002
0013
0100
1000
,  // measure 80
0100
0010
0001
1000
0200
1300
0001
0100
,  // measure 81
0010
0000
0100
0000
0001
1000
0001
1000
0002
0000
0013
0000
0200
0000
0310
0000
,  // measure 82
0002
1003
0020
0130
0002
1003
0100
0010
,  // measure 83
0002
1003
0001
0010
M410
0000
001M
0000
,  // measure 84
M010
0000
0000
0000
001M
0000
0000
0000
0310
0001
0010
0001
1000
0010
1000
0010
,  // measure 85
0100
0001
0100
0001
1000
0100
0010
0001
1M00
0010
1000
0000
00M1
0000
0010
0000
,  // measure 86
M200
0000
031M
0000
00M2
0000
1M03
0000
002M
0000
2M30
0000
30M2
0003
0011
0000
,  // measure 87
0000
011M
0000
22M0
0000
0000
0000
0300
,  // measure 88
0000
0000
3001
0100
0001
0000
1000
0000
0100
0000
0001
0000
0100
0000
1000
0000
,  // measure 89
0004
0000
1003
0400
0010
0000
1000
0000
,  // measure 90
0310
0001
1000
0010
0100
0001
1000
1M10
,  // measure 91
0000
0000
10M1
0000
0000
0000
M042
0000
0003
0000
0130
1000
0100
0000
0010
0000
,  // measure 92
0001
1000
0001
1000
0001
0000
0020
0000
0000
0000
0130
0000
1100
0000
1000
0000
,  // measure 93
0001
0000
0100
0010
0100
0010
0100
0000
0001
0000
1000
0000
1010
0000
0010
0000
,  // measure 94
020M
00M0
M301
1000
0100
0010
0100
110M
,  // measure 95
0000
0M01
0000
M202
0000
0000
0000
0000
,  // measure 96
0000
0003
0000
0310
1000
0010
0001
0010
,  // measure 97
2000
0000
0000
0000
3001
0000
0010
0100
0010
0001
0010
0001
1000
0000
00M1
0000
,  // measure 98
0101
0000
M100
0000
0010
0000
1M00
0000
0001
0000
1M00
0000
002M
0030
0110
0000
,  // measure 99
M100
01M1
M001
20M1
3100
0010
0001
1000
,  // measure 100
0001
0000
0010
0000
0M0M
0000
0410
0000
0000
0000
1300
0000
1001
0000
0001
0100
,  // measure 101
0010
0100
0001
1000
0010
1000
0001
0000
0021
0000
0000
0000
0230
0000
0000
0000
,  // measure 102
2300
3002
0203
2300
,  // measure 103
3200
0000
0302
0000
0000
0013
1000
0010
,  // measure 104
0002
2003
3200
0302
,  // measure 105
0203
0000
2300
0000
3001
0100
0020
0000
,  // measure 106
0230
0000
0302
0000
1003
0100
0010
0100
,  // measure 107
1000
0000
0001
0000
0100
0000
0010
0000
201M
3000
0000
0000
1000
0000
20M2
3003
,  // measure 108
0000
0000
0M2M
0030
0000
0000
M202
0000
0000
0000
0303
0000
0002
0000
0003
0000
,  // measure 109
1000
0010
0200
0300
0101
0001
1000
0100
,  // measure 110
0110
0010
0001
1000
0001
0010
1000
0010
,  // measure 111
0001
0100
1000
0100
0101
0001
1000
0010
,  // measure 112
0110
0000
0010
0000
1000
0000
0001
0000
0040
0000
0000
0000
0000
0000
0031
1000
,  // measure 113
0001
1000
0010
0100
0101
0001
1000
0100
,  // measure 114
0110
0000
0010
0000
0M02
0000
20M3
0000
0000
0000
320M
0000
0320
0030
M011
0000
,  // measure 115
0000
10M0
0000
2002
3000
0103
0010
1000
,  // measure 116
0001
0000
0010
0000
0100
0000
1000
0000
0001
0010
0001
0010
0100
1000
0100
1000
,  // measure 117
00M4
0M00
M000
0M03
20M0
3001
0100
0010
,  // measure 118
2000
3001
0010
0100
0020
0031
2000
3020
,  // measure 119
0130
0001
2000
3100
0020
0130
2000
3001
,  // measure 120
0200
0000
0310
0000
2000
0000
3002
0000
0013
0000
0100
0000
1000
0000
0100
0010
,  // measure 121
0100
0000
1000
0000
0100
0000
1000
0001
2000
0000
0000
0000
0000
0000
0000
0000
,  // measure 122
3001
MM10
0000
0210
0000
1300
0100
0001
,  // measure 123
0200
0000
0000
0000
1300
0000
0002
0000
0000
0000
1003
0010
1000
0000
0001
0000
,  // measure 124
0010
0000
0001
0000
1000
0000
1M10
0000
001M
0100
M001
0000
20M0
0200
030M
0000
,  // measure 125
3004
0000
0043
0000
,  // measure 126
0034
0000
0000
4003
0000
0000
3200
0000
,  // measure 127
0340
0000
0034
0000
,  // measure 128
4003
0000
0000
0000
0000
0000
3010
0100
0010
0100
0001
0100
0001
1000
0001
1000
,  // measure 129
0004
0000
0000
0000
0000
1003
0M0M
0040
,  // measure 130
0000
0000
0230
0000
0302
0000
1003
0020
,  // measure 131
0000
0000
0230
0000
,  // measure 132
0302
0000
0000
0000
1003
0000
0100
0000
0010
0100
0010
0100
1000
0001
1000
0001
,  // measure 133
0040
M001
M100
0M34
,  // measure 134
4M03
0M10
3M04
10M0
,  // measure 135
04M3
M001
M010
M304
,  // measure 136
4003
0000
0000
0000
3010
0100
0010
0100
0001
0100
0001
0100
0010
1000
0010
1000
,  // measure 137
0M04
0M10
0M10
4M03
,  // measure 138
304M
100M
043M
M010
,  // measure 139
M304
10M0
01M0
40M3
,  // measure 140
3001
0010
0001
0010
0100
1000
0100
1000
0001
0100
0001
0100
0010
1000
0010
1000
,  // measure 141
0001
0010
100M
0010
M002
0000
1003
0010
,  // measure 142
100M
0000
0010
0000
M001
0000
0010
0100
0010
0000
1000
0000
2000
0000
0000
0000
,  // measure 143
3001
0010
100M
0010
M002
0000
1003
0001
,  // measure 144
1000
0000
0100
0000
0010
0001
0010
0001
1000
0010
0100
0010
1000
0001
1000
0000
,  // measure 145
0001
0100
100M
0100
M002
0000
1003
0100
,  // measure 146
100M
0000
0100
0000
M001
0000
0100
0010
0100
0000
1000
0000
2000
0000
0000
0000
,  // measure 147
3001
0000
0100
0000
100M
0000
0100
0000
M002
0000
0000
0000
1003
0000
0100
0010
,  // measure 148
0100
0000
1000
0000
0001
0000
0100
0010
0100
0001
0100
0001
1000
0001
1000
0000
,  // measure 149
24MM
000M
00M0
030M
,  // measure 150
3M0M
0000
0000
0000
;

//---------------dance-single - Medium----------------
#NOTES:
     dance-single:
     Ace Of Hearts (2012):
     Medium:
     7:
     0.471,0.458,0.046,1.000,0.000: // measure 1
0000
0000
0000
0000
,  // measure 2
2000
0000
3001
0100
0002
0000
2003
0000
,  // measure 3
3020
0030
0200
0300
,  // measure 4
0002
0000
0013
0100
0020
0000
0032
0000
,  // measure 5
2003
3000
0200
0300
,  // measure 6
4000
0000
0000
0000
,  // measure 7
3000
0000
0000
0001
0000
1000
0000
0002
,  // measure 8
0000
1003
0010
0000
1000
0000
0001
0020
,  // measure 9
0000
0000
0130
1000
0000
0002
0000
0000
,  // measure 10
1003
0010
0200
0000
,  // measure 11
0000
0000
0000
0301
0000
1000
0000
0200
,  // measure 12
0000
0310
0001
0000
1000
0000
0001
0200
,  // measure 13
0000
0310
0000
1000
0000
0002
0000
0000
,  // measure 14
2003
0000
0000
3200
,  // measure 15
0320
0000
0230
0000
,  // measure 16
2300
0000
0000
3002
,  // measure 17
0023
0000
0000
0000
0000
0230
0000
0000
,  // measure 18
2300
0000
0000
3002
,  // measure 19
0023
0000
0032
0000
,  // measure 20
2003
0000
0000
3200
,  // measure 21
0320
0000
0000
0000
0000
0230
0000
0000
,  // measure 22
1300
0001
2000
3001
,  // measure 23
0010
0000
0001
1000
0000
0010
0000
0400
,  // measure 24
0000
0000
0000
0000
0000
0000
0000
0301
,  // measure 25
0000
0000
1000
0000
0002
0000
1003
0400
,  // measure 26
0000
0000
0000
0000
0300
0000
0010
0002
,  // measure 27
0000
0000
1003
0010
0000
0100
0000
0002
,  // measure 28
0000
0000
0000
0000
0003
0000
1000
0200
,  // measure 29
0000
0000
0000
0000
,  // measure 30
0310
0001
0020
0230
,  // measure 31
2300
0000
3001
0100
0000
0010
0000
2000
,  // measure 32
0000
0000
0000
0000
0000
0000
0000
3001
,  // measure 33
0000
0000
0100
0000
0010
0000
0000
0200
,  // measure 34
0000
0000
0000
0000
0300
0000
0001
2000
,  // measure 35
0000
0000
3001
0010
0000
0100
0000
0040
,  // measure 36
0000
0000
0000
0000
0000
0000
0130
2000
,  // measure 37
0000
0000
3001
0200
0000
0000
0320
0000
,  // measure 38
2030
0000
0000
3002
,  // measure 39
0023
0000
0230
0000
,  // measure 40
2300
0000
0000
3002
,  // measure 41
0023
0000
0000
0000
0000
0032
0000
0000
,  // measure 42
2003
0000
0000
3002
,  // measure 43
0023
0000
0230
0000
,  // measure 44
2300
0000
0000
3002
,  // measure 45
0023
0000
0000
0000
0000
0230
0000
0000
,  // measure 46
1300
0000
1001
0000
,  // measure 47
0002
0203
0302
2003
,  // measure 48
3001
0000
0011
0000
,  // measure 49
0040
0000
0230
2300
,  // measure 50
3001
0000
0000
0000
0101
0000
0000
0200
,  // measure 51
0000
0000
0310
1000
0000
0001
0000
2000
,  // measure 52
0000
0000
0000
3020
,  // measure 53
0430
0000
0000
0000
,  // measure 54
0302
0000
2003
0000
,  // measure 55
3200
0000
0310
0002
0000
0000
2003
0000
,  // measure 56
3020
0000
2030
0000
3002
0000
1003
0020
,  // measure 57
0000
0000
0230
0000
,  // measure 58
0302
0000
0000
0000
1003
0010
0000
2000
,  // measure 59
0000
0000
3001
0000
0020
0000
0130
2000
,  // measure 60
0000
0000
0000
0000
0000
0000
0000
3001
,  // measure 61
0020
0030
0200
0000
,  // measure 62
0320
0000
0000
0000
0032
0000
0000
2003
,  // measure 63
0000
3200
2300
0000
,  // measure 64
3002
0000
0000
0000
0023
0000
0000
0230
,  // measure 65
0000
1300
0002
0000
0203
0000
0000
0000
,  // measure 66
0000
0301
0000
2000
0000
0000
3200
0000
,  // measure 67
0320
0000
0130
2000
0000
0000
0000
0000
,  // measure 68
3002
0000
0203
0310
,  // measure 69
1000
0001
0020
0230
,  // measure 70
2300
3002
2003
0000
,  // measure 71
3020
0000
0230
0000
,  // measure 72
0000
0000
0302
0000
,  // measure 73
0000
1003
0020
0230
,  // measure 74
0302
2003
3020
0000
,  // measure 75
0230
0000
0340
0000
,  // measure 76
0000
0000
2030
3001
,  // measure 77
0010
0001
2000
3200
,  // measure 78
0320
0032
4003
0000
,  // measure 79
3004
0000
0043
0000
,  // measure 80
0000
0000
0430
0000
,  // measure 81
1300
0001
2000
3020
,  // measure 82
2030
3002
2003
0000
,  // measure 83
3020
0000
0430
0000
,  // measure 84
0000
0000
0000
0000
,  // measure 85
0000
0000
0300
0000
,  // measure 86
0002
0000
2003
0000
3200
0000
0310
0001
,  // measure 87
0000
0010
0000
0200
0000
0000
0000
0000
,  // measure 88
0000
0000
0000
0320
0000
0000
0031
0000
,  // measure 89
2000
0000
3001
0400
0000
0000
0000
0000
,  // measure 90
0000
0000
0310
2000
0000
0000
3001
0010
,  // measure 91
0000
0100
0000
4000
0000
0000
0000
0000
,  // measure 92
0000
0000
3001
0020
0000
0000
0000
0000
,  // measure 93
0000
0000
0130
2000
,  // measure 94
3002
0000
0203
0000
0302
0000
1003
0010
,  // measure 95
0000
1000
0000
0002
0000
0000
0000
0000
,  // measure 96
0000
0000
0000
0023
0000
0000
0130
0000
,  // measure 97
2000
0000
3001
0020
0000
0000
0000
0130
,  // measure 98
0000
1000
0000
0001
0000
1000
0010
0000
,  // measure 99
2000
0000
3001
0020
0000
0000
0000
0000
,  // measure 100
0031
1000
0000
0400
0000
0000
0000
0000
,  // measure 101
0000
0000
1300
0002
,  // measure 102
0023
0032
2003
3200
,  // measure 103
0320
0000
0032
0000
0000
1003
0100
0000
,  // measure 104
0020
0230
2300
3002
,  // measure 105
0203
0320
0030
0200
,  // measure 106
0302
2003
3002
0203
,  // measure 107
0320
0000
0230
0000
0301
0000
1000
0100
,  // measure 108
0000
0010
0000
0200
0000
0000
2300
0000
,  // measure 109
3002
0000
0203
0300
0110
0000
0000
0000
,  // measure 110
1010
0000
1000
0001
,  // measure 111
0010
0100
1100
0000
,  // measure 112
1001
0000
0004
0000
,  // measure 113
2003
3000
1010
0000
,  // measure 114
0101
0000
0001
2000
0000
0000
3001
0010
,  // measure 115
0000
0100
0000
2000
0000
0000
0000
0000
,  // measure 116
0000
3002
0403
0000
,  // measure 117
0300
0000
0002
0000
,  // measure 118
2003
0000
0000
0000
3200
0000
0310
0002
,  // measure 119
0000
2003
3020
2030
,  // measure 120
3002
0000
0103
0020
0000
0000
0000
0000
,  // measure 121
0230
0000
0302
0000
,  // measure 122
1003
0010
0000
2000
0000
0000
3002
0000
,  // measure 123
0023
0000
0130
2000
0000
0000
0000
0000
,  // measure 124
0000
0000
0000
3001
0200
0000
0300
0000
,  // measure 125
0002
0000
0203
0000
,  // measure 126
0320
0000
0000
2030
0000
0000
3002
0000
,  // measure 127
2003
0000
3200
0000
,  // measure 128
0320
0000
0000
0230
0000
0000
2300
0000
,  // measure 129
3002
0000
0000
0000
0000
1003
0000
0200
,  // measure 130
0000
0000
2300
0000
3002
0000
1003
0020
,  // measure 131
0000
0000
0230
0000
,  // measure 132
0302
1003
0100
1000
,  // measure 133
0002
0000
0000
2003
,  // measure 134
3020
0000
0230
0000
,  // measure 135
0302
0000
0000
2003
,  // measure 136
3020
0000
0000
0000
0000
0230
0000
0000
,  // measure 137
0302
0000
0000
2003
,  // measure 138
3020
0000
0230
0000
,  // measure 139
0302
0000
0000
2003
,  // measure 140
3200
0000
0000
0000
0000
2300
0000
0000
,  // measure 141
3001
0100
0002
0003
,  // measure 142
1000
0100
0010
0010
,  // measure 143
0100
1000
0100
0010
,  // measure 144
0001
1000
0002
0003
,  // measure 145
1000
0010
2000
3000
,  // measure 146
0001
0100
0001
0001
,  // measure 147
1000
0010
0100
0010
,  // measure 148
1000
0001
1000
0002
,  // measure 149
0403
0000
0000
0300
;

//---------------dance-single - Easy----------------
#NOTES:
     dance-single:
     Ace Of Hearts (2012):
     Easy:
     5:
     0.210,0.229,0.005,0.364,0.000: // measure 1
0000
0000
0000
0000
,  // measure 2
2000
3000
2000
3000
,  // measure 3
0200
0000
0300
0000
,  // measure 4
0020
0030
0020
0030
,  // measure 5
0002
0000
0003
0000
,  // measure 6
4000
0000
3000
0000
,  // measure 7
0000
0000
0000
0001
0000
0001
0000
0002
,  // measure 8
0000
0000
0003
0000
,  // measure 9
0020
0000
0030
0000
,  // measure 10
0200
0000
0300
0000
,  // measure 11
0000
0000
0000
1000
0000
1000
0000
2000
,  // measure 12
0000
0000
3000
0000
,  // measure 13
0002
0000
0003
0000
,  // measure 14
0200
0000
0300
0000
,  // measure 15
0001
0000
0001
0000
,  // measure 16
0002
0000
0003
0000
,  // measure 17
2000
0000
3000
0000
,  // measure 18
0020
0000
0030
0000
,  // measure 19
0100
0000
0100
0000
,  // measure 20
0200
0000
0300
0000
,  // measure 21
0002
0000
0003
0000
,  // measure 22
2000
0000
0000
0000
,  // measure 23
3000
0000
0000
0100
0000
0100
0000
0200
,  // measure 24
0000
0000
0300
0000
,  // measure 25
0010
0000
0010
0000
,  // measure 26
0020
0000
0000
0000
,  // measure 27
0030
0000
0000
0001
0000
0001
0000
0002
,  // measure 28
0000
0000
0003
0000
,  // measure 29
0200
0000
0300
0000
,  // measure 30
0020
0000
0000
0000
,  // measure 31
0030
0000
0000
1000
0000
1000
0000
2000
,  // measure 32
0000
0000
3000
0000
,  // measure 33
0010
0000
0010
0000
,  // measure 34
0020
0000
0000
0000
,  // measure 35
0030
0000
0000
0100
0000
0100
0000
0200
,  // measure 36
0000
0000
0300
0000
,  // measure 37
0002
0000
0003
0000
,  // measure 38
2000
0000
3000
0000
,  // measure 39
0001
0000
0001
0000
,  // measure 40
0002
0000
0003
0000
,  // measure 41
0020
0000
0030
0000
,  // measure 42
0200
0000
0300
0000
,  // measure 43
1000
0000
1000
0000
,  // measure 44
2000
0000
3000
0000
,  // measure 45
0002
0000
0003
0000
,  // measure 46
1000
0000
1000
0000
,  // measure 47
4000
0000
3000
0000
,  // measure 48
0010
0000
0010
0000
,  // measure 49
0040
0000
0030
0000
,  // measure 50
0100
0000
0100
0000
,  // measure 51
0000
0000
0000
0001
0000
0001
0000
0002
,  // measure 52
0000
0000
0003
0000
,  // measure 53
2000
0000
3000
0000
,  // measure 54
0001
0000
0001
0000
,  // measure 55
0002
0000
0003
0000
,  // measure 56
0100
0000
0100
0000
,  // measure 57
0200
0000
0300
0000
,  // measure 58
0001
0000
0001
0000
,  // measure 59
0002
0000
0003
0000
,  // measure 60
2000
0000
0000
0000
0000
0000
0000
3000
,  // measure 61
0000
0000
0001
0000
,  // measure 62
0001
0000
0001
0000
,  // measure 63
0001
0000
0010
0000
,  // measure 64
0010
0000
0010
0000
,  // measure 65
0010
0000
0200
0000
,  // measure 66
0000
0000
0300
0000
,  // measure 67
1000
0000
1000
0000
,  // measure 68
1000
0000
1000
0000
,  // measure 69
0001
0000
0001
0000
,  // measure 70
0001
0000
0001
0000
,  // measure 71
0001
0000
0200
0000
,  // measure 72
0300
0000
0002
0000
,  // measure 73
0003
0000
1000
0000
,  // measure 74
1000
0000
1000
0000
,  // measure 75
1000
0000
0040
0000
,  // measure 76
0000
0000
0030
0000
,  // measure 77
1000
0000
1000
0000
,  // measure 78
1000
0000
0001
0000
,  // measure 79
0001
0000
0002
0000
,  // measure 80
0003
0000
2000
0000
,  // measure 81
3000
0000
0010
0000
,  // measure 82
0010
0000
0010
0000
,  // measure 83
0010
0000
0400
0000
,  // measure 84
0000
0000
0000
0000
,  // measure 85
0000
0000
0300
0000
,  // measure 86
0002
0000
0000
0000
0003
0000
0000
1000
,  // measure 87
0000
1000
0000
2000
0000
0000
0000
0000
,  // measure 88
3000
0000
0100
0000
,  // measure 89
0100
0000
0200
0000
,  // measure 90
0000
0000
0000
0000
0300
0000
0000
0010
,  // measure 91
0000
0010
0000
0020
0000
0000
0000
0000
,  // measure 92
0030
0000
0002
0000
,  // measure 93
0003
0000
2000
0000
,  // measure 94
0000
0000
0000
0000
3000
0000
0000
0001
,  // measure 95
0000
0001
0000
0002
0000
0000
0000
0000
,  // measure 96
0003
0000
0010
0000
,  // measure 97
0010
0000
0010
0000
,  // measure 98
0100
0000
0100
0000
,  // measure 99
0100
0000
0200
0000
,  // measure 100
0300
0000
2000
0000
,  // measure 101
3000
0000
0001
0000
,  // measure 102
0001
0000
0002
0000
,  // measure 103
0003
0000
0200
0000
,  // measure 104
0300
0000
0010
0000
,  // measure 105
0010
0000
0000
0000
,  // measure 106
1000
0000
1000
0000
,  // measure 107
1000
0000
2002
0000
,  // measure 108
0000
0000
0000
3003
0000
0000
0002
0000
,  // measure 109
0000
0003
0010
0000
,  // measure 110
0010
0000
0400
0000
,  // measure 111
0300
0000
1000
0000
,  // measure 112
1000
0000
0004
0000
,  // measure 113
0003
0000
1000
0000
,  // measure 114
1000
0000
0000
0000
0000
0000
0000
0100
,  // measure 115
0000
0100
0000
0200
0000
0000
0000
0000
,  // measure 116
0300
0000
2000
0000
,  // measure 117
3000
0000
0001
0000
,  // measure 118
0001
0000
0010
0000
,  // measure 119
0010
0000
0001
0000
,  // measure 120
0001
0000
0002
0000
,  // measure 121
0003
0000
1000
0000
,  // measure 122
1000
0000
0010
0000
,  // measure 123
0010
0000
0020
0000
,  // measure 124
0000
0000
0000
0030
0000
0000
0000
0000
,  // measure 125
0100
0000
0100
0000
,  // measure 126
0100
0000
0100
0000
,  // measure 127
0001
0000
0001
0000
,  // measure 128
0001
0000
0001
0000
,  // measure 129
0002
0000
0003
0000
,  // measure 130
1000
0000
1000
0000
,  // measure 131
1000
0000
1000
0000
,  // measure 132
1000
0000
0010
0000
,  // measure 133
0020
0000
0030
0000
,  // measure 134
1000
0000
1000
0000
,  // measure 135
2000
0000
3000
0000
,  // measure 136
0002
0000
0003
0000
,  // measure 137
0020
0000
0030
0000
,  // measure 138
0100
0000
0100
0000
,  // measure 139
0200
0000
0300
0000
,  // measure 140
4000
0000
3000
0000
,  // measure 141
0001
0000
0001
0000
,  // measure 142
0002
0000
0003
0000
,  // measure 143
0100
0000
0100
0000
,  // measure 144
0200
0000
0300
0000
,  // measure 145
0001
0000
0001
0000
,  // measure 146
0002
0000
0003
0000
,  // measure 147
1000
0000
1000
0000
,  // measure 148
1000
0000
0100
0000
,  // measure 149
0400
0000
0000
0300
;

//---------------dance-single - Novice----------------
#NOTES:
     dance-single:
     Ace Of Hearts (2012):
     Beginner:
     2:
     0.182,0.000,0.056,0.452,0.000: // measure 1
0000
0000
0000
0000
,  // measure 2
0000
0000
0000
0000
,  // measure 3
0000
0000
0000
0000
,  // measure 4
0000
0000
0000
0000
,  // measure 5
0000
0000
0000
0000
,  // measure 6
0220
0000
0330
0000
,  // measure 7
0000
2002
0000
0000
,  // measure 8
3003
0000
0000
0000
,  // measure 9
0002
0000
0003
0000
,  // measure 10
0200
0000
0300
0000
,  // measure 11
0000
0220
0000
0000
,  // measure 12
0330
0000
0000
0000
,  // measure 13
0020
0000
0030
0000
,  // measure 14
2000
0000
3000
0000
,  // measure 15
0002
0000
0003
0000
,  // measure 16
0020
0000
0030
0000
,  // measure 17
0002
0000
0003
0000
,  // measure 18
2000
0000
3000
0000
,  // measure 19
0002
0000
0003
0000
,  // measure 20
0200
0000
0300
0000
,  // measure 21
0002
0000
0003
0000
,  // measure 22
2000
0000
3000
0000
,  // measure 23
0000
2002
0000
0000
,  // measure 24
3003
0000
0000
0000
,  // measure 25
0002
0000
0003
0000
,  // measure 26
0020
0000
0030
0000
,  // measure 27
0000
0220
0000
0000
,  // measure 28
0330
0000
0000
0000
,  // measure 29
0200
0000
0300
0000
,  // measure 30
2000
0000
3000
0000
,  // measure 31
0000
2002
0000
0000
,  // measure 32
3003
0000
0000
0000
,  // measure 33
0002
0000
0003
0000
,  // measure 34
0200
0000
0300
0000
,  // measure 35
0000
0220
0000
0000
,  // measure 36
0330
0000
0000
0000
,  // measure 37
0020
0000
0030
0000
,  // measure 38
2000
0000
3000
0000
,  // measure 39
0002
0000
0003
0000
,  // measure 40
0200
0000
0300
0000
,  // measure 41
0002
0000
0003
0000
,  // measure 42
2000
0000
3000
0000
,  // measure 43
0020
0000
0030
0000
,  // measure 44
0200
0000
0300
0000
,  // measure 45
0002
0000
0003
0000
,  // measure 46
1000
0000
1000
0000
,  // measure 47
2000
0000
3000
0000
,  // measure 48
0001
0000
0001
0000
,  // measure 49
0002
0000
0003
0000
,  // measure 50
0010
0000
0010
0000
,  // measure 51
0020
0000
0000
0000
,  // measure 52
0030
0000
0000
0000
,  // measure 53
0200
0000
0300
0000
,  // measure 54
1000
0000
1000
0000
,  // measure 55
1000
0000
0000
0000
,  // measure 56
2000
0000
0000
0000
,  // measure 57
3000
0000
0000
0000
,  // measure 58
0001
0000
0001
0000
,  // measure 59
0001
0000
0000
0000
,  // measure 60
0002
0000
0000
0000
0000
0000
0000
0003
,  // measure 61
0000
0000
1000
0000
,  // measure 62
1000
0000
1000
0000
,  // measure 63
0000
0000
0001
0000
,  // measure 64
0001
0000
0001
0000
,  // measure 65
0000
0000
0100
0000
,  // measure 66
0000
0000
0100
0000
,  // measure 67
0000
0000
0002
0000
,  // measure 68
0000
0000
0003
0000
,  // measure 69
0000
0000
1000
0000
,  // measure 70
1000
0000
1000
0000
,  // measure 71
0000
0000
2000
0000
,  // measure 72
0000
0000
3000
0000
,  // measure 73
0000
0000
0010
0000
,  // measure 74
0010
0000
0010
0000
,  // measure 75
0000
0000
0040
0000
,  // measure 76
0000
0000
0030
0000
,  // measure 77
0000
0000
1000
0000
,  // measure 78
1000
0000
1000
0000
,  // measure 79
0000
0000
2000
0000
,  // measure 80
0000
0000
3000
0000
,  // measure 81
0000
0000
0100
0000
,  // measure 82
0100
0000
0100
0000
,  // measure 83
0000
0000
0400
0000
,  // measure 84
0000
0000
0000
0000
,  // measure 85
0000
0000
0300
0000
,  // measure 86
0000
0000
0000
0220
,  // measure 87
0000
0000
0330
0000
,  // measure 88
0000
0000
0020
0000
,  // measure 89
0030
0000
0002
0000
,  // measure 90
0003
0000
0000
2002
,  // measure 91
0000
0000
3003
0000
,  // measure 92
0000
0000
2000
0000
,  // measure 93
3000
0000
0020
0000
,  // measure 94
0030
0000
0000
0220
,  // measure 95
0000
0000
0330
0000
,  // measure 96
0000
0000
0200
0000
,  // measure 97
0300
0000
0001
0000
,  // measure 98
0000
0000
0001
0000
,  // measure 99
0000
0000
0002
0000
,  // measure 100
0003
0000
2000
0000
,  // measure 101
3000
0000
0000
0000
,  // measure 102
0010
0000
0010
0000
,  // measure 103
0020
0000
0030
0000
,  // measure 104
0100
0000
0100
0000
,  // measure 105
0200
0000
0300
0000
,  // measure 106
0001
0000
0002
0000
,  // measure 107
0003
0000
2002
0000
,  // measure 108
0000
3003
0000
0000
,  // measure 109
0000
0000
1000
0000
,  // measure 110
1000
0000
2000
0000
,  // measure 111
3000
0000
0010
0000
,  // measure 112
0010
0000
0020
0000
,  // measure 113
0030
0000
0100
0000
,  // measure 114
0100
0000
0200
0000
,  // measure 115
0000
0000
0300
0000
,  // measure 116
0000
0000
0002
0000
,  // measure 117
0003
0000
1000
0000
,  // measure 118
1000
0000
1000
0000
,  // measure 119
0000
0000
2000
0000
,  // measure 120
0000
0000
3000
0000
,  // measure 121
0000
0000
0001
0000
,  // measure 122
0001
0000
0001
0000
,  // measure 123
0000
0000
0002
0000
,  // measure 124
0000
0000
0000
0003
0000
0000
0000
0000
,  // measure 125
0010
0000
0010
0000
,  // measure 126
0010
0000
0000
0000
,  // measure 127
0001
0000
0001
0000
,  // measure 128
0001
0000
0000
0000
,  // measure 129
2000
0000
3000
0000
,  // measure 130
0001
0000
0001
0000
,  // measure 131
0002
0000
0003
0000
,  // measure 132
1000
0000
1000
0000
,  // measure 133
2000
0000
3000
0000
,  // measure 134
0020
0000
0030
0000
,  // measure 135
0200
0000
0300
0000
,  // measure 136
0002
0000
0003
0000
,  // measure 137
2000
0000
3000
0000
,  // measure 138
0200
0000
0300
0000
,  // measure 139
0020
0000
0030
0000
,  // measure 140
0002
0000
0003
0000
,  // measure 141
2000
0000
3000
0000
,  // measure 142
0010
0000
0010
0000
,  // measure 143
0020
0000
0030
0000
,  // measure 144
1000
0000
1000
0000
,  // measure 145
2000
0000
3000
0000
,  // measure 146
0001
0000
0001
0000
,  // measure 147
0002
0000
0003
0000
,  // measure 148
0100
0000
0100
0000
,  // measure 149
0400
0000
0000
0300
;
