#TITLE:High-Powered;
#SUBTITLE:;
#ARTIST:Sphere;
#TITLETRANSLIT:;
#SUBTITLETRANSLIT:;
#ARTISTTRANSLIT:;
#GENRE:J-Pop;
#CREDIT:Ace Of Hearts;
#BANNER:High-Powered - Bn.png;
#BACKGROUND:High-Powered - Bg.png;
#LYRICSPATH:;
#CDTITLE:Ace Of Hearts.png;
#MUSIC:High-Powered.ogg;
#OFFSET:0.660;
#SAMPLESTART:54.400;
#SAMPLELENGTH:12.000;
#SELECTABLE:YES;
#DISPLAYBPM:187.000;
#BPMS:0.000=187.000,66.000=374.000,67.000=187.000,132.000=374.000,133.000=187.000,134.000=374.000,135.000=187.000,170.500=374.000,171.500=187.000;
#STOPS:66.000=0.080
,66.500=0.080
,132.000=0.160
,134.000=0.160
,170.500=0.160
;
#BGCHANGES:2.125=Squid Girl S2 OP.avi=1.000=1=0=1===CrossFade==,
99999=-nosongbg-=1.000=0=0=0 // don't automatically add -songbackground-
;
#KEYSOUNDS:;

//---------------dance-single - Squid Girl----------------
#NOTES:
     dance-single:
     Ace Of Hearts (2012):
     Hard:
     9:
     0.680,0.000,0.211,1.000,0.039: // measure 1
0000
0000
0000
0000
,  // measure 2
0000
0000
0000
0000
,  // measure 3
0000
0000
0000
0000
,  // measure 4
0000
0000
0000
0000
,  // measure 5
0000
0000
0000
0000
,  // measure 6
1000
0000
0020
0000
0130
0002
0000
1003
,  // measure 7
0000
0001
0010
0100
1000
0000
0002
0000
,  // measure 8
1003
0000
0200
0000
0310
0002
0000
1003
,  // measure 9
0000
0100
2000
0000
3001
0000
1000
0000
,  // measure 10
2020
0000
3000
0000
,  // measure 11
0200
0030
0002
0300
,  // measure 12
2000
0000
0000
0000
0003
0000
3010
0200
,  // measure 13
0000
0000
0000
0000
,  // measure 14
0310
1000
0001
2000
0000
3200
0000
0000
,  // measure 15
0310
0100
1000
0002
0000
0203
0000
0000
,  // measure 16
0310
0100
0001
1000
0001
0010
0001
2000
,  // measure 17
0000
3001
0010
0100
10M0
00M1
20M0
0000
,  // measure 18
3020
0000
0230
0000
0302
0000
0103
0020
,  // measure 19
0000
2030
3000
1001
0000
0001
1000
0001
,  // measure 20
0010
0100
0010
0100
2000
0000
3001
0200
,  // measure 21
0000
0000
0310
0000
0100
0000
0001
0000
2000
0000
0000
0000
3000
0000
0100
1000
,  // measure 22
0200
0000
2300
0000
3002
0000
0103
0010
,  // measure 23
0000
0200
0300
0110
0000
0100
0001
0100
,  // measure 24
0010
1000
0010
1000
0001
0010
0100
2000
,  // measure 25
0000
3001
0100
0010
0200
0000
0301
2002
,  // measure 26
0003
3100
0020
0000
0230
0000
1300
0002
,  // measure 27
0000
2003
3000
1100
0000
0100
0010
0001
,  // measure 28
1000
0001
1000
0001
0200
0000
0310
2000
,  // measure 29
0000
0000
3001
0000
1000
0000
0100
0000
0020
0000
0000
0000
0030
0000
0001
0010
,  // measure 30
0002
0000
2003
0000
3200
0000
0310
0002
,  // measure 31
0000
2003
0000
3200
0000
1300
0001
0010
,  // measure 32
0100
0000
1000
0000
0100
0000
0010
0000
0001
0000
1000
0000
0001
0000
0040
0400
,  // measure 33
0000
0000
0000
0000
0000
0330
0100
1000
,  // measure 34
2002
3003
0000
0001
0202
0303
0000
0000
,  // measure 35
0120
0000
1030
2002
0000
3003
0000
0000
,  // measure 36
2000
0000
3010
0100
0000
0001
0000
2000
,  // measure 37
0000
0000
3002
0000
0023
0000
0031
2002
,  // measure 38
0000
3003
0000
1000
2020
0000
3030
0000
,  // measure 39
0020
0000
0000
0000
0130
0000
0202
0000
0303
0000
0000
0M0M
0000
0000
0001
0000
,  // measure 40
1000
0100
0010
0100
2000
0000
0000
3001
,  // measure 41
0200
0000
0301
0020
0000
0200
0030
1300
,  // measure 42
0002
0000
1003
0010
0200
0000
0301
1000
,  // measure 43
0200
0000
0000
0000
0310
0000
0002
0000
0000
0000
1003
0000
0000
M00M
0000
0000
,  // measure 44
2020
0000
0000
0000
3000
0000
0230
0002
,  // measure 45
0000
0000
0000
0000
0303
0001
1000
0200
,  // measure 46
0000
0320
0230
2300
,  // measure 47
3002
0000
0000
0013
0200
0000
1300
0001
,  // measure 48
0200
0000
0310
1000
0002
0000
0013
0100
,  // measure 49
2000
0001
0010
3002
,  // measure 50
0003
0010
0100
1000
0100
0010
0001
1000
,  // measure 51
0200
0000
1300
0002
0000
0103
0000
0000
,  // measure 52
0220
0000
0000
0000
0300
1030
0002
2000
,  // measure 53
0000
0000
0000
0000
3003
0001
0010
0200
,  // measure 54
0000
2300
3002
0203
,  // measure 55
0320
0000
0000
0130
0002
0000
1003
0100
,  // measure 56
0020
0000
0000
0030
0110
0000
0000
0000
0210
0000
1300
0000
0000
0000
0001
0000
,  // measure 57
0200
0000
0000
0300
0110
0000
0000
0000
0120
0000
2030
0000
0000
0000
3001
0000
,  // measure 58
0020
0000
0000
0000
0230
0000
0000
0000
2300
0000
0000
0000
3020
0000
0030
0M0M
,  // measure 59
0000
1000
0001
0010
0100
1000
0001
1000
,  // measure 60
0020
0000
2000
0030
,  // measure 61
0200
0000
3000
0000
,  // measure 62
0300
0000
2000
0000
3010
0100
0000
0002
,  // measure 63
0000
1003
0200
0000
0320
0000
0230
0000
,  // measure 64
2300
0000
0020
3000
,  // measure 65
0200
0000
0030
0000
,  // measure 66
0300
0000
0002
0000
1003
0200
0000
0320
,  // measure 67
0000
0031
1000
0000
0200
0000
1300
0000
,  // measure 68
2002
0000
0000
0000
0000
0000
0000
3003
,  // measure 69
0001
0000
1000
0000
0200
0000
0320
0000
0000
0000
0031
0010
0100
0000
0000
0000
;

//---------------dance-single - Chizuru----------------
#NOTES:
     dance-single:
     Ace Of Hearts (2012):
     Challenge:
     11:
     0.841,0.000,0.322,1.000,0.305: // measure 1
0000
0000
0000
0000
,  // measure 2
0000
0000
0000
0000
,  // measure 3
0000
0000
0000
0000
,  // measure 4
0000
0000
0000
0000
,  // measure 5
0000
0000
0000
0000
,  // measure 6
0101
0000
0200
0300
0110
0020
0030
1010
,  // measure 7
0000
0000
1000
0000
0010
0000
0001
0000
0010
0000
0000
0000
2000
0000
3001
0010
,  // measure 8
0002
0000
1003
0010
0100
0001
1000
0100
,  // measure 9
0010
0000
0100
0000
1000
0000
0001
0000
1000
0100
0010
0001
0010
0100
1000
0000
,  // measure 10
2002
0000
3000
0000
,  // measure 11
M200
0003
002M
0300
,  // measure 12
M002
0000
0000
0000
0030
0000
2003
02M0
,  // measure 13
3000
0000
0000
0000
0300
0000
0010
0100
0010
0000
1000
0000
0001
0010
0001
0000
,  // measure 14
1000
0000
0010
0000
1000
0000
0002
0000
0000
0000
0203
0000
0000
0000
0310
0100
,  // measure 15
0010
1000
0001
0020
0000
0230
0000
0000
,  // measure 16
1300
0000
0100
0000
0010
0000
0001
0010
0100
1000
0100
0010
0001
0000
2002
0000
,  // measure 17
3000
0000
0013
0100
1000
0100
0010
0001
M010
0000
001M
0000
M020
0000
0030
0000
,  // measure 18
0210
0000
0000
0000
2300
0000
0000
3000
1002
0000
0000
0000
0103
0000
0120
0000
,  // measure 19
0000
2000
0000
0001
3030
0010
0100
0010
,  // measure 20
1000
0010
0001
0010
2000
0000
3001
0201
,  // measure 21
0000
0000
0310
0000
1000
0000
0001
0010
0100
0000
1000
0000
0001
0000
1000
0100
,  // measure 22
0020
0000
0230
0000
2300
0000
3001
0020
,  // measure 23
0000
0002
0000
1000
0033
0010
0100
1000
,  // measure 24
0100
0000
0001
0000
0100
0000
1000
0000
0001
0000
0010
0100
1000
0000
0002
0000
,  // measure 25
0000
0000
1003
0000
0010
0000
1000
0000
0001
0010
0100
0000
1000
0000
2202
0000
,  // measure 26
0000
3303
0001
1000
0010
0001
0010
2000
,  // measure 27
3001
0010
1000
0010
0001
1000
0010
0100
,  // measure 28
0020
0031
0010
0100
0001
1000
0100
0020
,  // measure 29
0000
0000
0130
0000
1000
0000
0001
0000
0100
0010
1000
0000
0001
0000
1000
0100
,  // measure 30
0020
0031
1000
0100
1000
0001
0100
2000
,  // measure 31
3100
0001
1000
0100
0010
0001
1000
0100
,  // measure 32
0002
0000
0103
0000
1000
0000
0001
0000
1000
0010
0100
0000
0001
0000
2000
0000
,  // measure 33
0000
0000
3001
0000
0100
0000
0001
0000
1000
0100
0010
0001
0010
0100
1000
0000
,  // measure 34
2002
0000
3MM3
0000
M00M
0000
0010
0000
0220
0000
M33M
0000
0MM1
0100
0010
0100
,  // measure 35
0002
0003
1000
2200
300M
0310
0011
0001
,  // measure 36
1000
0000
0010
0000
0100
0000
0002
0000
0000
0000
0013
0100
0010
0000
0200
0000
,  // measure 37
0000
0000
1300
0000
1002
0000
0003
0000
0201
0000
0300
0000
0120
0030
2020
0000
,  // measure 38
0000
0000
3M3M
0000
00M0
0000
0001
0000
0202
0000
M3M3
0000
1M00
0001
1000
0000
,  // measure 39
2100
0000
0000
0000
3010
0000
0220
M33M
0MM0
M00M
0100
0000
0001
0000
1000
0100
,  // measure 40
1000
0100
0001
0100
2000
0000
3001
0100
,  // measure 41
0120
0000
0000
0000
1030
0000
0200
0000
0000
0000
0310
0001
0010
0000
0100
0010
,  // measure 42
0100
0000
1000
0000
0001
0000
0010
0000
0100
0010
0001
0000
1000
0100
0010
0000
,  // measure 43
0001
0010
0100
1000
0100
0010
0001
0010
0100
1000
0100
0000
00MM
0000
MM00
0000
,  // measure 44
0022
0000
0000
0000
0M03
0000
2030
0002
,  // measure 45
0000
0000
0000
0000
30M0
0103
0010
0002
,  // measure 46
0000
2003
3020
0230
,  // measure 47
0302
0000
0000
1003
0200
0000
0310
0100
,  // measure 48
2000
0000
0010
0001
3020
0000
0100
1000
,  // measure 49
0230
0001
1000
0302
,  // measure 50
0003
1000
0100
0001
0100
1000
0001
0100
,  // measure 51
0020
0000
0130
0101
0M00
2000
0000
3000
,  // measure 52
2020
0000
0000
0000
3M00
0031
0020
0200
,  // measure 53
0000
0000
0000
0000
0030
0301
1000
0200
,  // measure 54
0000
0320
2030
3200
,  // measure 55
0302
0000
0000
1003
0400
0000
0310
0200
,  // measure 56
2000
0000
0010
0000
3010
1300
0000
0002
,  // measure 57
0200
0000
0010
0000
0013
0301
0000
1000
,  // measure 58
0020
0000
0032
0000
0203
0000
2300
3000
,  // measure 59
0MM0
0000
0001
0010
0001
0010
0100
1000
0100
1000
0001
0100
0001
0100
0010
1000
,  // measure 60
0002
0000
M020
0003
,  // measure 61
2M00
0000
000M
0000
,  // measure 62
0M30
0000
3002
0000
0103
1000
0000
1002
,  // measure 63
0000
0000
0013
0100
1000
0000
0000
0000
0001
0100
0010
0000
1000
0001
0010
0000
,  // measure 64
1200
0000
M320
0000
,  // measure 65
200M
0000
0M00
0000
,  // measure 66
003M
0000
3002
0000
0103
0020
0030
0012
,  // measure 67
0000
0000
1003
0000
1001
0000
0001
0010
0100
0000
1000
0100
0010
0001
0010
0100
,  // measure 68
2000
0000
0001
0000
0010
0000
0001
3000
,  // measure 69
1000
0000
0100
0000
0010
0001
0020
0000
0000
0000
0031
0010
0100
0000
0000
0000
;

//---------------dance-single - Sanae----------------
#NOTES:
     dance-single:
     Ace Of Hearts (2012):
     Medium:
     7:
     0.521,0.000,0.044,1.000,0.000: // measure 1
0000
0000
0000
0000
,  // measure 2
0000
0000
0000
0000
,  // measure 3
0000
0000
0000
0000
,  // measure 4
0000
0000
0000
0000
,  // measure 5
0000
0000
0000
0000
,  // measure 6
0001
0000
0010
0000
0100
2000
0000
3001
,  // measure 7
0000
1000
0000
0001
0010
0000
0200
0000
,  // measure 8
0310
0000
0001
0000
1000
0200
0000
0310
,  // measure 9
0000
0001
0010
0000
0001
0000
1000
0000
,  // measure 10
2001
0000
0000
0000
,  // measure 11
3200
0000
0320
0000
,  // measure 12
0230
0000
0000
0000
0000
0000
0310
0002
,  // measure 13
0000
0000
0003
0000
,  // measure 14
2000
0000
0000
3020
0000
0230
0000
0000
,  // measure 15
0302
0000
0000
2003
0000
3200
0000
0000
,  // measure 16
0310
0000
0001
0000
1000
0000
0001
0020
,  // measure 17
0000
0032
4003
3000
,  // measure 18
0010
0000
1000
0000
0001
0000
1000
0200
,  // measure 19
0000
2300
0000
3001
0000
1000
0100
0000
,  // measure 20
0010
0000
0100
0000
2000
0000
3001
0020
,  // measure 21
0000
0130
1000
0000
0001
0000
0000
1000
,  // measure 22
0200
0000
0320
0000
0032
0000
1003
0200
,  // measure 23
0000
2300
0000
3002
0000
1003
0010
0000
,  // measure 24
1000
0000
0001
0000
0020
0000
0130
2000
,  // measure 25
0000
0000
3001
0000
0020
0000
0031
2000
,  // measure 26
0000
0000
3010
0000
0200
0000
0301
2000
,  // measure 27
0000
3020
0000
0130
0000
0001
0100
0000
,  // measure 28
0010
0000
1000
0000
0020
0000
1030
0002
,  // measure 29
0000
0000
0013
0000
0010
0000
0000
0001
,  // measure 30
0020
0000
0230
0000
2300
0000
3001
0200
,  // measure 31
0000
0302
0000
2003
0000
0000
3001
0000
,  // measure 32
0100
0000
0100
0000
0020
0000
1030
0002
,  // measure 33
0000
0000
0003
1000
,  // measure 34
2000
30M0
0000
0001
0200
M300
0000
0000
,  // measure 35
0020
0000
1030
0002
0000
0000
0003
0000
,  // measure 36
0020
0000
0130
1000
0000
0001
0000
0200
,  // measure 37
0000
0000
0310
0000
1000
0000
0001
0020
,  // measure 38
0000
003M
0000
0100
2000
0000
3M00
0000
,  // measure 39
0002
0000
1003
0010
0000
M000
0000
0100
,  // measure 40
0001
1000
0002
0000
,  // measure 41
2003
0000
3100
0020
0000
0000
0130
0000
,  // measure 42
1000
0001
1000
0100
,  // measure 43
0020
0000
0130
1000
0000
0001
0000
0000
,  // measure 44
0021
0000
0000
0000
0000
0000
0230
2000
,  // measure 45
0000
0000
0300
0000
3000
0001
0010
0002
,  // measure 46
0000
2003
3020
2030
,  // measure 47
3002
0000
0000
0013
0200
0000
1300
0100
,  // measure 48
2000
0000
0000
0000
3000
0000
0001
0100
,  // measure 49
0002
1003
0100
0020
,  // measure 50
0030
0001
0010
0000
0100
0000
1000
0000
,  // measure 51
0002
0000
0013
0001
0000
1000
0000
0000
,  // measure 52
1020
0000
0000
0000
0000
0130
0002
0200
,  // measure 53
0000
0000
0000
0000
0303
0001
1000
0002
,  // measure 54
0000
0023
0230
2300
,  // measure 55
3002
0000
0000
1003
0200
0000
0310
0001
,  // measure 56
0020
0000
0100
0030
0100
1000
0000
0001
,  // measure 57
0200
0000
0010
0300
0010
1000
0000
0001
,  // measure 58
2000
3200
0320
0032
,  // measure 59
0003
1000
0100
0000
1000
0001
1000
0000
,  // measure 60
0002
0000
0023
0000
,  // measure 61
0200
0000
0000
0000
,  // measure 62
0330
0000
0010
0000
0001
0010
0000
0200
,  // measure 63
0000
1300
0100
0000
0010
0000
0001
0000
,  // measure 64
2000
0000
3020
0000
,  // measure 65
0200
0000
0000
0000
,  // measure 66
0330
0000
0020
0000
0130
0001
0000
2000
,  // measure 67
0000
3001
0010
0000
0001
0000
1000
0000
,  // measure 68
0200
0000
0000
0300
,  // measure 69
1000
0100
0010
0002
0000
0003
0101
0000
;

//---------------dance-single - Kiyomi----------------
#NOTES:
     dance-single:
     Ace Of Hearts (2012):
     Easy:
     4:
     0.239,0.000,0.111,0.255,0.000: // measure 1
0000
0000
0000
0000
,  // measure 2
0000
0000
0000
0000
,  // measure 3
0000
0000
0000
0000
,  // measure 4
0000
0000
0000
0000
,  // measure 5
0000
0000
0000
0000
,  // measure 6
1000
1000
1000
0000
,  // measure 7
0010
0010
0010
0000
,  // measure 8
0100
0100
0100
0000
,  // measure 9
0010
0010
0010
0000
,  // measure 10
0220
0000
0000
0000
,  // measure 11
0330
0000
0000
0000
,  // measure 12
2002
0000
0000
0000
,  // measure 13
3003
0000
0000
0000
,  // measure 14
1000
0000
1000
0000
,  // measure 15
0001
0000
0001
0000
,  // measure 16
0010
0000
0010
0000
,  // measure 17
0200
0000
0300
0000
,  // measure 18
1000
1000
1000
0000
,  // measure 19
0001
0000
0001
0000
,  // measure 20
0010
0010
0010
0000
,  // measure 21
0100
0000
0100
0000
,  // measure 22
1000
1000
1000
0000
,  // measure 23
0001
0000
0001
0000
,  // measure 24
0100
0100
0100
0000
,  // measure 25
0001
0000
0001
0000
,  // measure 26
1001
0000
1000
0000
,  // measure 27
0001
0000
0001
0000
,  // measure 28
1000
1000
1000
0000
,  // measure 29
0010
0000
0010
0000
,  // measure 30
0100
0100
0100
0000
,  // measure 31
0001
0000
0001
0000
,  // measure 32
1000
1000
1000
0000
,  // measure 33
0200
0000
0300
0000
,  // measure 34
0011
0000
1100
0000
,  // measure 35
1000
0000
1000
0000
,  // measure 36
0001
0000
1000
0000
,  // measure 37
0002
0000
0003
0000
,  // measure 38
0101
0000
1010
0000
,  // measure 39
1000
0000
1000
0000
,  // measure 40
0001
0001
0001
0000
,  // measure 41
0010
0000
0010
0000
,  // measure 42
0100
0000
0100
0000
,  // measure 43
1000
0000
1000
0000
,  // measure 44
1002
0000
0000
0000
,  // measure 45
0200
0000
0303
0000
,  // measure 46
0001
0000
0001
0000
,  // measure 47
0002
0000
0003
0000
,  // measure 48
2000
0000
3000
0000
,  // measure 49
0100
0000
0100
0000
,  // measure 50
0000
0000
0010
0000
,  // measure 51
0020
0000
0030
0000
,  // measure 52
0021
0000
0000
0000
,  // measure 53
0200
0000
0330
0000
,  // measure 54
0100
0000
0100
0000
,  // measure 55
0200
0000
0300
0000
,  // measure 56
1000
1000
1000
0000
,  // measure 57
0001
0001
0001
0000
,  // measure 58
0100
0000
0100
0000
,  // measure 59
0000
0000
0001
0000
,  // measure 60
0002
0000
0023
0000
,  // measure 61
0200
0000
0000
0000
,  // measure 62
0330
0000
0010
0000
,  // measure 63
0010
0000
0001
0000
,  // measure 64
2000
0000
3020
0000
,  // measure 65
0200
0000
0000
0000
,  // measure 66
0330
0000
0100
0000
,  // measure 67
0001
0000
0001
0000
,  // measure 68
2000
0000
0000
0000
,  // measure 69
3002
0000
0000
0003
0000
0000
1001
0000
;

//---------------dance-single - Eiko----------------
#NOTES:
     dance-single:
     Ace Of Hearts (2012):
     Beginner:
     2:
     0.166,0.000,0.067,0.288,0.000: // measure 1
0000
0000
0000
0000
,  // measure 2
0000
0000
0000
0000
,  // measure 3
0000
0000
0000
0000
,  // measure 4
0000
0000
0000
0000
,  // measure 5
0000
0000
0000
0000
,  // measure 6
1000
0000
1000
0000
,  // measure 7
1000
0000
0000
0000
,  // measure 8
0001
0000
0001
0000
,  // measure 9
0001
0000
0000
0000
,  // measure 10
2002
0000
0000
0000
,  // measure 11
0000
0000
0000
0000
,  // measure 12
3003
0000
0000
0000
,  // measure 13
0000
0000
0000
0000
,  // measure 14
0002
0000
0003
0000
,  // measure 15
0002
0000
0003
0000
,  // measure 16
2000
0000
3000
0000
,  // measure 17
2000
0000
3000
0000
,  // measure 18
0010
0000
0010
0000
,  // measure 19
0010
0000
0000
0000
,  // measure 20
1000
0000
1000
0000
,  // measure 21
1000
0000
0000
0000
,  // measure 22
0001
0000
0001
0000
,  // measure 23
0001
0000
0000
0000
,  // measure 24
0100
0000
0100
0000
,  // measure 25
0200
0000
0300
0000
,  // measure 26
0001
0000
0001
0000
,  // measure 27
0001
0000
0000
0000
,  // measure 28
1000
0000
1000
0000
,  // measure 29
1000
0000
0000
0000
,  // measure 30
0010
0000
0010
0000
,  // measure 31
0010
0000
0000
0000
,  // measure 32
0100
0000
0100
0000
,  // measure 33
0200
0000
0300
0000
,  // measure 34
0001
0000
0001
0000
,  // measure 35
0002
0000
0003
0000
,  // measure 36
2000
0000
0000
0000
,  // measure 37
3000
0000
0000
0000
,  // measure 38
0010
0000
0010
0000
,  // measure 39
0020
0000
0030
0000
,  // measure 40
1000
0000
0000
0000
,  // measure 41
1000
0000
0000
0000
,  // measure 42
0001
0000
0000
0000
,  // measure 43
0001
0000
0000
0000
,  // measure 44
2002
0000
0000
0000
,  // measure 45
3003
0000
0000
0000
,  // measure 46
1000
0000
1000
0000
,  // measure 47
2000
0000
3000
0000
,  // measure 48
0002
0000
0003
0000
,  // measure 49
2000
0000
3000
0000
,  // measure 50
0000
0000
0010
0000
,  // measure 51
0010
0000
0000
0000
,  // measure 52
0220
0000
0000
0000
,  // measure 53
0330
0000
0000
0000
,  // measure 54
0100
0000
0100
0000
,  // measure 55
0100
0000
0000
0000
,  // measure 56
0002
0000
0003
0000
,  // measure 57
2000
0000
3000
0000
,  // measure 58
0001
0000
0001
0000
,  // measure 59
0000
0000
1000
0000
,  // measure 60
2020
0000
0000
0000
,  // measure 61
0000
0000
0000
0000
,  // measure 62
3030
0000
0001
0000
,  // measure 63
0001
0000
0000
0000
,  // measure 64
0022
0000
0000
0000
,  // measure 65
0000
0000
0000
0000
,  // measure 66
0033
0000
1000
0000
,  // measure 67
1000
0000
1000
0000
,  // measure 68
2000
0000
3000
0000
,  // measure 69
0002
0000
0000
0003
0000
0000
1001
0000
;
