#TITLE:High School Love;
#SUBTITLE:;
#ARTIST:DJ Yoshitaka feat. DWP;
#TITLETRANSLIT:;
#SUBTITLETRANSLIT:;
#ARTISTTRANSLIT:;
#GENRE:J-Pop;
#CREDIT:Ace Of Hearts;
#BANNER:High School Love - bn.png;
#BACKGROUND:High School Love - bg.png;
#LYRICSPATH:;
#CDTITLE:Ace Of Hearts.png;
#MUSIC:High School Love.ogg;
#OFFSET:1.260;
#SAMPLESTART:44.600;
#SAMPLELENGTH:12.000;
#SELECTABLE:YES;
#DISPLAYBPM:90.000:180.000;
#BPMS:0.000=180.000,139.500=360.000,140.500=180.000,171.500=360.000,172.500=180.000,259.500=360.000,260.500=180.000,261.000=90.000,276.250=360.000,277.750=180.000;
#STOPS:139.500=0.167
,171.500=0.167
,259.500=0.167
,276.250=0.167
;
#BGCHANGES:;
#KEYSOUNDS:;

//---------------dance-single - Hard----------------
#NOTES:
     dance-single:
     Ace Of Hearts (2012):
     Hard:
     9:
     0.674,0.000,0.594,0.825,0.177:
0000
0000
0000
0000
,
0000
0000
0000
0000
,
0000
0000
0000
0000
,
0000
0000
0000
0000
,
0000
0000
0000
0000
,
0000
0000
0002
0000
0000
0013
0000
0200
,
0000
0000
0000
0000
0300
0000
1000
0001
,
0020
0000
0031
1000
0000
0010
0000
0200
,
0000
0301
0000
2000
0000
0000
3100
0010
,
0002
0000
0003
1001
0000
1100
0000
0012
,
0000
0000
1003
0010
0000
0100
0000
0001
,
2000
0000
3000
1010
0000
0110
0000
0102
,
0000
2003
3200
0320
,
0230
0000
0300
1100
0000
0011
0000
2001
,
0000
0000
3001
0100
0000
0010
0000
4000
,
0000
0000
0000
3000
2002
0000
0000
3003
,
0001
0010
0100
1000
0100
0010
0001
1000
,
0200
0000
0000
0300
1000
0001
0100
0020
,
0000
0000
0130
0000
0001
0000
1000
0020
,
0000
0000
0000
0000
,
0000
0030
0000
0100
,
0002
0000
0000
0000
0003
1000
0010
0400
,
0000
0300
0002
2003
,
3200
0000
0000
0000
0300
0010
0100
4000
,
0000
0000
3000
0000
0001
0100
0010
2040
,
0000
0000
0030
3001
0010
0100
0000
4200
,
0000
0000
3000
0000
1300
0001
0100
0220
,
0000
0000
0300
1030
0001
0100
0000
0204
,
0000
0000
0003
0000
0301
1000
0010
2000
,
0000
3001
0010
0100
0010
0001
1000
0010
,
0100
0010
1000
0001
0010
0100
1000
0100
,
0010
0002
0000
0000
0000
0000
0000
0000
,
2003
0000
3020
0000
,
0230
0301
1000
0100
0010
0100
1000
0001
,
0M10
001M
M010
0100
1000
0001
0100
0010
,
0000
0MM0
0000
0000
2010
0000
0000
0000
3001
0000
0010
0000
0100
0000
0010
0000
,
0000
0012
0000
1003
0010
0000
0110
0000
,
0100
0000
0001
0000
0000
0000
2002
0000
0000
0000
0003
0000
0000
0000
3100
0010
,
0100
0000
0000
1000
0001
0100
0010
1000
,
0002
0000
0013
0100
0000
1000
0000
1020
,
0000
0000
0230
0000
0302
0000
2003
3000
,
1020
0000
1030
0001
0000
0010
0000
0420
,
0000
0030
0000
1300
0001
1000
0100
0010
,
0000
0MM0
0000
0000
0012
0000
0000
0000
1003
0000
0010
0000
0100
0000
0001
0000
,
0000
2001
0000
0000
3001
0000
0011
0000
,
0010
0100
0000
2200
0000
0300
0000
3001
,
0104
0000
0003
0100
0010
1000
0001
0010
,
0210
0000
1300
1001
0000
0001
0000
0201
,
0000
0310
2000
3001
,
0021
0000
0130
1100
0000
1000
0000
1020
,
0000
0000
0130
0001
2000
0000
3001
0000
,
0201
0000
0310
1010
0000
1000
0000
1002
,
0000
0013
0200
1300
,
1002
0000
0000
1003
0200
0000
0000
0310
,
0100
1000
0001
0100
0010
1000
0000
0001
,
1000
0100
1000
0000
0001
0000
0010
0001
0010
0000
0100
0000
1000
0000
2002
0000
,
3003
0000
0001
0010
0001
0010
0001
0000
1000
0000
0010
0000
0100
0000
0202
0000
,
0303
0000
0001
0000
1000
0100
1000
0100
0000
0010
0000
0100
1000
0000
2002
0000
,
3003
0000
0004
0400
0000
0000
0000
0000
0303
0000
0100
0000
0010
0000
2020
0000
,
3030
0000
1000
0000
0001
0000
0010
0100
0010
0000
0001
0000
0010
0000
0400
4000
,
0000
0000
0000
0000
0000
0000
0000
3300
,
1001
0000
0000
0000
0001
0000
0201
0000
000M
0000
0310
0000
1000
0000
0001
0010
,
0001
0000
1M00
0000
0000
001M
0000
0000
M100
0000
0000
0M01
0000
1000
0000
02M0
,
0000
0000
4300
0004
0000
0000
0000
0000
0000
0000
0000
0000
0000
0000
3003
0000
,
1001
1001
1001
0001
0100
0010
0100
0001
,
0MM0
0000
0000
0000
2001
0000
3100
0010
010M
1000
0000
0002
M000
0103
0020
0000
,
M130
0000
0000
0000
0001
0000
1000
0000
0M00
0000
0020
0000
0000
0000
0000
0000
000M
0000
0130
0010
0100
0000
0000
0000
M000
0000
0001
0000
0100
0000
0010
0000
,
1M00
0001
2001
0000
310M
0010
0000
0001
0M00
2000
0000
0000
30M1
0000
0200
0000
,
031M
0000
2010
0000
3M01
0010
0000
0100
000M
4000
0000
0000
00M0
3001
0100
0010
,
1000
0001
0000
0000
M0M0
0000
0000
0000
0201
0000
0000
0000
0310
0000
1000
0000
,
0001
1000
0000
1200
0000
0000
0310
0000
,
0011
0000
0001
1000
0000
2020
0000
3000
,
0000
0130
0401
0000
0300
0001
1000
0100
,
0010
0100
2100
0000
3001
0011
0000
0110
,
0000
2100
0000
0000
3001
0000
0200
0000
,
0310
0000
2010
0000
3001
0101
0000
0110
,
0000
2010
0000
0000
3001
0010
0200
0000
,
1300
0000
1002
0000
0103
0110
0000
1010
,
0000
1002
0000
0000
0203
0000
0320
0000
,
1030
0000
1200
0000
0000
1300
0002
0000
,
0000
1003
0010
0100
0010
1000
0001
1000
,
0010
0110
0000
0000
0000
0000
0000
0000
;

//---------------dance-single - EX----------------
#NOTES:
     dance-single:
     Ace Of Hearts (2012):
     Challenge:
     13:
     1.000,0.000,0.763,0.940,1.000: // measure 1
0000
0000
0000
0000
,  // measure 2
0000
0000
0000
0000
,  // measure 3
0000
0000
0000
0000
,  // measure 4
0000
0000
0000
0000
,  // measure 5
0000
0000
0000
0000
,  // measure 6
1M02
0013
0100
11M0
0000
010M
0000
M120
,  // measure 7
0000
0031
1M01
1000
102M
0030
M110
0100
,  // measure 8
01M2
0000
0000
0000
1003
0001
0010
0001
1000
0100
1000
0100
0010
0001
0010
0001
,  // measure 9
1000
0000
0000
0010
0000
0000
1000
0000
0000
0010
0000
0000
0100
0000
0000
0001
0000
0000
0100
0000
0000
0001
0000
0000
1000
0000
0100
0000
1000
0000
0100
0000
1000
0000
0100
0000
0010
0000
0001
0000
0010
0000
0001
0000
0010
0000
0001
0000
,  // measure 10
1M00
0010
0100
01M1
0000
1M01
0000
120M
,  // measure 11
0000
0000
0310
0100
1000
0100
0010
0001
1000
0001
1000
0010
0100
0000
0001
0000
,  // measure 12
2M01
0000
3010
0100
0001
0000
M011
0000
0000
0000
011M
0000
0000
0000
21M0
0000
,  // measure 13
0000
0000
3001
0010
0001
0010
0100
1000
0001
1000
0010
0100
0010
0000
1000
0000
,  // measure 14
20M1
0000
3010
0100
0001
0000
1M01
0000
0000
0000
11M0
0000
0000
0000
0M12
0000
,  // measure 15
0000
0000
1003
0010
0100
0001
1000
0001
0100
0010
1000
0001
1000
0000
0001
0000
,  // measure 16
0201
0000
0310
1000
0001
1000
0001
0000
0021
0000
0130
1000
0001
1000
0100
0000
,  // measure 17
0010
0000
0000
0001
0000
0000
1000
0000
0000
0001
0000
0000
0010
0000
0000
0100
0000
0000
0010
0000
0000
0001
0000
0000
1000
0000
0010
0000
1000
0000
0010
0000
1000
0000
0010
0000
0100
0000
0001
0000
0100
0000
0001
0000
0100
0000
0001
0000
,  // measure 18
2000
0000
3100
0010
0001
0010
0100
1000
0001
0100
0010
0100
0001
1000
0100
0010
,  // measure 19
0002
0000
1003
0100
0010
0100
1000
0001
0100
0001
1000
0100
0010
0001
0010
0100
,  // measure 20
2000
0000
3001
0100
0010
1000
0010
0100
0001
0000
10M0
0000
0000
0000
120M
0000
,  // measure 21
0000
0000
0310
0100
1000
0001
0100
0010
1000
0010
0100
0001
1000
0001
0010
0100
,  // measure 22
2000
0000
3001
0100
0010
1000
0001
0010
0100
1000
0100
0010
0001
0010
0100
1000
,  // measure 23
0002
0000
0103
0010
1000
0010
0100
0001
1000
0100
0010
0001
0010
0100
1000
0001
,  // measure 24
0200
0000
0310
0100
0001
1000
0010
0100
0002
0000
1003
0100
0010
0001
0010
0100
,  // measure 25
2000
0000
0000
3100
0000
0000
0010
0000
0000
0100
0000
0000
2000
0000
0000
3001
0000
0000
0100
0000
0000
0001
0000
0000
1000
0000
0100
0000
1000
0000
0100
0000
1000
0000
0100
0000
1000
0000
0000
0000
0000
0000
2004
0000
0000
0000
0000
0000
,  // measure 26
3000
0000
0103
0010
1000
0000
0001
0000
1000
0100
0010
0000
0001
0000
0402
0000
,  // measure 27
0003
0000
0310
1000
0001
0000
0010
0000
0100
1000
0001
0000
0100
0000
0220
0000
,  // measure 28
0300
0000
1030
0001
0010
0000
0100
0000
1000
0001
0100
0000
0010
0000
4020
0000
,  // measure 29
0030
0000
3001
0010
0100
0000
0010
0000
0001
1000
0010
0000
0100
0000
0202
0000
,  // measure 30
0300
0000
1003
0100
0010
0100
1000
0000
0001
0100
0010
1000
0010
0100
0001
1000
,  // measure 31
0100
0010
0001
0010
0100
1000
0001
0100
0010
1000
0010
0100
0001
1000
0001
0010
,  // measure 32
0200
2300
00M0
0000
00M0
0000
00M0
0000
,  // measure 33
3M02
0000
0000
0000
0M00
0000
0000
0000
0013
0100
0010
0100
1000
0100
1000
0100
,  // measure 34
0010
0000
0000
0001
0000
0000
0010
0000
0000
0001
0000
0000
1000
0000
0000
0010
0000
0000
1000
0000
0000
0010
0000
0000
1000
0000
0001
0000
1000
0000
0001
0000
1000
0000
0001
0000
0100
0000
0001
0000
0100
0000
0001
0000
0100
0000
0001
0000
,  // measure 35
10M0
0000
10M0
0000
10M0
0000
0001
0000
0010
0000
0100
0000
1000
0000
M02M
0030
,  // measure 36
0MM0
0000
0000
0000
0210
0000
0301
1000
0100
0000
0010
0000
0100
1000
0001
0000
,  // measure 37
00M0
0000
1200
0000
0310
0001
1000
0010
1000
0001
0010
0100
1000
0000
0000
0000
,  // measure 38
0001
0000
0010
0000
0000
0000
2200
0000
0000
0000
0000
0000
0000
0000
0001
0010
,  // measure 39
0001
0000
0000
0000
3300
0000
1000
0000
0001
0000
0100
0010
1000
0000
0001
0010
,  // measure 40
0100
1000
0001
0100
0010
1000
0010
0100
0001
1000
0100
0010
0001
1000
0020
0000
,  // measure 41
0000
0000
0130
0001
1000
0100
0010
0001
0010
0100
1000
0001
1000
0000
0001
0100
,  // measure 42
0010
1000
0010
0100
0001
1000
0100
0010
0001
0010
0100
1000
0001
0000
1000
0010
,  // measure 43
0100
0010
1000
0001
0100
0010
1000
0001
0010
0100
1000
0100
0010
0001
1MM0
0000
,  // measure 44
M00M
0000
0000
0000
1200
0000
0310
0001
1000
0000
0010
0000
0100
0001
1000
0000
,  // measure 45
0000
0000
1020
0000
0130
0001
1000
0001
0010
0100
1000
0001
0100
0000
0010
0100
,  // measure 46
0001
0100
0010
0000
1000
0000
1002
0000
0000
0000
0000
0000
0000
0000
0013
0000
,  // measure 47
0410
0000
0000
0000
1300
0001
0010
0100
0010
0100
1000
0001
0100
0010
1000
0000
,  // measure 48
1002
0000
0013
0100
1000
0000
1M01
0000
0000
0000
01M2
0000
0000
0000
1003
0100
,  // measure 49
1000
0000
0001
1000
0010
1000
0001
0010
0100
1000
0100
0010
0001
1000
0010
0000
,  // measure 50
M210
0000
0301
1000
0100
0000
011M
0000
0000
0000
0M11
0000
0000
0000
00M1
1000
,  // measure 51
0010
0100
0010
1000
0001
0010
0100
1000
0100
0010
0001
1000
0010
0100
0001
0000
,  // measure 52
2M01
0000
3100
0010
0001
0000
01M1
0000
0000
0000
011M
0000
0000
0000
1M00
0010
,  // measure 53
0100
0010
1000
0001
1000
0100
0010
0001
1000
0010
1000
0001
0010
0100
1000
0000
,  // measure 54
10M2
0000
0103
0010
1000
0000
0001
0000
M021
0000
0130
1000
0001
0100
0010
1000
,  // measure 55
0010
0000
0000
0100
0000
0000
0001
0000
0000
1000
0000
0000
0100
0000
0000
0010
0000
0000
0001
0000
0000
0010
0000
0000
0100
0000
1000
0000
0100
0000
1000
0000
0100
0000
1000
0000
0100
0000
0000
0000
0000
0000
0210
0000
0000
0000
0000
0000
,  // measure 56
0310
0001
1000
0000
0010
0100
0010
1000
0002
0000
0013
0000
0100
0000
2200
000M
,  // measure 57
3300
0000
1000
0000
0001
0100
0010
0100
0002
0000
1003
0000
0001
0000
0022
M000
,  // measure 58
0033
0000
0010
0000
0100
1000
0000
1M01
0000
0001
0000
1000
0010
0000
0220
000M
,  // measure 59
0330
0000
0100
0001
0100
0010
1000
0001
0100
0000
0010
0000
1000
0000
2200
00M0
,  // measure 60
3300
0000
0100
0010
0100
0000
1000
0001
0020
0000
0031
0000
1000
0010
1000
0001
,  // measure 61
0010
0100
1000
0001
0200
0000
0310
0100
0001
1000
0100
0010
0100
1000
0001
0100
,  // measure 62
M220
0000
0330
0000
2M20
3030
022M
0000
0330
0000
M202
0300
10M3
0100
0010
0001
,  // measure 63
1000
0000
1M10
0000
0000
011M
0000
0000
M101
0000
0000
1M01
0000
M011
0000
022M
,  // measure 64
0000
0030
1300
0001
0100
0010
0100
0001
1000
0001
0010
0100
1000
0001
0010
0001
,  // measure 65
2022
3033
2022
3033
2022
3033
1000
0000
0010
0000
0100
0000
0001
0000
2MM0
3000
,  // measure 66
M00M
0000
0000
0000
1M20
0000
0130
0001
10M0
0001
0000
M021
0000
0130
200M
3000
,  // measure 67
1M02
0000
0000
0000
1003
0000
0010
0000
0000
0000
M202
0000
0000
0000
0000
0000
0000
0000
1000
0010
1000
0000
0303
0000
0000
0000
0001
0000
1000
0000
0100
0000
,  // measure 68
0010
0100
210M
0000
3001
0100
0000
0010
0000
1000
1M02
0000
0023
0000
0230
0000
,  // measure 69
2300
0000
0000
0000
0000
0000
0000
0000
0000
0000
0000
0000
3000
0000
0000
0000
0000
0000
0000
0000
0000
0000
0000
0000
1M20
0000
0000
0000
0000
0000
0000
0000
0000
0000
0000
0000
0000
0000
0000
0000
0000
0000
0000
0000
0000
0000
0000
0000
0130
0000
0000
0000
0000
0000
0000
0000
0000
0000
0000
0000
0001
0000
0000
0000
0000
0000
0000
0000
0000
0000
0000
0000
2001
0000
0000
0000
0000
0000
0000
0000
0000
0000
0000
0000
3100
0000
0000
0000
0000
0000
0000
0000
0000
0000
0000
0000
0010
0000
0000
0000
0000
0000
0000
0000
0000
0000
0000
0000
0001
0000
0000
0000
0000
0000
0010
0000
0000
0000
0000
0000
0001
0000
0000
0000
0000
0000
0010
0000
0000
0000
0000
0000
0001
0000
0000
0000
0000
0000
0010
0000
0000
0000
0000
0000
0100
0000
0000
0000
0000
0000
1000
0000
0000
0000
0000
0000
0100
0000
0000
0000
0000
0000
1000
0000
0000
0000
0000
0000
0400
0000
0000
0000
0040
0000
0000
0000
0000
0000
0000
0000
0000
0000
0000
0000
0000
0000
0000
0000
0000
0000
0000
0000
,  // measure 70
0000
0000
0000
M00M
0330
0000
0000
0000
0000
0MM0
0000
0000
0000
0000
0000
0000
0000
0000
0000
0000
0000
0000
0000
0000
0021
0000
0000
0000
0000
0000
0130
0000
0000
1000
0000
0000
0001
0000
0000
0000
0000
0000
0100
0000
0000
0000
0000
0000
,  // measure 71
0010
0100
0002
0000
0000
0000
1003
0010
0100
0001
0100
0010
1000
0001
0010
0100
,  // measure 72
1000
0000
0001
0100
0010
0100
0001
1000
0100
0010
0002
0000
0000
0000
0000
0000
,  // measure 73
0000
0000
1003
0000
1400
0000
0000
0000
0310
0001
1000
0001
0100
0010
0100
0001
,  // measure 74
1000
0100
0010
0000
0M12
0000
1003
0010
0100
0000
01M1
0000
0000
0000
1M01
0000
,  // measure 75
0000
0000
220M
0000
3000
0000
0310
0100
1000
0001
0010
0001
1000
0001
0100
0010
,  // measure 76
1000
0001
0010
0000
021M
0000
1300
0001
0100
0000
M110
0000
0000
0000
0M10
1000
,  // measure 77
0001
0000
M022
0000
0003
0000
0130
1000
0100
0010
0001
1000
0001
0100
0010
1000
,  // measure 78
0001
0010
0001
0000
2001
0000
3010
0100
0001
0000
10M1
0000
0M00
0000
1000
0010
,  // measure 79
0100
0000
0202
0000
0300
0000
1003
0100
0010
0100
1000
0001
0100
0010
0100
0001
,  // measure 80
1000
0010
1000
0000
10M2
0000
0013
0100
1000
0100
0010
0000
0M12
0000
1003
0010
,  // measure 81
0100
0000
0000
0010
0000
0000
1000
0000
0000
0001
0000
0000
0010
0000
0000
0100
0000
0000
1000
0000
0000
0100
0000
0000
0010
0000
0000
0100
0000
0000
1000
0000
0000
0001
0000
0000
0100
0000
0001
0000
0100
0000
0001
0000
0100
0000
0001
0000
,  // measure 82
1000
1100
0000
0000
0000
0000
0000
0000
;

//---------------dance-single - Medium----------------
#NOTES:
     dance-single:
     Ace Of Hearts (2012):
     Medium:
     7:
     0.431,0.000,0.000,0.674,0.053: // measure 1
0000
0000
0000
0000
,  // measure 2
0000
0000
0000
0000
,  // measure 3
0000
0000
0000
0000
,  // measure 4
0000
0000
0000
0000
,  // measure 5
0000
0000
0000
0000
,  // measure 6
0000
0000
2000
0000
0000
3010
0000
0200
,  // measure 7
0000
0000
0000
0000
0300
0000
0001
1000
,  // measure 8
0002
0000
1003
0200
0000
0310
0000
0400
,  // measure 9
0000
0000
0000
0000
,  // measure 10
2300
0000
0000
3100
0000
0010
0000
0002
,  // measure 11
0000
0000
1003
0010
0000
0100
0000
0002
,  // measure 12
0000
0000
0000
1003
0000
0100
0000
0020
,  // measure 13
0000
0032
1003
0020
,  // measure 14
0230
0000
0000
0301
0000
1000
0000
0020
,  // measure 15
0000
0000
0130
0001
0000
1000
0000
0004
,  // measure 16
0000
0000
0000
0000
,  // measure 17
4003
0000
0000
0000
,  // measure 18
3000
0000
0000
0000
0002
0000
1003
0200
,  // measure 19
0000
0000
1300
0000
0002
0000
1003
0020
,  // measure 20
0000
0000
0000
0000
,  // measure 21
0000
0030
0000
0200
,  // measure 22
0302
0000
0000
0000
0000
1003
0010
0400
,  // measure 23
0000
0300
0010
1000
,  // measure 24
0002
0000
0000
0000
0000
0013
0100
2000
,  // measure 25
0000
0000
3000
0000
0002
0000
1003
0020
,  // measure 26
0000
0030
0000
1000
0010
1000
0000
0004
,  // measure 27
0000
0000
0003
0000
0020
0000
0130
2000
,  // measure 28
0000
0000
0000
3001
0100
0001
0000
4000
,  // measure 29
0000
0000
3000
0000
0002
0000
0013
0200
,  // measure 30
0000
0000
0000
0000
,  // measure 31
0000
0000
0000
0300
,  // measure 32
1000
0002
0000
0000
0000
0000
0000
0000
,  // measure 33
2003
0000
3020
0000
,  // measure 34
0430
0000
0000
0000
,  // measure 35
0301
1000
0001
2000
0000
3001
0100
0001
,  // measure 36
0000
0000
2000
0000
3001
0010
0001
0000
,  // measure 37
0000
2000
0000
3001
0100
0000
0010
0000
,  // measure 38
0100
0001
0000
2000
0000
0000
0000
3001
,  // measure 39
0100
0000
0000
0010
0100
0000
0001
0000
,  // measure 40
2000
0000
3001
0010
0000
0100
0000
2000
,  // measure 41
0000
3002
0103
0010
,  // measure 42
2000
0000
3001
0010
0000
0100
0000
2000
,  // measure 43
0000
0000
3000
0001
0200
0000
0301
1000
,  // measure 44
0000
0000
0002
0000
1003
0000
0100
0010
,  // measure 45
0000
0200
0000
0000
1300
0000
0001
0000
,  // measure 46
1000
0100
0000
0020
0000
0000
0000
0130
,  // measure 47
1000
0000
0000
0001
0100
0000
0001
0000
,  // measure 48
2000
0000
3001
1000
0000
0010
0000
0200
,  // measure 49
0000
0301
1000
0001
,  // measure 50
0020
0000
0031
1000
0000
0100
0000
0020
,  // measure 51
0000
0130
1000
0001
,  // measure 52
2000
0000
3010
0100
0000
0001
0000
2000
,  // measure 53
0000
3001
0010
0100
,  // measure 54
2000
0000
0000
3001
0200
0000
0000
0000
,  // measure 55
0340
0000
0030
0000
,  // measure 56
1000
0001
1000
0000
0001
0000
1000
0020
,  // measure 57
0000
1030
0001
0000
0100
0000
0001
2000
,  // measure 58
0000
3001
0010
0000
0001
0000
0000
2000
,  // measure 59
0000
3400
0000
0000
0300
0000
0010
0002
,  // measure 60
0000
1003
0010
0000
1000
0000
0001
0000
,  // measure 61
0040
0000
0000
0030
,  // measure 62
0200
0000
1300
0002
0000
1003
0100
1000
,  // measure 63
0000
0000
0001
0000
0000
0100
0000
0000
0001
0000
0000
1000
0000
0000
0000
0002
,  // measure 64
0000
4003
0000
0000
0000
0000
0000
3000
,  // measure 65
0010
0010
0010
0000
0000
0000
0000
0000
,  // measure 66
0000
0000
0000
0000
2000
0000
3001
0000
0100
0000
0000
0010
0000
0000
0010
0000
,  // measure 67
0010
0000
0000
0100
0000
0200
0000
0000
0000
0000
0301
0000
0000
0000
1000
0000
,  // measure 68
0100
0000
0020
0000
0000
0031
0000
0010
0000
0002
0000
0000
1003
0000
0100
0000
,  // measure 69
0000
0000
0020
0000
0000
0130
0000
1000
0000
0200
0000
0000
0000
0000
0310
0000
,  // measure 70
0001
0000
2000
3001
,  // measure 71
0100
0000
0000
0002
0000
0000
2003
0000
,  // measure 72
3010
0000
0100
0001
0000
2000
0000
0000
,  // measure 73
0000
3001
0100
0000
0000
0010
0100
0000
,  // measure 74
0001
0000
2000
0000
3001
0010
0000
0100
,  // measure 75
0000
2000
0000
0000
3001
0000
0200
0000
,  // measure 76
0301
0000
2000
0000
3001
1000
0000
0100
,  // measure 77
0000
0020
0000
0000
0130
0000
1000
0000
,  // measure 78
0001
0000
0200
0000
0310
1000
0000
0001
,  // measure 79
0000
0200
0000
0000
0310
0000
1000
0000
,  // measure 80
0001
0000
0020
0000
0000
0130
2000
0000
,  // measure 81
0000
0000
3001
0100
0001
0000
1000
0100
,  // measure 82
0010
0000
0000
0000
;

//---------------dance-single - Easy----------------
#NOTES:
     dance-single:
     Ace Of Hearts (2012):
     Easy:
     3:
     0.189,0.000,0.009,0.293,0.000: // measure 1
0000
0000
0000
0000
,  // measure 2
0000
0000
0000
0000
,  // measure 3
0000
0000
0000
0000
,  // measure 4
0000
0000
0000
0000
,  // measure 5
0000
0000
0000
0000
,  // measure 6
0000
0002
0000
0000
,  // measure 7
0003
0000
0000
0000
,  // measure 8
0010
0000
0010
0000
,  // measure 9
0010
0000
0000
0000
,  // measure 10
0100
0000
0100
0100
,  // measure 11
0200
0000
0300
0000
,  // measure 12
1000
0000
1000
1000
,  // measure 13
2000
0000
3000
0000
,  // measure 14
0001
0000
0001
0001
,  // measure 15
0002
0000
0003
0000
,  // measure 16
0100
0000
0100
0000
,  // measure 17
0200
0000
0000
0000
,  // measure 18
0300
0000
0010
0010
,  // measure 19
0010
0000
0010
0000
,  // measure 20
0020
0000
0000
0000
,  // measure 21
0030
0000
0000
0000
,  // measure 22
2000
0000
0000
0000
,  // measure 23
3001
0000
0000
0000
,  // measure 24
0002
0000
0000
0000
,  // measure 25
0103
0000
0000
0000
,  // measure 26
0010
0000
0010
0000
,  // measure 27
0020
0000
0030
0000
,  // measure 28
1000
0000
1000
0000
,  // measure 29
2000
0000
3000
0000
,  // measure 30
0002
0000
0000
0000
,  // measure 31
0000
0000
0000
0000
,  // measure 32
2003
0000
0000
0000
,  // measure 33
0000
0000
0000
0000
,  // measure 34
3040
0000
0000
0000
,  // measure 35
0030
0000
0000
0000
,  // measure 36
0000
1000
1000
1000
,  // measure 37
0000
2000
0000
3000
,  // measure 38
0000
0000
0002
0000
,  // measure 39
0003
0000
0010
0010
,  // measure 40
0010
0000
0010
0000
,  // measure 41
0020
0000
0030
0000
,  // measure 42
0100
0100
0100
0000
,  // measure 43
0200
0000
0300
0000
,  // measure 44
0000
0010
0010
0010
,  // measure 45
0000
0020
0000
0030
,  // measure 46
0000
0000
0002
0000
,  // measure 47
0003
0000
1000
1000
,  // measure 48
2000
0000
3000
0000
,  // measure 49
0010
0010
0010
0000
,  // measure 50
0020
0000
0030
0000
,  // measure 51
0100
0100
0100
0000
,  // measure 52
0002
0000
0003
0000
,  // measure 53
1000
1000
1000
0000
,  // measure 54
2000
0000
0000
0000
,  // measure 55
0000
0000
3000
0000
,  // measure 56
0004
0000
0000
0003
,  // measure 57
0000
4000
0000
3000
,  // measure 58
0000
0040
0000
0030
,  // measure 59
0400
0000
0000
0300
,  // measure 60
0000
0001
0001
0001
,  // measure 61
0004
0000
0000
0003
,  // measure 62
1000
0000
1000
0000
,  // measure 63
2000
0000
0000
0000
,  // measure 64
3000
0040
0000
0000
,  // measure 65
0030
0000
0000
0000
,  // measure 66
0000
1000
1000
2000
,  // measure 67
3000
0000
0000
0002
0000
0003
0000
0000
,  // measure 68
0000
0010
0000
0010
0000
0010
0000
0000
,  // measure 69
0000
0100
0000
0100
0000
0200
0000
0000
,  // measure 70
0300
0000
1000
1000
,  // measure 71
1000
0000
0002
0000
,  // measure 72
0003
0000
0000
0020
,  // measure 73
0000
0030
0000
0100
,  // measure 74
0000
0100
0000
1000
,  // measure 75
1000
2000
0000
3000
,  // measure 76
0000
0001
0000
0001
,  // measure 77
0001
0002
0000
0003
,  // measure 78
0000
0100
0000
0100
,  // measure 79
0100
0200
0000
0300
,  // measure 80
0000
0010
0000
0010
,  // measure 81
0000
1000
0000
2002
,  // measure 82
0000
3003
0000
0000
;

//---------------dance-single - Novice----------------
#NOTES:
     dance-single:
     Ace Of Hearts (2012):
     Beginner:
     1:
     0.101,0.000,0.000,0.213,0.000: // measure 1
0000
0000
0000
0000
,  // measure 2
0000
0000
0000
0000
,  // measure 3
0000
0000
0000
0000
,  // measure 4
0000
0000
0000
0000
,  // measure 5
0000
0000
0000
0000
,  // measure 6
2000
0000
0000
0000
,  // measure 7
3000
0000
0000
0000
,  // measure 8
0002
0000
0000
0000
,  // measure 9
0003
0000
0000
0000
,  // measure 10
0200
0000
0000
0000
,  // measure 11
0300
0000
0000
0000
,  // measure 12
0002
0000
0000
0000
,  // measure 13
0003
0000
0000
0000
,  // measure 14
2000
0000
0000
0000
,  // measure 15
3000
0000
0000
0000
,  // measure 16
0002
0000
0000
0000
,  // measure 17
0003
0000
0000
0000
,  // measure 18
0010
0000
0000
0000
,  // measure 19
0010
0000
0000
0000
,  // measure 20
0020
0000
0000
0000
,  // measure 21
0030
0000
0000
0000
,  // measure 22
0200
0000
0000
0000
,  // measure 23
0300
0000
0000
0000
,  // measure 24
2000
0000
0000
0000
,  // measure 25
3000
0000
0000
0000
,  // measure 26
0001
0000
0000
0000
,  // measure 27
0001
0000
0000
0000
,  // measure 28
1000
0000
0000
0000
,  // measure 29
1000
0000
0000
0000
,  // measure 30
0200
0000
0000
0000
,  // measure 31
0300
0000
0000
0000
,  // measure 32
0020
0000
0000
0000
,  // measure 33
0030
0000
0000
0000
,  // measure 34
0002
0000
0000
0000
,  // measure 35
0003
0000
0000
0000
,  // measure 36
0000
1000
0000
0000
,  // measure 37
0000
1000
0000
0000
,  // measure 38
0000
2000
0000
0000
,  // measure 39
3000
0000
0000
0000
,  // measure 40
0001
0000
0000
0000
,  // measure 41
0001
0000
0000
0000
,  // measure 42
0001
0000
0000
0000
,  // measure 43
0002
0000
0000
0000
0000
0000
0000
0003
,  // measure 44
0000
0100
0000
0000
,  // measure 45
0000
0100
0000
0000
,  // measure 46
0000
0200
0000
0000
,  // measure 47
0300
0000
0000
0000
,  // measure 48
0001
0000
0000
0000
,  // measure 49
0001
0000
0000
0000
,  // measure 50
1000
0000
0000
0000
,  // measure 51
1000
0000
0000
0000
,  // measure 52
0100
0000
0000
0000
,  // measure 53
0100
0000
0000
0000
,  // measure 54
0200
0000
0000
0000
,  // measure 55
0300
0000
0000
0000
,  // measure 56
0020
0000
0000
0000
,  // measure 57
0030
0000
0000
0000
,  // measure 58
0002
0000
0000
0000
,  // measure 59
0003
0000
0000
0000
,  // measure 60
2000
0000
0000
0000
,  // measure 61
3000
0000
0000
0000
,  // measure 62
0100
0000
0000
0000
,  // measure 63
0100
0000
0000
0000
,  // measure 64
0200
0000
0000
0000
,  // measure 65
0300
0000
0000
0000
,  // measure 66
0000
0010
0000
0010
,  // measure 67
0000
0010
0000
0000
,  // measure 68
0002
0000
0000
0000
,  // measure 69
0000
0000
0000
0000
,  // measure 70
0003
0000
1000
0000
,  // measure 71
0000
0000
1000
0000
,  // measure 72
0000
0000
2000
0000
,  // measure 73
0000
3000
0000
0000
,  // measure 74
0000
0001
0000
0000
,  // measure 75
0000
0001
0000
0000
,  // measure 76
0000
0010
0000
0000
,  // measure 77
0000
0010
0000
0000
,  // measure 78
0000
0100
0000
0000
,  // measure 79
0000
0100
0000
0000
,  // measure 80
0000
2000
0000
3000
,  // measure 81
0000
0002
0000
0003
;
