#TITLE:Yamato Nadeshiko Education;
#SUBTITLE:;
#ARTIST:Triple Booking;
#TITLETRANSLIT:;
#SUBTITLETRANSLIT:;
#ARTISTTRANSLIT:;
#GENRE:Silly J-Pop;
#CREDIT:Ace Of Hearts;
#BANNER:Yamato Nadeshiko Education - bn.png;
#BACKGROUND:Yamato Nadeshiko Education - bg.jpg;
#LYRICSPATH:Yamato Nadeshiko Education lyrics.lrc;
#CDTITLE:Ace Of Hearts.png;
#MUSIC:Yamato Nadeshiko Education.ogg;
#OFFSET:0.120;
#SAMPLESTART:45.200;
#SAMPLELENGTH:12.000;
#SELECTABLE:YES;
#BPMS:0.000=172.000;
#STOPS:;
#BGCHANGES:3.667=Seitokai Yakuindomo OP.avi=1.000=1=0=0=StretchNoLoop==CrossFade==,
99999=-nosongbg-=1.000=0=0=0 // don't automatically add -songbackground-
;
#KEYSOUNDS:;

//---------------dance-single - Hard----------------
#NOTES:
     dance-single:
     Ace Of Hearts (2011):
     Hard:
     7:
     0.570,0.250,0.119,0.979,0.000: // measure 1
0000
0000
0000
0000
,  // measure 2
0001
0010
0001
0010
0100
1000
0100
0000
,  // measure 3
1000
0001
1000
0001
0010
0001
0010
0000
,  // measure 4
0100
1000
0100
1000
0000
0001
1000
0000
,  // measure 5
0001
0100
0002
0000
1003
0010
2000
0000
,  // measure 6
3001
0010
0001
0010
0100
0000
0000
0000
,  // measure 7
0000
0000
0000
0000
,  // measure 8
4000
0000
0000
3000
,  // measure 9
0002
0000
1003
0100
0000
1000
0001
1000
,  // measure 10
0002
0000
0013
0100
0000
0000
0000
0000
,  // measure 11
1000
0200
0000
0310
0001
0010
0001
1000
,  // measure 12
0002
0000
1003
0200
0000
0000
0300
0000
,  // measure 13
0000
0020
0130
0000
,  // measure 14
0010
0001
0010
0002
0000
1003
0010
1000
,  // measure 15
0000
0000
0000
0000
,  // measure 16
0000
0000
0000
0000
0001
0200
0000
0000
,  // measure 17
0320
0000
1030
0002
0000
1003
0010
1000
,  // measure 18
0010
0100
0010
0100
0000
0000
0000
0000
,  // measure 19
0002
0000
1003
0200
0000
0310
0001
0010
,  // measure 20
0001
1000
0001
2000
0000
0000
0000
3000
,  // measure 21
0000
0001
0100
0000
,  // measure 22
0001
1000
0001
2000
0000
3001
0100
0001
,  // measure 23
0000
0000
0000
0000
,  // measure 24
0000
0000
0000
0000
1000
0100
0010
0100
,  // measure 25
2000
0000
3000
0000
0001
0010
0100
0010
,  // measure 26
0002
0000
0003
1000
0200
0000
0300
0000
,  // measure 27
0020
0032
2003
3200
,  // measure 28
0310
0001
0010
0200
0000
0000
0300
0000
,  // measure 29
0010
0001
0000
0010
0100
0000
0010
0001
,  // measure 30
0000
1000
0001
1000
0200
0000
0320
0000
,  // measure 31
0230
2300
3002
0023
,  // measure 32
0230
0000
0000
2300
0002
0000
0000
0000
,  // measure 33
0000
3003
0002
1003
,  // measure 34
2200
0000
3300
0000
0100
1000
0001
0000
,  // measure 35
0202
0303
0200
0320
,  // measure 36
1030
0010
1000
0010
0100
0010
0100
0002
,  // measure 37
0000
2003
3200
0320
,  // measure 38
0031
1000
0010
1000
0002
0000
0003
0010
,  // measure 39
0100
0010
0001
1000
0020
0000
0030
0100
,  // measure 40
0020
0000
2030
0000
3001
0010
0100
2000
,  // measure 41
0000
0000
0000
3000
0020
0000
1030
0000
,  // measure 42
2002
0000
3003
0000
1000
0010
0100
0000
,  // measure 43
0202
0303
0002
2003
,  // measure 44
3001
0010
0001
0020
0000
0031
0010
0200
,  // measure 45
0000
0320
0032
2003
,  // measure 46
3020
0000
0130
0002
0000
0000
0003
0000
,  // measure 47
0020
0000
0031
2000
0000
0000
3000
0010
,  // measure 48
2000
0000
3002
0000
0013
0001
0010
0200
,  // measure 49
0000
0300
2000
3002
,  // measure 50
0203
0000
0000
0301
2000
0000
0000
0000
,  // measure 51
3000
0000
0000
0001
0010
0001
0010
0001
,  // measure 52
1000
0100
0110
1001
,  // measure 53
1100
0000
0011
0000
0001
1000
0001
0000
,  // measure 54
2002
0000
0000
0000
,  // measure 55
3003
0000
0000
0000
;

//---------------dance-single - Expert----------------
#NOTES:
     dance-single:
     Ace Of Hearts (2011):
     Challenge:
     10:
     0.895,0.357,0.463,0.846,0.298:
0000
0000
0000
0000
,
0001
0000
0010
0000
0100
1000
0100
0000
0010
0001
0010
0000
0100
0000
1000
0000
,
0001
0000
0100
0000
0010
0000
1000
0000
0001
0010
0001
0000
1000
0000
0010
0000
,
0100
0001
1000
0100
00M0
1000
0001
0000
,
1000
0010
0220
0330
0100
0001
2002
3003
,
1100
0100
0110
0010
0022
0033
1001
1001
,
0000
0000
1000
0100
0010
0100
0010
0001
0010
0100
2000
0000
0000
0000
0000
0000
,
3001
0100
0001
0100
0010
1000
0010
1000
0001
0010
0001
0010
0100
1000
0100
0010
,
0002
0000
1003
0010
0000
1000
0100
0001
,
0200
0000
1300
0001
0100
0010
0100
0001
,
1000
0200
0000
0310
1000
0010
0001
1000
,
0010
0000
1000
0000
0001
0000
0010
0001
0010
0000
0100
0000
1000
0000
0001
0000
,
0200
0000
0310
0000
1010
1000
0001
0010
,
0100
0010
0001
2000
0000
3010
0100
0002
,
1003
0000
0001
0010
0001
0010
0001
1000
0010
1000
0010
1000
0001
0100
0001
0100
,
0010
1000
0010
1000
0001
0010
0001
0010
0100
0000
2000
0000
0000
0000
3000
0000
,
1002
0000
0103
0020
0000
1030
0001
1000
,
0100
0001
0100
1000
0001
0100
0010
1000
,
0001
0010
0100
2000
0000
3001
1000
0001
,
0010
0000
1000
0000
0010
0000
0001
1000
0001
0000
0100
0000
0010
0000
1000
0000
,
0002
0000
0000
0000
0023
0000
0000
0030
0110
0000
0100
0000
1000
0000
0001
0000
,
0100
0010
1000
0002
0000
0013
0001
1000
,
0100
0010
0100
0000
1000
0000
0001
0000
0100
0010
0100
0000
0001
0000
0100
0000
,
0001
1000
0001
0000
0010
0000
0000
0000
0100
0000
1000
0100
0010
0000
0001
0000
,
0201
0000
0310
0000
1000
0000
0001
0010
0100
0010
0001
0000
1000
0000
0100
0000
,
0120
0031
1000
0001
0010
0100
1000
0001
,
0010
0000
0001
0000
1000
0000
0001
0100
0010
0100
0001
0000
1000
0000
0001
0000
,
0010
0000
1000
0000
0010
0000
0001
1000
0001
0000
0100
0000
0001
0000
1000
0000
,
1100
0M01
0000
0101
1M00
0000
1100
0M01
,
0000
0000
1000
0000
0010
0000
1000
0001
1000
0000
0010
0000
0100
0000
0000
0000
,
0202
0000
0000
0303
2002
0000
0000
3003
2200
0000
0000
3300
0220
0000
0000
0330
,
0022
0000
0030
1003
0200
0000
0010
0010
,
1000
1300
1001
0000
0002
0000
0200
0000
,
1000
0000
0303
0000
0001
0010
0001
1000
,
2020
3030
0020
0230
,
0301
1000
0100
0001
0100
1000
0001
0200
,
0000
0010
0001
0310
,
1000
0010
0001
0010
2000
0000
3000
0001
,
1000
0100
0001
0100
2000
0000
3000
0001
,
0200
0000
0320
0000
0130
0001
1000
0200
,
0000
0000
0310
0000
0100
0000
1000
0000
0001
1000
0100
0000
0010
0200
2000
0000
,
0001
0000
3300
0000
1000
0001
0010
0000
,
0220
0330
0200
2300
,
3001
0100
1000
0200
0000
0310
1000
0002
,
0000
0000
1000
0000
1000
0000
0023
0030
,
0210
0000
1300
0002
0000
1003
0010
0100
,
0102
0000
1003
0200
0000
0310
0001
1000
,
0020
0000
2030
0000
3001
0100
1000
0200
,
0000
0310
1000
0001
0010
0100
1000
0001
,
2000
0000
0000
0000
3010
0000
0100
0000
0001
0000
1000
0000
0001
0010
0100
0010
,
0001
0000
1000
0000
1010
0000
0010
0100
0010
1000
0010
0100
0001
0000
1000
0000
,
1100
0011
1001
1010
,
0110
0000
0101
0000
0110
0010
1010
1000
,
2002
0000
0000
0000
,
3003
0000
0000
0000
;

//---------------dance-single - Medium----------------
#NOTES:
     dance-single:
     Ace Of Hearts (2011):
     Medium:
     5:
     0.310,0.107,0.013,0.397,0.000:
0000
0000
0000
0000
,
1000
0100
1000
0000
,
0001
0010
0001
0000
,
1000
0000
0001
0000
0000
1000
0000
0000
,
0010
0010
1000
1000
,
0001
1000
1000
0000
,
0000
0000
0000
0000
,
0000
0000
0000
0000
,
0010
1000
0010
1000
,
1000
0000
0000
1000
0000
0000
0000
0000
,
0010
0000
0100
0001
,
0100
0000
0000
0200
0000
0000
0300
0000
,
0000
0001
1000
0000
,
0010
0000
0000
1000
0000
0001
0000
1000
,
0000
0000
0000
0000
,
0000
0000
0000
0000
,
0001
1000
0001
0100
,
0100
0000
0000
0100
0000
0000
0000
0000
,
0010
1000
0010
1000
,
0001
0000
0000
0002
0000
0000
0003
0000
,
0000
1000
0100
0000
,
0010
0000
0001
0000
0010
0000
0000
0100
,
0000
0000
0000
0000
,
0000
0000
1000
0100
,
2000
3000
0001
0010
,
0002
0000
2003
0000
,
3010
1000
0010
1000
,
0001
0000
0000
0002
0000
0000
0003
0000
,
1000
0000
0000
0000
0100
0000
0000
0010
,
0000
0001
1000
0001
,
2000
3200
0320
0032
,
2003
0000
3002
0000
,
0003
0000
0010
0100
,
2000
3000
0001
0010
,
0002
0003
1000
0010
,
1000
0000
0010
0000
1000
0000
0000
2000
,
0000
0000
3000
0000
,
0001
0100
0002
0003
,
1000
0010
2000
3000
,
0001
0000
1000
0000
0001
0000
0000
0200
,
0000
0300
0001
1000
,
0002
0003
1000
0100
,
0020
0030
0100
0010
,
0100
0000
0010
0000
0001
0000
0000
0002
,
0000
0003
0000
0000
,
2000
0000
0000
3002
0000
0000
0003
0000
,
0020
0000
0000
0230
0000
0000
0300
0000
,
1000
0000
0001
0000
1000
0000
0000
0200
,
0000
0300
0010
0001
,
0020
0000
0230
0000
,
0300
0000
1000
0001
,
1000
1000
0010
0010
,
0100
0100
0001
0001
,
2002
0000
0000
0000
,
3003
0000
0000
0000
;

//---------------dance-single - Easy----------------
#NOTES:
     dance-single:
     Ace Of Hearts (2011):
     Easy:
     3:
     0.234,0.107,0.013,0.145,0.000: // measure 1
0000
0000
0000
0000
,  // measure 2
0001
0001
0001
0000
,  // measure 3
1000
1000
1000
0000
,  // measure 4
0100
0200
0000
0300
,  // measure 5
1000
1000
1000
0000
,  // measure 6
0001
0001
0001
0000
,  // measure 7
0000
0000
0000
0000
,  // measure 8
0000
0000
0000
0000
,  // measure 9
1000
1000
1000
0000
,  // measure 10
0010
0000
0010
0000
,  // measure 11
0100
0100
0100
0000
,  // measure 12
0001
0000
0001
0000
,  // measure 13
0000
1000
1000
0000
,  // measure 14
0001
0001
0001
0000
,  // measure 15
0100
0000
0000
0000
,  // measure 16
0000
0000
0000
0000
,  // measure 17
0010
0010
0010
0000
,  // measure 18
1000
0000
1000
0000
,  // measure 19
0001
0001
0001
0000
,  // measure 20
0010
0000
0010
0000
,  // measure 21
0000
0100
0100
0000
,  // measure 22
1000
1000
1000
0000
,  // measure 23
0001
0000
0000
0000
,  // measure 24
0000
0000
1000
1000
,  // measure 25
1000
0000
0010
0010
,  // measure 26
0020
0000
0030
0000
,  // measure 27
0100
0100
0100
0000
,  // measure 28
0002
0000
0003
0000
,  // measure 29
1000
0000
0100
0000
,  // measure 30
0010
0000
0001
0000
,  // measure 31
1000
0000
1000
0000
,  // measure 32
2000
0000
0000
0000
,  // measure 33
3000
0000
0001
1000
,  // measure 34
0001
0000
0010
0010
,  // measure 35
0010
0000
0100
0100
,  // measure 36
0100
0000
1000
0000
,  // measure 37
2000
0000
3000
0000
,  // measure 38
0001
0001
0001
0000
,  // measure 39
0100
0100
0100
0000
,  // measure 40
0010
0010
0010
0000
,  // measure 41
1000
0000
0001
1000
,  // measure 42
0001
0000
0100
0100
,  // measure 43
0100
0000
0010
0010
,  // measure 44
0010
0000
0100
0000
,  // measure 45
0200
0000
0300
0000
,  // measure 46
0020
0000
0030
0000
,  // measure 47
2000
0000
3000
0000
,  // measure 48
0001
0001
0001
0000
,  // measure 49
0100
0000
0010
0010
,  // measure 50
0020
0000
0000
0000
,  // measure 51
0030
0000
0100
0000
,  // measure 52
0001
0001
0001
0000
,  // measure 53
1000
1000
1000
0000
,  // measure 54
2002
0000
0000
0000
,  // measure 55
3003
0000
0000
0000
;

//---------------dance-single - Novice----------------
#NOTES:
     dance-single:
     Ace Of Hearts (2011):
     Beginner:
     1:
     0.164,0.071,0.013,0.291,0.000: // measure 1
0000
0000
0000
0000
,  // measure 2
0002
0000
0003
0000
,  // measure 3
2000
0000
3000
0000
,  // measure 4
0020
0000
0030
0000
,  // measure 5
1000
0000
1000
0000
,  // measure 6
2000
0000
3000
0000
,  // measure 7
0000
0000
0000
0000
,  // measure 8
0000
0000
0000
0000
,  // measure 9
0001
0000
0001
0000
,  // measure 10
0001
0000
0000
0000
,  // measure 11
0100
0000
0100
0000
,  // measure 12
0100
0000
0000
0000
,  // measure 13
0020
0000
0030
0000
,  // measure 14
1000
0000
1000
0000
,  // measure 15
1000
0000
0000
0000
,  // measure 16
0000
0000
0000
0000
,  // measure 17
0001
0000
0001
0000
,  // measure 18
0001
0000
0000
0000
,  // measure 19
0010
0000
0010
0000
,  // measure 20
0010
0000
0000
0000
,  // measure 21
0002
0000
0003
0000
,  // measure 22
1000
0000
1000
0000
,  // measure 23
1000
0000
0000
0000
,  // measure 24
0000
0000
0001
0000
,  // measure 25
0001
0000
0002
0000
,  // measure 26
0003
0000
0000
0000
,  // measure 27
0010
0000
0010
0000
,  // measure 28
0020
0000
0030
0000
,  // measure 29
0001
0000
0001
0000
,  // measure 30
0002
0000
0003
0000
,  // measure 31
0010
0000
0010
0000
,  // measure 32
0020
0000
0030
0000
,  // measure 33
0000
0000
0001
0000
,  // measure 34
0001
0000
2000
0000
,  // measure 35
3000
0000
0000
0000
,  // measure 36
0010
0000
0010
0000
,  // measure 37
0020
0000
0030
0000
,  // measure 38
0200
0000
0300
0000
,  // measure 39
0002
0000
0003
0000
,  // measure 40
2000
0000
3000
0000
,  // measure 41
0000
0000
0010
0000
,  // measure 42
0010
0000
0200
0000
,  // measure 43
0300
0000
0000
0000
,  // measure 44
0001
0000
0001
0000
,  // measure 45
0002
0000
0003
0000
,  // measure 46
2000
0000
3000
0000
,  // measure 47
0002
0000
0003
0000
,  // measure 48
0100
0000
0100
0000
,  // measure 49
0100
0000
0000
0000
,  // measure 50
0020
0000
0000
0000
,  // measure 51
0030
0000
0000
0000
,  // measure 52
1000
0000
1000
0000
,  // measure 53
0001
0000
0001
0000
,  // measure 54
2002
0000
0000
0000
,  // measure 55
3003
0000
0000
0000
;
