#TITLE:Winter Bells;
#SUBTITLE:;
#ARTIST:Chata;
#TITLETRANSLIT:;
#SUBTITLETRANSLIT:;
#ARTISTTRANSLIT:;
#GENRE:J-Christmas;
#CREDIT:Ace Of Hearts;
#BANNER:Winter Bells - bn.png;
#BACKGROUND:Winter Bells - bg.jpg;
#LYRICSPATH:;
#CDTITLE:Ace Of Hearts.png;
#MUSIC:Winter Bells.ogg;
#OFFSET:1.220;
#SAMPLESTART:79.300;
#SAMPLELENGTH:12.000;
#SELECTABLE:YES;
#BPMS:0.000=180.000;
#STOPS:;
#BGCHANGES:3.500=Shirokuma Bell Stars OP.avi=1.000=1=0=1===CrossFade==,
99999=-nosongbg-=1.000=0=0=0 // don't automatically add -songbackground-
;
#KEYSOUNDS:;

//---------------dance-single - Expert----------------
#NOTES:
     dance-single:
     Ace Of Hearts (2011):
     Challenge:
     10:
     0.719,0.000,0.552,0.755,0.049:
0000
0000
0000
0000
,
0000
0000
0000
0000
,
0000
0000
0000
0000
,
0000
0000
0000
0000
,
0000
0000
0000
0000
,
0000
0000
0000
0000
,
0000
0000
0000
0000
,
0000
0000
0000
0000
,
0000
0000
0000
0000
,
0000
0000
0000
0000
,
0000
0000
0000
0000
,
0000
0000
0000
0000
,
0000
0000
0000
0000
,
1100
0000
0000
0000
0000
0000
0000
0011
,
0000
0000
0000
1001
0000
1010
0020
0030
,
0110
0000
0000
0000
0000
0000
0000
0101
,
0000
0000
0000
1001
0000
1100
0200
0300
,
0110
0000
0000
0000
0000
0000
0011
1001
,
0000
0000
0000
1010
0000
0102
0000
0003
,
2001
0000
3100
0120
0000
0031
2001
0000
,
0000
3010
0100
0001
1000
0100
2000
3000
,
1002
0013
0100
1000
0001
0100
0010
2010
,
3001
0100
0010
0100
0001
1000
0100
0010
,
0012
1003
0010
0100
0001
1000
0100
0120
,
0000
0031
1000
0010
0000
0100
0001
1000
,
1020
0130
0001
1000
0100
0010
0001
1000
,
0010
0100
0010
1000
0001
0010
0100
2100
,
0000
3001
0010
0001
1000
0010
0100
0102
,
0000
1003
0100
0110
0000
0010
0001
0000
,
2001
3010
0100
0010
1000
0001
0010
0100
,
2000
0000
3001
0020
0000
0031
1000
0040
,
0000
0000
0130
0000
0010
0000
1000
0000
0000
0000
1001
0000
0000
0000
0001
0100
,
0010
1000
0001
0200
0000
0310
2000
3000
,
1002
0103
0010
1000
0001
0010
0100
1000
,
0002
0000
0103
0110
0000
0010
0000
4000
,
0000
0000
3001
0000
0010
0000
0001
0000
1000
0000
0010
0000
0100
0000
0001
1000
,
0100
0010
0100
2000
0000
3001
0200
0300
,
0110
0010
1000
0001
0010
0100
0010
0001
,
1000
0010
0100
0010
1000
0001
0010
0100
,
1000
0000
0100
0000
0001
0000
0100
0000
0010
0000
0001
0000
1000
0000
0010
1000
,
0001
0010
0100
1000
0000
1001
0000
0201
,
0000
0310
1000
0001
0010
0100
1000
0001
,
0100
0010
0100
0002
0000
1003
0000
1200
,
0000
0000
0300
0000
0110
0000
0000
0000
0000
0000
0011
0000
0000
0000
0001
1000
,
0010
0100
0010
2000
0000
3001
0200
0310
,
1000
0001
0010
0100
1000
0001
0100
0010
,
0100
0001
1000
0100
0010
0100
1000
0001
,
0200
0000
0000
0000
0000
0000
0000
0000
0000
0000
0000
0000
0300
0000
0001
1000
,
0100
0010
0001
2000
0000
3010
0100
0001
,
1000
0100
1000
0001
0100
0010
0100
0001
,
1000
0010
1000
0001
0010
0001
1000
0100
,
2000
0000
0000
0000
0000
0000
3000
1020
,
0000
0130
0001
0200
0000
0310
1000
0000
,
1002
0013
0100
0010
0001
1000
0010
0100
,
0010
1000
0001
0010
0100
0010
0001
1000
,
1020
0000
0100
0030
0210
0000
0001
0300
,
0102
0000
1000
0003
2001
0000
0100
3000
,
1200
0000
0310
0100
1000
0001
0100
0010
,
0000
2010
0000
3001
0010
0001
1000
0010
,
0100
0001
1000
0100
0010
0100
1000
1002
,
0000
0000
0013
0000
0110
0000
0100
1000
0100
1000
0001
0100
0001
0100
0010
1000
,
0002
0000
0000
0000
0013
0000
0200
0000
0000
0000
2300
0000
0000
3000
1002
0000
,
0000
0000
0203
0000
0310
1000
0001
0200
,
0000
0000
0010
0000
,
1000
0000
0000
0302
0000
0000
1003
0100
,
0020
0000
0130
2000
0000
3002
0000
0023
,
0000
0032
2003
3010
,
0210
0000
0301
1001
0000
1000
1020
0000
,
0000
0130
0001
1000
0100
0010
0100
1000
,
1002
0000
0103
0010
0000
1000
0000
0400
,
0000
0300
0020
0000
0130
1000
0001
0020
,
0001
0000
0100
0000
,
1000
0000
0000
0032
0000
0000
1003
0010
,
0200
0000
0000
0302
0000
2003
0000
3200
,
0000
0000
0320
0000
0230
0000
2300
3000
,
1002
0000
0103
0120
0000
1030
1002
0000
,
0000
0013
0100
0010
0001
1000
0010
0100
,
0101
0002
0000
1003
1020
0000
0130
0102
,
0000
2003
0000
3100
0010
0100
1000
0001
,
1000
0100
0001
0100
2000
0000
3001
0021
,
0000
0230
0000
2300
0000
3002
0000
0203
,
0000
0000
0000
0000
0000
0000
0300
0110
,
0000
1010
0000
1001
0000
0001
0100
0010
,
1010
1000
0000
1001
0001
0000
0101
0100
,
0010
0000
1000
0000
0001
0010
0100
0000
1000
0000
0001
0000
0000
0000
0000
0000
,
1001
1000
0000
1010
0010
0000
0110
0200
,
0000
0000
0301
0000
1000
0010
0100
0000
0001
0000
1000
0000
0100
0000
0120
0000
,
0000
0031
1000
0010
0100
0010
1000
1002
,
0000
0013
0100
0010
0001
1000
0010
0210
,
0000
0301
2000
0000
3100
0010
0100
2100
,
3000
1001
0001
0101
0000
0100
0010
1000
,
1002
0013
0100
1000
0001
0010
1000
0010
,
0002
0000
1003
0020
0000
0130
0001
1000
,
0100
0000
0000
0000
0110
0000
0000
0000
0000
0000
0011
0000
0000
0000
0001
1000
,
0020
0130
0001
2001
0000
3100
0020
0030
,
0011
0001
1000
0100
0001
0100
1000
0001
,
0200
0000
0310
1000
0000
0010
0000
0400
,
0000
0000
0310
0000
1000
0000
0000
0000
0001
0000
0010
0000
0100
0000
1000
0100
,
0020
0130
1000
1002
0000
0013
0200
0300
,
1100
1000
0001
0100
0010
1000
0001
0010
,
0100
1000
0100
0010
0001
1000
0010
0100
,
0010
1000
0001
0200
0000
0310
1000
0001
,
0010
0100
1000
1001
0000
0101
0000
1020
,
0000
0130
0000
0001
0000
1000
0100
0010
,
0200
0000
1300
0001
0000
0100
0000
0010
,
1000
0000
0001
0000
0010
0000
0100
0000
0010
0000
0001
0000
1000
0000
0010
0100
,
0002
1003
0100
2000
0000
3001
0100
0010
,
1010
1000
0001
0100
0010
0100
0001
1000
,
0100
0010
0100
1000
0001
0100
0010
1000
,
0002
0000
0000
0000
0000
0000
0000
0000
0000
0000
0000
0000
0000
0000
1003
0100
,
0010
0100
1000
0002
0000
0013
0200
0000
,
1300
0001
0100
0010
0100
0001
1000
0100
,
0010
0100
1000
0001
0100
0010
1000
0001
,
0020
0000
0000
0000
0000
0000
0030
0210
,
0000
1300
0001
0201
0000
0310
1010
0000
,
1001
0001
0010
0100
0010
0001
1000
0010
,
0100
0001
0100
0010
1000
0001
0010
0100
,
2100
0000
0001
3000
1002
0000
0100
0003
,
0201
0000
0010
0300
0120
0000
1000
0030
,
2010
0000
3001
0010
0100
0010
0001
2000
,
0000
3010
0100
0001
1000
0100
0010
0100
,
2000
0000
3001
0100
0010
1000
0010
0210
,
0000
0000
0301
0000
1001
0000
1000
0100
0010
0001
0010
0001
1000
0001
1000
0001
,
0200
0000
0310
1000
0000
0001
0000
0021
,
0000
0000
0130
0000
1000
0001
0100
0002
,
0000
0000
1000
0000
,
0100
0000
0000
0023
0000
0000
0130
1000
,
1002
0000
0103
0010
0000
1000
0000
1002
,
0000
0000
0023
0000
0230
0000
2300
3000
,
1002
0000
0103
0120
0000
1030
1002
0000
,
0000
0013
0100
1000
0001
0100
0010
0100
,
0102
0000
1003
0100
0000
0010
0000
0004
,
0000
0003
1000
0000
0010
0100
0001
2000
,
0010
0000
0100
0000
,
0001
0000
0000
3020
0000
0000
0130
0001
,
2001
0000
3100
0020
0000
0130
0000
2100
,
0000
0000
3002
0000
0203
0000
0320
0030
,
2010
0000
3001
0021
0000
0130
2100
0000
,
0000
3001
0100
0010
1000
0010
0100
0001
,
1000
0020
0000
1030
0004
0000
0013
0210
,
0000
2300
0000
3002
0000
0000
0003
0000
,
1001
1000
0010
0100
0002
0000
1003
1200
,
0000
0320
0000
0032
0000
0023
0000
0230
,
0000
1300
0001
0100
0010
0100
0001
1001
,
0000
1100
0000
0011
0000
0001
1000
0020
,
0000
0000
0000
0000
0000
0000
0130
0001
1000
0000
0010
0000
1000
0000
0002
0000
,
0000
0000
0000
1003
0010
1000
0001
0010
,
0100
0010
0001
2000
0000
0000
0000
3020
,
0000
1030
0001
0010
0000
0001
1000
0010
,
0000
0100
0001
1000
0000
0010
0100
0001
,
0000
1000
0100
0010
0000
0100
1000
0001
,
0020
0000
0130
1000
0000
0001
1000
0200
,
0000
0310
0100
1000
0001
0200
0000
0301
,
4000
0000
0000
0000
3010
0100
0001
0004
,
0000
0000
0103
0400
0000
0000
0300
0010
,
1000
0001
0010
0100
0010
0001
1000
0020
,
0000
0130
0010
1000
0001
0100
0010
1000
,
0001
0010
0100
0000
1000
0000
0001
0000
0100
0000
0010
0000
0100
0000
0001
0000
,
1000
0100
0010
0400
0000
1300
0000
1002
,
0000
0103
0010
1000
0001
0010
0100
2100
,
0000
3001
0100
0110
0010
1000
0001
0010
,
0110
0000
0000
0000
0000
0000
0000
1100
,
0000
0000
0000
0011
0000
1001
2000
3000
,
1010
0000
0000
0000
0000
0000
0000
0101
,
0000
0000
0000
0120
0000
1030
1002
0003
,
0011
0000
0000
0000
0000
0000
1100
0011
,
0000
0000
0000
1001
0000
1020
0000
0030
,
0210
0000
0301
2001
0000
3100
0120
0000
,
0000
0031
1000
0010
0100
0010
1000
0001
,
0020
0000
0130
2000
0000
3002
0000
0023
,
0000
0000
0230
0000
1300
0001
0100
0020
,
1000
0000
0100
0000
,
0001
0000
0000
2030
0000
0000
3001
0010
,
0210
0000
1300
0002
0000
0203
0300
0120
,
0000
0000
2030
0000
3002
0000
2003
3000
,
1200
0000
0310
0012
0000
1003
1020
0000
,
0000
0130
0001
1000
0100
0010
0100
1000
,
0001
0100
1000
0100
0002
0000
1003
1020
,
0000
0130
0000
0002
0000
0000
0000
0003
,
1000
0010
0001
0010
2000
0000
3001
0021
,
0000
0230
0000
2300
0000
3002
0000
0203
,
0000
0310
0100
0001
1000
0100
0010
0011
,
0000
0110
0000
1100
0000
1000
0001
0020
,
0000
0000
0000
0000
,
0000
0000
0200
0030
,
2300
0000
0000
3002
0000
0000
0203
0000
,
0000
0000
0000
0300
0400
0000
0000
0000
0000
0000
0000
0000
0000
0000
0000
0000
0000
0000
0000
0000
0000
0000
0000
0000
0000
0000
0000
0000
0300
0000
0000
0000
,
0110
0010
0000
1000
1001
0000
0001
0201
,
0000
0000
0301
1000
0100
0000
0010
0000
0100
1000
0001
0000
0100
0000
0010
0000
,
1010
1000
0000
0001
0011
0000
0010
0210
,
0000
0000
1300
0001
0100
0000
0010
0000
1000
0000
0001
0000
0010
0000
0001
0000
,
2002
0000
0000
0000
,
0000
0000
0000
0000
,
0000
0000
0000
0000
,
0000
0000
0000
0000
,
0000
0000
0000
0000
,
0000
0000
0000
0000
,
3003
0000
0000
0000
;

//---------------dance-single - Hard----------------
#NOTES:
     dance-single:
     Ace Of Hearts (2011):
     Hard:
     8:
     0.544,0.000,0.000,1.000,0.000: // measure 1
0000
0000
0000
0000
,  // measure 2
0000
0000
0000
0000
,  // measure 3
0000
0000
0000
0000
,  // measure 4
0000
0000
0000
0000
,  // measure 5
0000
0000
0000
0000
,  // measure 6
0000
0000
0000
0000
,  // measure 7
0000
0000
0000
0000
,  // measure 8
0000
0000
0000
0000
,  // measure 9
0000
0000
0000
0000
,  // measure 10
0000
0000
0000
0000
,  // measure 11
0000
0000
0000
0000
,  // measure 12
0000
0000
0000
0000
,  // measure 13
0000
0000
0000
0000
0001
0010
0001
1000
,  // measure 14
0002
0000
1003
0200
0000
0310
0000
0200
,  // measure 15
0000
0000
1300
0000
0001
0100
0001
2000
,  // measure 16
0000
0000
0000
0000
0000
0000
0000
3000
,  // measure 17
0000
0000
0000
0000
0000
0000
0001
0100
,  // measure 18
0001
0000
1000
0020
0000
2030
0000
3002
,  // measure 19
0000
2003
3200
0320
,  // measure 20
0230
0000
0000
2300
0000
0000
3002
0000
,  // measure 21
0000
0000
0000
0003
,  // measure 22
1000
0100
0010
0100
1000
0001
1000
0001
,  // measure 23
0000
0100
0000
0020
0000
1030
0001
1000
,  // measure 24
0001
0010
0001
0010
0100
1000
0100
0020
,  // measure 25
0000
0031
0010
0001
0000
2000
0000
0000
,  // measure 26
3010
1000
0010
1000
0001
1000
0100
0020
,  // measure 27
0000
0031
0010
0002
0000
1003
0010
2000
,  // measure 28
0000
3001
0010
0001
1000
0001
0100
0020
,  // measure 29
0000
1030
0001
1000
0000
0001
0010
0000
,  // measure 30
0000
0001
0010
0100
1000
0100
0010
0001
,  // measure 31
2000
0000
3001
0100
0000
0001
1000
0004
,  // measure 32
0000
0003
0010
0000
0000
0010
0000
0001
,  // measure 33
0010
0100
1000
0002
0000
1003
0020
0000
,  // measure 34
0030
1000
0010
0100
0001
0100
0010
1000
,  // measure 35
0002
0000
0013
0100
0000
1000
0000
0400
,  // measure 36
0000
0300
0010
0000
0000
0010
0000
0001
,  // measure 37
0010
0001
1000
0200
0000
1300
0002
0000
,  // measure 38
0003
0000
2000
0000
3001
0200
0000
0320
,  // measure 39
0000
2030
3002
0023
,  // measure 40
0130
0010
0001
2000
0000
3000
0000
0001
,  // measure 41
0010
0001
1000
0100
0000
0010
0000
0020
,  // measure 42
0000
0000
0000
0000
0030
0001
0010
0001
,  // measure 43
2000
0000
3001
0100
0000
0010
0000
0200
,  // measure 44
0000
0000
0310
0000
0000
0010
0000
1000
,  // measure 45
0010
0100
0001
2000
0000
3001
0200
0000
,  // measure 46
0300
0002
2003
3200
,  // measure 47
0320
0000
0230
2300
,  // measure 48
3002
0000
0000
0000
0000
0000
0003
1000
,  // measure 49
0010
1000
0001
0020
0000
0130
2000
0000
,  // measure 50
3000
0002
0203
0320
,  // measure 51
2030
3002
0023
0230
,  // measure 52
2300
0000
0000
0000
0000
0000
3000
0002
,  // measure 53
0000
0000
0013
0200
0000
0000
0000
0000
,  // measure 54
0300
2000
3002
0203
,  // measure 55
0320
2030
3002
0203
,  // measure 56
0320
0000
2030
0000
,  // measure 57
3002
0000
0023
0000
,  // measure 58
0230
0000
0000
0000
,  // measure 59
0300
0000
0000
0000
1000
0001
0100
0001
,  // measure 60
2000
0000
0000
0000
0000
0000
0000
3020
,  // measure 61
0000
0130
0100
0000
0001
0100
0001
1000
,  // measure 62
0020
0000
1030
0002
0000
0023
0000
0230
,  // measure 63
0000
0000
2300
0000
3001
0100
0010
0200
,  // measure 64
0000
0000
0010
0000
,  // measure 65
0001
0000
0000
0320
0000
0000
1030
0001
,  // measure 66
2000
0000
3001
0020
0000
0230
0000
2300
,  // measure 67
0000
3002
0023
0032
,  // measure 68
2003
0000
3001
0100
0000
0001
2000
0000
,  // measure 69
0000
0000
0000
3000
0001
1000
0010
0100
,  // measure 70
0002
0000
1003
0020
0000
0230
0000
0304
,  // measure 71
0000
0003
1000
0000
0001
0010
0100
2000
,  // measure 72
0100
0000
0001
0000
,  // measure 73
0100
0000
0000
3002
0000
0000
0013
0100
,  // measure 74
2000
0000
3001
0200
0000
0320
0000
2030
,  // measure 75
0000
3002
0023
0230
,  // measure 76
0320
0000
0000
0032
0000
0000
2003
0000
,  // measure 77
0000
0000
0000
3000
,  // measure 78
0001
0020
0000
0130
0020
0000
0031
0020
,  // measure 79
0000
0230
0000
2300
0000
0000
0000
3000
,  // measure 80
0001
0100
0010
0100
0002
0000
1003
0020
,  // measure 81
0000
0230
0000
0302
0000
2003
0000
3200
,  // measure 82
0000
0000
0000
0000
0000
0300
0000
0010
,  // measure 83
0000
0010
0000
0010
0000
0001
0010
0100
,  // measure 84
1000
0001
0000
1000
0010
0000
0100
0002
,  // measure 85
0000
1003
0010
1000
0001
0010
0001
1000
,  // measure 86
0010
1000
0000
0001
0010
0000
0100
2000
,  // measure 87
0000
3001
0010
0100
0010
0001
1000
0001
,  // measure 88
0000
0000
2000
0000
3010
0100
0010
0100
,  // measure 89
0000
0000
0002
0000
1003
0010
1000
0010
,  // measure 90
0000
1000
0001
0100
0001
1000
0001
0020
,  // measure 91
0000
0130
1000
0100
0000
0010
0001
0000
,  // measure 92
0000
1000
0010
0100
0001
0100
0010
1000
,  // measure 93
0002
0000
0013
0200
0000
0310
0001
1000
,  // measure 94
0000
0000
0010
0000
0000
0010
0000
1000
,  // measure 95
0001
0010
0001
2000
0000
3100
0020
0000
,  // measure 96
0030
0001
0010
0001
1000
0010
1000
0001
,  // measure 97
0020
0000
0130
1000
0000
0001
0000
0400
,  // measure 98
0000
0300
0010
0000
0000
0010
0000
1000
,  // measure 99
0001
1000
0010
0200
0000
0301
2000
0000
,  // measure 100
3000
0000
0002
0000
1003
0200
0000
0320
,  // measure 101
0000
0032
2003
3020
,  // measure 102
0130
0010
1000
0002
0000
0000
0003
1000
,  // measure 103
0100
1000
0001
0100
0000
0010
0000
0020
,  // measure 104
0000
0000
0000
0000
0030
1000
0001
1000
,  // measure 105
0002
0000
1003
0100
0000
0010
0000
0400
,  // measure 106
0000
0300
1000
0000
0000
1000
0000
0001
,  // measure 107
0010
0100
1000
0002
0000
1003
0200
0000
,  // measure 108
0300
0020
0230
2300
,  // measure 109
3002
0000
0203
0320
,  // measure 110
2030
0000
0000
0000
0000
0000
3000
0001
,  // measure 111
0010
0001
1000
0200
0000
0310
0002
0000
,  // measure 112
0003
2000
3020
0230
,  // measure 113
0302
2003
3020
0230
,  // measure 114
0302
0000
0000
0000
0000
0000
0003
2000
,  // measure 115
0000
0000
3010
0200
0000
0000
0000
0000
,  // measure 116
0300
0002
2003
3200
,  // measure 117
0320
0230
2300
3002
,  // measure 118
0203
0000
0320
0000
,  // measure 119
2030
0000
3002
0000
,  // measure 120
0203
0000
0000
0000
,  // measure 121
0300
0000
0000
0000
0010
0100
0010
1000
,  // measure 122
0002
0000
0000
0000
0000
0000
0003
0020
,  // measure 123
0000
0130
1000
0000
0001
0100
0010
0100
,  // measure 124
0002
0000
1003
0200
0000
0320
0000
0230
,  // measure 125
0000
0000
2300
0000
3001
0100
0001
0200
,  // measure 126
0000
0000
0010
0000
,  // measure 127
0001
0000
0000
0320
0000
0000
1030
0010
,  // measure 128
2000
0000
3001
0020
0000
0230
0000
2300
,  // measure 129
0000
3002
0023
0230
,  // measure 130
2300
0000
3001
0200
0000
0301
2000
0000
,  // measure 131
0000
0000
3000
0000
0001
0010
0100
0010
,  // measure 132
0002
0000
1003
0020
0000
0230
0000
0304
,  // measure 133
0000
0003
1000
0000
0001
0010
0100
0020
,  // measure 134
0100
0000
0001
0000
,  // measure 135
0100
0000
0000
0032
0000
0000
1003
0010
,  // measure 136
2000
0000
3001
0020
0000
0230
0000
0320
,  // measure 137
0000
0032
2003
3200
,  // measure 138
2300
0000
0000
3002
0000
0000
0023
0000
,  // measure 139
0000
0000
0030
0000
,  // measure 140
0001
2000
0000
3001
0040
0000
0130
2000
,  // measure 141
0000
3002
0000
0203
0000
0000
0300
0000
,  // measure 142
0010
0100
0001
0100
0020
0000
1030
0002
,  // measure 143
0000
0203
0000
0320
0000
2030
0000
3002
,  // measure 144
0000
0000
0000
0000
0000
0003
0000
0010
,  // measure 145
0000
0010
0000
0010
0000
0001
1000
0020
,  // measure 146
0000
0000
0000
1030
0001
0010
0001
2000
,  // measure 147
0000
0000
0000
3001
0010
0100
1000
0100
,  // measure 148
0010
0001
1000
0002
0000
0000
0000
2003
,  // measure 149
0000
3001
0010
0100
0000
1000
0100
0010
,  // measure 150
0000
0001
0010
0100
0000
1000
0100
0010
,  // measure 151
0000
0100
0010
0001
0000
1000
0010
1000
,  // measure 152
0002
0000
0013
0100
0000
1000
0001
0200
,  // measure 153
0000
0301
0100
0002
0000
2003
0000
3001
,  // measure 154
0040
0000
0000
0000
0031
0010
0100
4000
,  // measure 155
0000
0000
3001
0400
0000
0000
0300
0001
,  // measure 156
0100
0010
0100
0002
0000
1003
0100
0020
,  // measure 157
0000
0031
1000
0001
1000
0200
0000
0310
,  // measure 158
0001
0010
0100
1000
0001
0100
0001
1000
,  // measure 159
0100
0010
0100
4000
0000
3001
0000
0020
,  // measure 160
0000
0130
1000
0001
0010
0001
1000
0002
,  // measure 161
0000
1003
0010
0000
1000
0010
1000
0001
,  // measure 162
0010
0000
0000
0000
0000
0000
0000
0100
,  // measure 163
0000
0000
0000
1000
0000
2000
0000
0000
,  // measure 164
3001
0000
0000
0000
0000
0000
0000
0100
,  // measure 165
0000
0000
0000
0200
0000
0310
2000
0000
,  // measure 166
3001
0000
0000
0000
0000
0000
0010
0100
,  // measure 167
0000
0000
0000
1000
0000
2000
0000
0000
,  // measure 168
3002
0000
0103
0020
0000
0130
0002
0000
,  // measure 169
0000
1003
0010
1000
0001
0010
0100
1000
,  // measure 170
0002
0000
1003
0020
0000
0230
0000
0302
,  // measure 171
0000
0000
2003
0000
3100
1000
0001
2000
,  // measure 172
0000
0000
0010
0000
,  // measure 173
0100
0000
0000
3002
0000
0000
0013
0100
,  // measure 174
2000
0000
3001
0200
0000
0302
0000
2003
,  // measure 175
0000
3200
0320
0032
,  // measure 176
2003
0000
0000
3200
0000
0000
0320
0000
,  // measure 177
0000
0000
0000
0030
,  // measure 178
0001
0010
0100
0010
0002
0000
1003
0020
,  // measure 179
0000
0230
0000
0302
0000
0000
0003
0000
,  // measure 180
1000
0100
0010
0100
2000
0000
3001
0200
,  // measure 181
0000
0320
0000
2030
0000
3020
0000
0230
,  // measure 182
0000
0000
0000
0000
0300
0000
0000
0010
,  // measure 183
0000
0010
0000
0010
0000
1000
0001
0020
,  // measure 184
0000
0000
0000
0000
,  // measure 185
0000
0000
0000
0000
,  // measure 186
0032
0000
0000
2003
0000
0000
3200
0000
,  // measure 187
0000
0000
0000
0300
,  // measure 188
1000
0001
0000
0010
0001
0000
1000
0002
,  // measure 189
0000
1003
0010
1000
0001
0010
0100
1000
,  // measure 190
0001
0100
0000
0010
0100
0000
0001
2000
,  // measure 191
0000
3001
0100
0010
0100
0001
1000
0002
,  // measure 192
0200
0000
0000
0000
,  // measure 193
0000
0000
0000
0000
,  // measure 194
0000
0000
0000
0000
,  // measure 195
0000
0000
0000
0000
,  // measure 196
0000
0000
0000
0000
,  // measure 197
0000
0000
0000
0000
,  // measure 198
0303
0000
0000
0000
;

//---------------dance-single - Medium----------------
#NOTES:
     dance-single:
     Ace Of Hearts (2011):
     Medium:
     6:
     0.330,0.000,0.011,0.661,0.000:
0000
0000
0000
0000
,
0000
0000
0000
0000
,
0000
0000
0000
0000
,
0000
0000
0000
0000
,
0000
0000
0000
0000
,
0000
0000
0000
0000
,
0000
0000
0000
0000
,
0000
0000
0000
0000
,
0000
0000
0000
0000
,
0000
0000
0000
0000
,
0000
0000
0000
0000
,
0000
0000
0000
0000
,
0000
0000
1000
0010
,
2000
0000
0000
3001
0000
0010
0000
0002
,
0000
0000
1003
0000
0100
0000
0000
2000
,
0000
0000
0000
0000
,
3000
0000
0000
0001
,
0200
0000
0000
0301
0000
1000
0000
0020
,
0000
1030
0001
1000
,
0002
0000
0000
2003
0000
0000
3020
0000
,
0000
0000
0000
0030
,
1000
0000
0010
0000
2000
0000
0000
3002
,
0000
0000
0003
0000
,
0010
0000
0001
0000
0020
0000
0000
0031
,
0000
0010
0000
0001
0000
2000
0000
0000
,
3010
0000
1000
0000
0020
0000
0000
0230
,
0000
0000
0000
0000
0000
0000
0300
0002
,
0000
0000
1003
0000
1000
0000
0000
0002
,
0000
0000
1003
0100
0000
0000
0000
0000
,
0000
1000
0001
1000
,
0020
0000
0000
2030
0000
0000
0000
3001
,
0000
0000
0010
0000
0000
0010
0000
0000
,
0002
0000
0000
2003
0000
0000
3020
0000
,
0030
1000
0010
1000
,
0002
0000
0000
0013
0000
0100
0000
2000
,
0000
0000
3001
0000
0000
0001
0000
0000
,
2000
0000
0000
3002
0000
0000
0203
0000
,
0300
0000
0001
0000
1000
0000
0000
0020
,
0000
1030
0001
1000
,
0100
0000
0000
0100
0000
0000
0000
0000
,
0010
0000
0000
0010
0000
0001
0000
0002
,
0000
0000
0003
1000
,
0020
0000
0000
1030
0000
0001
0000
0002
,
0000
0000
0013
0000
0000
0010
0000
0000
,
0200
0000
0000
2300
0000
0000
3002
0000
,
0003
1000
0100
1000
,
0200
0000
0320
0000
,
0032
0000
0000
0000
,
4003
0000
3000
0000
,
0000
0001
0100
0000
,
0001
0100
0001
0000
,
2000
0000
0000
0000
0000
0000
0000
3020
,
0000
0000
0000
0230
0000
0000
0000
0000
,
0300
0001
1000
0000
,
0001
0010
0001
1000
,
0002
0000
0023
0000
,
0230
0000
2300
0000
,
3002
0000
0000
0000
,
0003
0000
1000
0100
,
2000
0000
0000
0000
3000
0000
0000
0002
,
0000
1003
0100
0000
1000
0000
0001
0000
,
2000
0000
0000
3001
0000
0100
0000
0002
,
0000
0000
1003
0000
0010
0000
0000
2000
,
0000
0000
0000
0000
,
0000
0000
0000
3000
0000
0000
0001
0000
,
0020
0000
0000
0130
0000
0010
0000
0200
,
0000
1300
0001
1000
,
0020
0000
0000
2030
0000
0000
3002
0000
,
0000
0003
1000
0010
,
2000
0000
0000
3001
0000
0100
0000
0002
,
0000
0000
1003
0000
0010
0000
0000
0200
,
0000
0000
0000
0000
,
0000
0000
0000
0300
0000
0000
0001
0000
,
0200
0000
0000
0301
0000
1000
0000
0002
,
0000
1003
0100
1000
,
0002
0000
0000
2003
0000
0000
3020
0000
,
0000
0000
0000
0030
,
2000
0000
0000
0000
3002
0000
0000
0013
,
0000
0100
0000
2000
0000
0000
3000
0000
,
0001
0000
0100
0000
0002
0000
0000
1003
,
0000
0100
0000
1000
0000
0001
0000
2000
,
0000
0000
0000
0000
3000
0000
0000
0001
,
0000
0001
0000
0001
0000
0000
0000
0022
,
0000
0000
0000
0000
,
0000
0000
0000
0033
,
0010
0000
0000
0100
0000
0000
2000
0000
,
0000
0000
0000
0000
3000
0000
0000
0002
,
0000
0000
1000
0000
1003
0000
0000
2000
,
0000
0000
0100
0000
3100
0000
0000
0200
,
0000
0000
0010
0000
0310
0000
0000
0020
,
0000
0000
0031
0010
0000
0000
0000
0000
,
0000
0001
1000
0001
,
0200
0000
0000
0302
0000
0000
0000
1003
,
0000
0000
0010
0000
0000
0010
0000
0000
,
2000
0000
0000
3002
0000
0000
0023
0000
,
0030
0001
1000
0001
,
0020
0000
0000
0130
0000
1000
0000
0100
,
0000
0000
0010
0000
0000
0010
0000
0000
,
0002
0000
0000
2003
0000
0000
3200
0000
,
0300
0000
1000
0000
0001
0000
0000
0020
,
0000
0031
1000
0001
,
0200
0000
0000
0302
0000
0000
0003
0000
,
2000
0000
0000
3001
0000
0010
0000
0020
,
0000
0000
0030
0001
,
0002
0000
0000
1003
0000
0100
0000
2000
,
0000
0000
3001
0000
0000
0001
0000
0000
,
0020
0000
0000
0032
0000
0000
2003
0000
,
3000
0010
1000
0010
,
0200
0000
0310
0100
,
0002
0000
0000
0000
,
0403
0000
0300
0000
,
0000
0001
1000
0000
,
0001
0010
0001
1000
,
0020
0000
0000
0000
0000
0000
0000
2030
,
0000
0000
0000
3002
0000
0000
0003
0000
,
0000
1000
0100
0000
,
1000
0001
1000
0100
,
0020
0000
0230
0000
,
2300
0000
3002
0000
,
0203
0000
0000
0000
,
0300
0000
0010
0100
,
0020
0000
0000
0000
0000
0000
0000
2030
,
0000
3001
0010
0000
0001
0000
1000
0000
,
0002
0000
0000
1003
0000
0010
0000
2000
,
0000
0000
3001
0000
0010
0000
0000
0002
,
0000
0000
0000
0000
,
0000
0000
0000
0003
0000
0000
1000
0000
,
0020
0000
0000
1030
0000
0001
0000
2000
,
0000
3001
0010
0001
,
2000
0000
0000
3020
0000
0000
0230
0000
,
0000
0300
0001
0100
,
0002
0000
0000
1003
0000
0010
0000
2000
,
0000
0000
3001
0000
0010
0000
0000
0200
,
0000
0000
0000
0000
,
0000
0000
0000
0300
0000
0000
0010
0000
,
0002
0000
0000
1003
0000
0001
0000
2000
,
0000
3010
1000
0010
,
0200
0000
0000
0320
0000
0000
2030
0000
,
0000
0000
3000
0000
,
0001
0000
0000
0000
0020
0000
0000
0031
,
0000
1000
0000
0200
0000
0000
0300
0000
,
0010
0000
0001
0000
0020
0000
0000
0031
,
0000
1000
0000
0001
0000
0010
0000
0002
,
0000
0000
0000
0000
0003
0000
0000
1000
,
0000
1000
0000
1000
0000
0000
0000
2020
,
0000
3000
0000
0000
0230
0000
0000
0302
,
0000
0000
1003
0001
,
2000
0000
0000
3200
0000
0000
0000
0320
,
0000
0000
0000
0031
0000
0000
2000
3000
,
0000
0000
0002
0003
0000
0000
0200
0300
,
0000
0000
0020
0030
0000
0000
1000
0000
,
0002
0000
0000
1003
0000
0000
0000
0200
,
0000
0310
0010
0001
,
0002
0000
0000
0000
1003
0000
0000
0020
,
0000
0000
0000
0230
0000
0000
0300
0000
,
0002
0000
0000
2003
0000
0000
3001
0000
,
0001
0010
0020
0000
,
0130
0100
1000
1000
,
0002
0000
0000
0203
0000
0000
0000
0320
,
0000
0000
1030
0000
1000
0000
0000
0002
,
0000
0000
1003
0100
0000
0000
0000
0000
,
0010
0000
0000
0000
0000
0000
0000
0001
,
0000
0000
0000
1000
0000
2000
0000
0000
,
3010
0000
0000
0000
0000
0000
0000
0100
,
0000
0000
0000
0001
0000
0002
0000
0000
,
1003
0000
0000
0000
0000
0000
0001
0010
,
0000
0000
0000
0100
0000
0200
0000
0000
,
2300
0000
0000
3002
0000
0000
0203
0000
,
0000
0300
0001
1000
,
0002
0000
0000
1003
0000
0010
0000
2000
,
0000
0000
3001
0000
0100
0000
0000
0020
,
0000
0000
0000
0000
,
0000
0000
0000
0030
0000
0000
1000
0000
,
0020
0000
0000
1030
0000
0001
0000
2000
,
0000
3001
0010
0001
,
2000
0000
0000
3200
0000
0000
0320
0000
,
0000
0000
0030
0000
,
0001
0000
1000
0000
0002
0000
0000
1003
,
0000
0010
0000
0200
0000
0000
0300
0000
,
0010
0000
0100
0000
0020
0000
0000
1030
,
0000
0001
0000
1000
0000
0010
0000
0200
,
0000
0000
0000
0000
0300
0000
0000
0001
,
0000
0001
0000
0001
0000
0000
0000
2002
,
0000
0000
0000
0000
,
0000
0000
0000
3003
,
2000
0000
0000
3020
0000
0000
0230
0000
,
0000
0000
0300
0000
,
0010
0000
0000
1000
0000
0000
0002
0000
,
0000
1003
0020
0000
,
1030
0000
0000
0010
0000
0000
0200
0000
,
0000
0301
1000
0020
,
0200
0000
0000
0000
,
0000
0000
0000
0000
,
0000
0000
0000
0000
,
0000
0000
0000
0000
,
0000
0000
0000
0000
,
0000
0000
0000
0000
,
0330
0000
0000
0000
;

//---------------dance-single - Easy----------------
#NOTES:
     dance-single:
     Ace Of Hearts (2011):
     Easy:
     4:
     0.164,0.000,0.015,0.237,0.000:
0000
0000
0000
0000
,
0000
0000
0000
0000
,
0000
0000
0000
0000
,
0000
0000
0000
0000
,
0000
0000
0000
0000
,
0000
0000
0000
0000
,
0000
0000
0000
0000
,
0000
0000
0000
0000
,
0000
0000
0000
0000
,
0000
0000
0000
0000
,
0000
0000
0000
0000
,
0000
0000
0000
0000
,
0000
0000
0000
0000
,
0001
0000
0001
0000
,
0001
0000
1000
0000
,
2000
0000
0000
0000
,
3000
0000
0000
0000
,
0100
0000
0100
0000
,
0100
0000
0010
0000
,
0020
0000
0000
0000
,
0000
0000
0030
0000
,
0002
0000
0003
0000
,
2000
0000
3000
0000
,
0200
0000
0300
0000
,
2000
0000
3000
0000
,
0002
0000
0003
0000
,
0200
0000
0300
0000
,
0020
0000
0030
0000
,
2000
0000
3000
0000
,
0000
0000
0001
0000
,
0001
0000
0001
0000
,
0001
0000
0000
0000
,
0000
0000
0000
0000
,
0000
0000
1000
0000
,
1000
0000
1000
0000
,
1000
0000
0000
0000
,
0000
0000
0000
0000
,
0000
0000
0010
0000
,
0010
0000
0010
0000
,
1000
0000
1000
0000
,
0001
0000
0001
0000
,
0002
0000
0003
0000
,
0100
0000
0100
0000
,
0100
0000
0000
0000
,
0000
0000
0000
0000
,
0000
0000
0010
0000
,
0010
0000
1000
0000
,
2000
0000
0000
0000
,
3000
0000
0000
0000
,
0000
0000
0001
0000
,
0001
0000
0100
0000
,
0200
0000
0000
0000
,
0300
0000
0000
0000
,
0000
0000
0001
0000
,
0001
0000
1000
0000
,
2000
0000
3002
0000
,
2003
0000
3020
0000
,
0230
0000
0000
0000
,
0300
0000
0001
0000
,
0002
0000
0000
0000
,
0003
0000
1000
0000
,
1000
0000
1000
0000
,
0100
0000
0100
0000
,
0200
0000
0000
0000
,
0300
0000
0000
0000
,
1000
0000
1000
0000
,
0001
0000
0001
0000
,
0002
0000
0000
0003
,
0000
0000
0010
0000
,
0010
0000
0010
0000
,
0100
0000
0100
0000
,
0200
0000
0000
0000
,
0300
0000
0000
0000
,
1000
0000
1000
0000
,
0001
0000
0001
0000
,
0020
0000
0000
0000
,
0000
0000
0030
0000
,
0001
0000
0001
0000
,
1000
0000
1000
0000
,
0010
0010
0010
0000
,
1000
0000
1000
0000
,
2000
0000
0000
0000
3000
0000
0000
0010
,
0000
0010
0000
0010
0000
0000
0000
0220
,
0000
0000
0000
0000
,
0000
0000
0330
0000
,
0100
0000
0100
0000
,
0200
0000
0300
0000
,
0002
0000
0003
0000
,
2000
0000
3000
0000
,
0002
0000
0003
0000
,
0020
0000
0030
0000
,
0000
0000
0001
0000
,
0001
0000
0001
0000
,
0001
0000
0000
0000
,
0000
0000
0000
0000
,
0000
0000
0100
0000
,
0100
0000
0100
0000
,
0100
0000
0000
0000
,
0000
0000
0000
0000
,
0000
0000
0010
0000
,
0010
0000
0010
0000
,
1000
0000
1000
0000
,
0001
0000
0001
0000
,
0002
0000
0003
0000
,
0100
0000
0100
0000
,
0100
0000
0000
0000
,
0000
0000
0000
0000
,
0000
0000
0001
0000
,
0001
0000
0010
0000
,
0020
0000
0000
0000
,
0030
0000
0000
0000
,
0000
0000
0100
0000
,
0100
0000
1000
0000
,
2000
0000
0000
0000
,
3000
0000
0000
0000
,
0000
0000
0001
0000
,
0001
0000
0001
0000
,
0200
0000
0302
0000
,
0203
0000
0320
0000
,
2030
0000
0000
0000
,
3000
0000
0001
0000
,
0002
0000
0000
0000
,
0003
0000
1000
0000
,
1000
0000
1000
0000
,
0100
0000
0100
0000
,
0200
0000
0000
0000
,
0300
0000
0000
0000
,
1000
0000
1000
0000
,
0001
0000
0001
0000
,
0200
0000
0000
0300
,
0000
0000
0010
0000
,
0010
0000
0010
0000
,
1000
0000
1000
0000
,
2000
0000
0000
0000
,
3000
0000
0000
0000
,
0001
0000
0001
0000
,
0010
0000
0010
0000
,
0002
0000
0000
0000
,
0000
0000
0003
0000
,
1000
0000
1000
0000
,
0010
0000
0010
0000
,
0100
0100
0100
0000
,
0001
0000
0001
0000
,
0002
0000
0000
0000
0003
0000
0000
1000
,
0000
1000
0000
1000
0000
0000
0000
2002
,
0000
0000
0000
0000
,
0000
0000
3003
0000
,
0001
0000
0001
0000
,
0001
0000
0000
1000
,
0000
0100
0000
1000
,
0000
0001
0000
0000
,
2000
0000
0000
0000
,
3000
0000
0000
0000
,
0020
0000
0030
0000
,
0200
0000
0300
0000
,
0001
0000
0001
0000
,
1000
0000
1000
0000
,
0010
0000
0010
0000
,
0100
0000
0100
0000
,
0001
0000
0001
0000
,
2000
0000
3000
0000
,
0010
0000
0000
0000
0000
0000
0000
0010
,
0000
0000
0000
0010
0000
0010
0000
0000
,
0010
0000
0000
0000
0000
0000
0000
1000
,
0000
0000
0000
1000
0000
1000
0000
0000
,
1000
0000
0000
0000
0000
0000
0000
0001
,
0000
0000
0000
0001
0000
0001
0000
0000
,
0002
0000
0000
0000
,
0003
0000
1000
0000
,
1000
0000
1000
0000
,
0100
0000
0100
0000
,
0200
0000
0000
0000
,
0300
0000
0000
0000
,
1000
0000
1000
0000
,
0001
0000
0001
0000
,
0002
0000
0000
0000
,
0000
0000
0003
0000
,
1000
1000
1000
0000
,
0010
0000
0010
0000
,
0100
0100
0100
0000
,
0001
0000
0001
0000
,
0002
0000
0000
0000
0003
0000
0000
1000
,
0000
1000
0000
1000
0000
0000
0000
2002
,
0000
0000
0000
0000
,
0000
0000
3003
0000
,
0002
0000
0003
0200
,
0000
0000
0300
0000
,
0002
0000
0000
0003
,
0000
0000
1000
0000
,
2000
0000
0000
3000
,
0000
0000
0001
0000
,
2002
0000
0000
0000
,
0000
0000
0000
0000
,
0000
0000
0000
0000
,
0000
0000
0000
0000
,
0000
0000
0000
0000
,
0000
0000
0000
0000
,
3003
0000
0000
0000
;

//---------------dance-single - Novice----------------
#NOTES:
     dance-single:
     Ace Of Hearts (2011):
     Beginner:
     1:
     0.093,0.000,0.004,0.158,0.000:
0000
0000
0000
0000
,
0000
0000
0000
0000
,
0000
0000
0000
0000
,
0000
0000
0000
0000
,
0000
0000
0000
0000
,
0000
0000
0000
0000
,
0000
0000
0000
0000
,
0000
0000
0000
0000
,
0000
0000
0000
0000
,
0000
0000
0000
0000
,
0000
0000
0000
0000
,
0000
0000
0000
0000
,
0000
0000
0000
0000
,
1000
0000
0000
0000
,
1000
0000
0000
0000
,
2000
0000
0000
0000
,
3000
0000
0000
0000
,
0001
0000
0000
0000
,
0001
0000
0000
0000
,
0002
0000
0000
0000
,
0003
0000
0000
0000
,
1000
0000
0000
0000
,
1000
0000
0000
0000
,
0010
0000
0000
0000
,
0010
0000
0000
0000
,
0100
0000
0000
0000
,
0100
0000
0000
0000
,
0002
0000
0000
0000
,
0003
0000
0000
0000
,
1000
0000
0000
0000
,
1000
0000
0000
0000
,
1000
0000
0000
0000
,
0000
0000
0000
0000
,
0010
0000
0000
0000
,
0010
0000
0000
0000
,
0010
0000
0000
0000
,
0000
0000
0000
0000
,
0100
0000
0000
0000
,
0100
0000
0000
0000
,
0001
0000
0000
0000
,
0002
0000
0000
0000
,
0003
0000
0000
0000
,
2000
0000
0000
0000
,
3000
0000
0000
0000
,
0000
0000
0000
0000
,
0001
0000
0000
0000
,
0001
0000
0000
0000
,
0002
0000
0000
0000
,
0003
0000
0000
0000
,
0100
0000
0000
0000
,
0100
0000
0000
0000
,
0200
0000
0000
0000
,
0300
0000
0000
0000
,
0010
0000
0000
0000
,
0010
0000
0000
0000
,
1000
0000
0000
0000
,
1000
0000
0000
0000
,
2000
0000
0000
0000
,
3000
0000
0000
0000
,
0002
0000
0000
0000
,
0003
0000
0000
0000
,
0010
0000
0000
0000
,
0010
0000
0000
0000
,
0020
0000
0000
0000
,
0030
0000
0000
0000
,
0100
0000
0000
0000
,
0100
0000
0000
0000
,
0200
0000
0000
0000
,
0300
0000
0000
0000
,
1000
0000
0000
0000
,
1000
0000
0000
0000
,
2000
0000
0000
0000
,
3000
0000
0000
0000
,
0001
0000
0000
0000
,
0001
0000
0000
0000
,
0002
0000
0000
0000
,
0003
0000
0000
0000
,
1000
0000
0000
0000
,
1000
0000
0000
0000
,
0001
0000
0000
0000
,
0001
0000
0000
0000
,
0001
0000
0000
0000
,
0010
0000
0000
0000
,
0020
0000
0000
0000
,
0000
0000
0000
0000
,
0030
0000
0000
0000
,
0000
0000
0000
0000
,
0001
0000
0000
0000
,
0001
0000
0000
0000
,
0002
0000
0000
0000
,
0003
0000
0000
0000
,
0100
0000
0000
0000
,
0100
0000
0000
0000
,
0100
0000
0000
0000
,
0000
0000
0000
0000
,
0010
0000
0000
0000
,
0010
0000
0000
0000
,
0010
0000
0000
0000
,
0000
0000
0000
0000
,
1000
0000
0000
0000
,
1000
0000
0000
0000
,
0001
0000
0000
0000
,
0001
0000
0000
0000
,
0010
0000
0000
0000
,
0020
0000
0000
0000
,
0030
0000
0000
0000
,
0000
0000
0000
0000
,
0001
0000
0000
0000
,
0001
0000
0000
0000
,
0002
0000
0000
0000
,
0003
0000
0000
0000
,
1000
0000
0000
0000
,
1000
0000
0000
0000
,
2000
0000
0000
0000
,
3000
0000
0000
0000
,
0100
0000
0000
0000
,
0100
0000
0000
0000
,
0010
0000
0000
0000
,
0010
0000
0000
0000
,
0020
0000
0000
0000
,
0030
0000
0000
0000
,
2000
0000
0000
0000
,
3000
0000
0000
0000
,
0001
0000
0000
0000
,
0001
0000
0000
0000
,
0002
0000
0000
0000
,
0003
0000
0000
0000
,
0100
0000
0000
0000
,
0100
0000
0000
0000
,
0200
0000
0000
0000
,
0300
0000
0000
0000
,
0001
0000
0000
0000
,
0001
0000
0000
0000
,
0002
0000
0000
0000
,
0003
0000
0000
0000
,
0010
0000
0000
0000
,
0010
0000
0000
0000
,
0020
0000
0000
0000
,
0030
0000
0000
0000
,
0100
0000
0000
0000
,
0100
0000
0000
0000
,
1000
0000
0000
0000
,
2000
0000
0000
0000
,
3000
0000
0000
0000
,
0001
0000
0000
0000
,
0002
0000
0000
0000
,
0003
0000
0000
0000
,
1000
0000
0000
0000
,
1000
0000
0000
0000
,
0020
0000
0030
0000
,
2000
0000
3000
0000
,
0002
0000
0000
0000
,
0003
0000
0000
0000
,
0020
0000
0000
0000
,
0030
0000
0000
0000
,
0100
0000
0000
0000
,
0100
0000
0000
0000
,
1000
0000
0000
0000
,
1000
0000
0000
0000
,
2000
0000
0000
0000
,
3000
0000
0000
0000
,
0002
0000
0000
0000
0000
0000
0000
0003
,
0000
0000
0000
0000
,
2000
0000
0000
0000
0000
0000
0000
3000
,
0000
0000
0000
0000
,
0020
0000
0000
0000
0000
0000
0000
0030
,
0000
0000
0000
0000
,
2000
0000
0000
0000
,
3000
0000
0000
0000
,
0010
0000
0000
0000
,
0010
0000
0000
0000
,
0020
0000
0000
0000
,
0030
0000
0000
0000
,
0100
0000
0000
0000
,
0100
0000
0000
0000
,
0200
0000
0000
0000
,
0300
0000
0000
0000
,
0001
0000
0000
0000
,
0001
0000
0000
0000
,
1000
0000
0000
0000
,
1000
0000
0000
0000
,
1000
0000
0000
0000
,
0010
0000
0000
0000
,
0020
0000
0000
0000
,
0000
0000
0000
0000
,
0030
0000
0000
0000
,
0000
0000
0000
0000
,
0200
0000
0000
0000
,
0300
0000
0000
0000
,
0002
0000
0000
0000
,
0003
0000
0000
0000
,
2002
0000
0000
0000
,
0000
0000
0000
0000
,
0000
0000
0000
0000
,
0000
0000
0000
0000
,
0000
0000
0000
0000
,
0000
0000
0000
0000
,
3003
0000
0000
0000
;
