#TITLE:True My Heart;
#SUBTITLE:;
#ARTIST:ave-new feat. Saori Sakura;
#TITLETRANSLIT:;
#SUBTITLETRANSLIT:;
#ARTISTTRANSLIT:;
#GENRE:Bubblegum J-Pop;
#CREDIT:Ace Of Hearts;
#BANNER:True My Heart - bn.png;
#BACKGROUND:True My Heart - bg.jpg;
#LYRICSPATH:;
#CDTITLE:Ace Of Hearts.png;
#MUSIC:True My Heart.ogg;
#OFFSET:1.840;
#SAMPLESTART:54.900;
#SAMPLELENGTH:12.000;
#SELECTABLE:YES;
#BPMS:0.000=135.000,96.000=67.500,104.000=135.000,115.500=67.500,117.000=135.000;
#STOPS:117.500=0.222
;
#BGCHANGES:4.250=Nursery Rhyme OP.avi=1.000=1=0=0=StretchNoLoop==CrossFade==,
99999=-nosongbg-=1.000=0=0=0 // don't automatically add -songbackground-
;
#KEYSOUNDS:;

//---------------dance-single - Hard----------------
#NOTES:
     dance-single:
     Ace Of Hearts (2011):
     Hard:
     9:
     0.588,0.000,0.251,0.969,0.285: // measure 1
0000
0000
0000
0000
,  // measure 2
0000
0000
0000
0000
,  // measure 3
0000
0000
0000
0000
,  // measure 4
1100
0100
0010
0012
0000
1003
0010
0200
,  // measure 5
0000
0301
2000
0000
3020
0000
2030
3000
,  // measure 6
1002
0000
0000
0023
0000
0000
0130
0000
2000
0000
0000
0000
3002
0000
0003
0000
,  // measure 7
0201
0000
0000
0000
0300
0000
0010
1000
0020
0000
0000
0000
0030
0000
0000
0000
,  // measure 8
0110
0100
0001
2001
0000
3100
0010
0002
,  // measure 9
0000
1003
0100
0020
0000
0000
0030
0000
,  // measure 10
0012
0000
0000
0000
2003
0000
0000
0000
3200
0000
0000
0000
0300
0000
0010
0001
,  // measure 11
0020
0000
0000
0230
0000
0000
2300
0000
0000
0000
3000
0000
0000
0000
0001
0000
,  // measure 12
2001
0000
3001
0010
0100
1000
0001
0100
,  // measure 13
0110
0000
0010
0200
0000
0000
0301
1000
0001
0010
0000
0001
0000
1000
0010
0000
,  // measure 14
0200
0000
0301
0000
1000
0000
0001
0010
0001
0010
0001
0000
1000
0010
1000
0000
,  // measure 15
0020
0000
0130
0000
0001
0000
1000
0100
1000
0001
0000
0100
0000
0010
0100
0000
,  // measure 16
0002
0000
1003
0000
0100
0000
0010
0001
0010
0100
0000
1000
0000
0100
0010
0000
,  // measure 17
0002
0000
1003
0020
0000
0230
0000
0302
,  // measure 18
0000
0000
0000
0000
0003
1000
0100
0020
,  // measure 19
0000
0000
0130
2000
0000
3002
0000
0103
,  // measure 20
0020
0000
1030
0002
0000
0000
0203
0000
,  // measure 21
0320
0000
0130
0002
0000
0000
2003
0000
,  // measure 22
3020
0000
0000
0230
0000
0000
0301
2000
,  // measure 23
0000
3001
0200
0000
0000
0000
0300
0001
,  // measure 24
2000
3100
0010
0200
0000
0000
0300
0000
,  // measure 25
2000
0000
0000
3002
0000
0000
1003
0100
1000
0001
0010
0002
0000
0000
0003
0000
,  // measure 26
0020
0000
0000
0230
0000
0000
0320
0000
0031
1000
0001
0200
0000
0000
0300
0020
,  // measure 27
0000
1030
0001
0010
0001
2000
0000
3020
,  // measure 28
0000
0000
0130
0001
1000
0001
0100
0020
,  // measure 29
0000
1030
0002
0000
0000
0000
0003
0022
,  // measure 30
0000
0000
0000
0033
0000
0000
0000
0000
0110
0000
0100
0000
1000
0000
1002
0000
,  // measure 31
0000
0103
0010
2000
0000
3010
0100
0001
,  // measure 32
0200
0000
0000
0000
0320
0000
0030
0000
0210
0000
0000
0302
0000
0000
1003
0000
,  // measure 33
0200
0000
0320
0030
0012
0000
0003
1000
,  // measure 34
2000
0000
3000
0000
1010
0010
0100
0102
,  // measure 35
0000
1003
0100
0120
0000
0031
1000
1000
,  // measure 36
0002
0023
0230
2300
,  // measure 37
3002
0000
0000
0000
0103
0000
0010
0000
1010
0000
0000
1000
0000
0000
0001
0000
,  // measure 38
0101
0000
0000
0000
0110
0010
1000
1002
,  // measure 39
0000
0013
0100
2100
0000
3001
0200
0000
,  // measure 40
0320
0000
0000
0000
2030
0000
3000
0000
1002
0000
0000
0203
0000
0000
0320
0000
,  // measure 41
2030
0000
0000
0000
3002
0000
0003
0000
0021
0000
0000
0000
0000
0000
0130
0010
,  // measure 42
0200
0000
0300
0000
1100
1000
0001
0201
,  // measure 43
0000
0310
1000
0002
0000
1003
0100
0220
,  // measure 44
0000
0330
0021
0230
,  // measure 45
2300
0000
0000
0000
3000
0000
0001
0100
0020
0000
0000
2030
0000
0000
3002
0000
,  // measure 46
0000
0003
0000
1000
0020
0000
1030
0001
,  // measure 47
0010
0000
0100
0000
1000
0000
0001
0000
1001
0000
1000
0200
0000
0000
0310
0001
,  // measure 48
0010
0100
0000
1000
0000
0001
0100
0000
0010
0000
1000
0000
1000
0020
0000
0200
,  // measure 49
0030
0000
0301
0000
0001
2000
0000
0020
3000
0000
0130
0000
0001
0000
1000
0100
,  // measure 50
1000
0100
0000
0010
0000
0001
0010
0000
0200
0000
1300
0000
1000
0002
0000
0200
,  // measure 51
0003
0000
0310
0000
0010
2000
0000
0002
3000
0000
0013
0000
0100
0000
0010
0001
,  // measure 52
0010
0100
0000
0010
0000
0001
1000
0000
0200
0000
0000
0000
0310
0100
1000
0000
,  // measure 53
0001
0010
0100
0000
0020
0000
0031
0000
1000
0000
0010
0000
0100
0000
0001
0100
,  // measure 54
0001
1000
0000
0001
0000
0010
0001
0000
1000
0010
1000
0000
0001
0000
0010
0001
,  // measure 55
0010
0001
0010
0000
0100
0000
1000
0000
0002
0000
0000
0000
0013
0000
0100
0000
,  // measure 56
0010
0000
0001
0000
1000
0000
0001
0000
0010
0000
0100
2000
0000
0000
3001
0000
,  // measure 57
0100
0001
0100
0010
0000
1000
0001
1000
,  // measure 58
0001
0000
0000
1000
0000
0000
0010
0000
0000
0400
0004
0000
0000
0000
0000
0000
0000
0000
0000
0000
0000
0000
0000
0000
,  // measure 59
0000
0000
0000
0000
,  // measure 60
0000
0000
0303
0000
;

//---------------dance-single - Hard----------------
#NOTES:
     dance-single:
     Ace Of Hearts (2011):
     Medium:
     7:
     0.393,0.000,0.009,0.744,0.082: // measure 1
0000
0000
0000
0000
,  // measure 2
0000
0000
0000
0000
,  // measure 3
0000
0000
0000
0000
,  // measure 4
0001
0100
0001
2000
0000
3001
0100
0002
,  // measure 5
0000
1003
0020
0000
2030
0000
3001
0000
,  // measure 6
0010
0000
0000
0010
0000
0000
0010
0000
0100
0000
0000
0000
0010
0000
0000
0000
,  // measure 7
0002
0000
0003
1000
0020
0000
0030
0000
,  // measure 8
1000
0010
1000
0002
0000
0013
0100
0020
,  // measure 9
0000
0031
1000
0002
0000
0000
0003
0000
,  // measure 10
2000
0000
3020
0000
0230
0000
0300
0001
,  // measure 11
1000
0000
0000
1000
0000
0000
2000
0000
0000
0000
3000
0000
0000
0000
0001
0000
,  // measure 12
0020
0000
0031
1000
0001
0000
0100
0000
,  // measure 13
0020
0000
0000
2000
0000
0000
0000
0000
0000
0000
0000
0000
0000
0000
0000
0000
,  // measure 14
0000
0000
0000
3030
,  // measure 15
0010
0000
0100
0000
0010
0000
0000
0000
1000
0000
0000
1000
0000
0000
1000
0000
,  // measure 16
0002
0103
0010
1000
,  // measure 17
0002
0000
1003
0020
0000
2030
0000
3002
,  // measure 18
0000
0000
0000
0000
0003
1000
0001
2000
,  // measure 19
0000
0000
3001
0020
0000
0230
0000
0310
,  // measure 20
0002
0000
1003
0020
0000
0000
0230
0000
,  // measure 21
0302
0000
1003
2000
0000
3000
0002
0000
,  // measure 22
0023
0000
0000
0230
0000
0000
1300
0002
,  // measure 23
0000
1003
0020
0000
0000
0000
0030
1000
,  // measure 24
0010
0100
0010
2000
0000
0000
3000
0000
,  // measure 25
0002
0000
0000
0203
0000
0000
0310
0000
2000
0000
0000
3002
0000
0000
0003
0000
,  // measure 26
0020
0000
0000
0032
0000
0000
1003
0000
0020
0000
0000
0230
0000
0000
0300
0002
,  // measure 27
0000
0000
2003
0000
3001
0200
0000
0320
,  // measure 28
0000
0000
1030
0001
0100
0000
0000
0020
,  // measure 29
0000
0130
0002
0000
0000
0003
0000
2002
,  // measure 30
0000
0000
0000
3003
0000
0000
0000
0000
1000
0000
0100
0000
1000
0000
0002
0000
,  // measure 31
0000
1003
0010
2000
0000
3010
0100
0001
,  // measure 32
0200
0000
0000
0000
0310
0000
0000
0000
0100
0000
0000
0100
0000
0000
0100
0000
,  // measure 33
0001
0000
1000
0000
0020
0000
0030
0100
,  // measure 34
0200
0000
0300
0000
0010
1000
0010
0200
,  // measure 35
0000
0301
1000
0002
0000
0013
0001
0010
,  // measure 36
0200
1300
0002
0023
,  // measure 37
0230
0000
0000
0000
2300
0000
0000
0000
3001
0000
0000
0001
0000
0000
0001
0000
,  // measure 38
0100
0000
0000
0000
0010
1000
0010
0200
,  // measure 39
0000
0301
0100
0002
0000
1003
0200
0000
,  // measure 40
2300
0000
0000
0000
3001
0000
0000
0000
1000
0000
0000
1000
0000
0000
1000
0000
,  // measure 41
0010
0000
1000
0000
0002
0000
0003
0010
,  // measure 42
0020
0000
0030
0000
0001
0010
0001
2000
,  // measure 43
0000
3010
1000
0020
0000
0130
0001
2000
,  // measure 44
0000
3000
0002
0023
,  // measure 45
0230
0000
0000
0000
0300
0000
0010
0000
0001
0000
0000
0001
0000
0000
0002
0000
,  // measure 46
0000
0000
0003
1000
0020
0000
0130
0001
,  // measure 47
0100
0000
0000
0000
0001
0000
0000
0000
2000
0000
0000
0200
0000
0000
0000
0000
,  // measure 48
0000
0000
0000
0000
3000
0000
0000
0000
0000
0000
0310
0000
0010
0000
0000
0010
,  // measure 49
0000
0000
0001
0000
0001
0000
0000
0002
0000
0000
0000
0000
0000
0000
0000
0000
,  // measure 50
0000
0000
0000
0000
0000
0000
0000
0000
0003
0000
1000
0000
1000
0000
0000
1000
,  // measure 51
0000
0000
0010
0000
0010
0000
0000
0020
0000
0000
0000
0000
0000
0000
0000
0000
,  // measure 52
0000
0000
0030
0000
,  // measure 53
1000
0010
1000
0000
0002
0000
0000
0000
,  // measure 54
0203
0000
0020
0000
,  // measure 55
0300
0000
0000
1030
0002
0000
0013
0001
,  // measure 56
0010
0000
0100
0000
1000
0000
0001
0000
1000
0000
0000
2000
0000
0000
3001
0000
,  // measure 57
0100
0001
0100
0010
0000
1000
0001
1000
,  // measure 58
0001
1000
0001
0400
0000
0000
0000
0000
,  // measure 59
0000
0000
0000
0000
,  // measure 60
0000
0000
0300
0000
;

//---------------dance-single - Easy----------------
#NOTES:
     dance-single:
     Ace Of Hearts (2011):
     Easy:
     3:
     0.168,0.000,0.009,0.173,0.000:
0000
0000
0000
0000
,
0000
0000
0000
0000
,
0000
0000
0000
0000
,
0001
0001
0001
0000
,
0010
0010
0010
0000
,
0001
0001
0001
0000
,
2000
0000
3000
0000
,
0010
0010
0010
0000
,
0200
0000
0300
0000
,
0002
0000
0003
0000
,
1000
1000
1000
0000
,
0001
0000
0001
0000
,
0002
0000
0000
0000
,
0000
0000
0000
0003
,
0000
0000
0000
0000
,
0000
0000
0000
0000
,
1000
1000
1000
0000
,
2000
0000
3000
0000
,
0010
0010
0010
0000
,
0100
0100
0100
0000
,
0002
0000
0003
0000
,
1000
0000
1000
0000
,
2000
0000
3000
0000
,
0010
0010
0010
0000
,
1000
1000
1000
0000
,
0010
0010
0010
0000
,
0100
0100
0100
0000
,
0001
0001
0001
0000
,
2000
0000
0000
0000
3000
0000
0000
2002
,
0000
0000
0000
3003
0000
0000
0000
0000
0001
0000
0000
0000
0001
0000
0000
0000
,
0001
0000
0100
0100
,
0100
0000
0010
0010
,
0010
0000
2000
0000
,
3000
0000
0010
0010
,
0010
0000
0100
0100
,
0100
0000
0001
0001
,
0001
0000
0200
0000
,
0300
0000
0010
0010
,
0010
0000
1000
1000
,
1000
0000
0001
0001
,
0001
0000
0020
0000
,
0030
0000
0100
0100
,
0100
0000
1000
1000
,
1000
0000
0002
0000
,
0003
0000
0010
0010
,
0010
0000
0100
0000
,
0100
0000
0200
0000
,
0000
0300
0000
1000
,
1000
0001
0002
0000
,
0000
0003
0000
1000
,
1000
0010
0020
0000
,
0000
0000
0030
0000
,
0000
0000
2000
0000
,
3002
0000
0023
0000
,
0030
0000
0001
0000
,
1000
0000
0010
0000
,
1000
1000
1000
0000
,
0001
0001
0004
0000
,
0000
0000
0000
0000
,
0000
0000
0003
0000
;

//---------------dance-single - Novice----------------
#NOTES:
     dance-single:
     Ace Of Hearts (2011):
     Beginner:
     2:
     0.116,0.000,0.009,0.251,0.000:
0000
0000
0000
0000
,
0000
0000
0000
0000
,
0000
0000
0000
0000
,
0001
0000
0001
0000
,
0002
0000
0003
0000
,
1000
0000
1000
0000
,
2000
0000
3000
0000
,
0010
0000
0010
0000
,
0020
0000
0030
0000
,
2000
0000
3000
0000
,
0002
0000
0003
0000
,
0010
0000
0010
0000
,
0020
0000
0000
0000
,
0000
0000
0000
0000
,
0030
0000
0000
0000
,
0000
0000
0000
0000
,
0001
0000
0001
0000
,
0002
0000
0003
0000
,
0100
0000
0100
0000
,
0200
0000
0300
0000
,
0010
0000
0010
0000
,
0020
0000
0000
0000
,
0030
0000
0000
0000
,
2000
0000
3000
0000
,
0002
0000
0003
0000
,
0020
0000
0030
0000
,
0001
0000
0001
0000
,
0002
0000
0000
0000
,
0003
0000
0000
0000
0000
0000
0000
2002
,
0000
0000
0000
3003
0000
0000
0000
0000
1000
0000
0000
0000
0000
0000
0000
0000
,
1000
0000
2000
0000
,
3000
0000
0010
0000
,
0010
0000
0020
0000
,
0030
0000
0100
0000
,
0100
0000
0200
0000
,
0300
0000
0001
0000
,
0001
0000
0002
0000
,
0003
0000
1000
0000
,
1000
0000
2000
0000
,
3000
0000
0010
0000
,
0010
0000
0020
0000
,
0030
0000
1000
0000
,
1000
0000
2000
0000
,
3000
0000
0002
0000
,
0003
0000
0020
0000
,
0030
0000
0100
0000
,
0100
0000
0200
0000
,
0000
0300
0000
0000
,
1000
0000
2000
0000
,
0000
3000
0000
0000
,
0001
0000
0002
0000
,
0000
0003
0000
0000
,
0000
0000
0020
0000
,
0000
0000
0000
0000
,
0030
0000
0001
0000
,
0001
0000
0002
0000
,
0000
0000
0000
0000
,
0000
0003
0000
0000
;

//---------------dance-single - Expert----------------
#NOTES:
     dance-single:
     Ace Of Hearts (2011):
     Challenge:
     11:
     0.895,0.000,0.804,0.631,0.809: // measure 1
0000
0000
0000
0000
,  // measure 2
0000
0000
0000
0000
,  // measure 3
0000
0000
0000
0000
,  // measure 4
2010
0000
3010
0100
0001
0000
2001
0000
0000
0000
3100
0010
0001
0000
2001
0000
,  // measure 5
0000
0000
3010
0100
0001
0000
1000
0000
1200
0000
0310
0000
0011
0000
0000
0000
,  // measure 6
2001
0000
3010
0100
0000
0100
0001
0000
1001
0000
1000
0000
0100
0000
0000
0000
,  // measure 7
0120
0000
0001
0000
0031
0000
1000
0010
0200
0000
0301
0100
0001
0100
0010
1000
,  // measure 8
0001
0000
0010
0100
1000
0000
1002
0000
0000
0000
0103
0010
1000
0000
1002
0000
,  // measure 9
0000
0000
0013
0000
0100
0000
1100
0000
1000
0001
1000
0001
0010
0100
0010
0001
,  // measure 10
2000
0000
0000
3000
1020
0000
0000
0030
0210
0000
0001
0000
0301
0000
1000
0100
,  // measure 11
0020
0000
0130
1000
0000
0000
1002
0000
0000
0000
0103
0000
0100
0000
0010
0000
,  // measure 12
2010
0000
3001
0010
0100
0010
0001
1000
,  // measure 13
1010
0000
0010
0200
0000
0000
0301
1000
0001
0010
0000
0110
0000
0100
1000
0000
,  // measure 14
1002
0000
0103
0000
0120
0000
1030
0001
0100
0001
1000
0000
0001
0010
0100
0010
,  // measure 15
0002
0000
1003
0000
1020
0000
0130
0001
0100
0010
0000
1010
0000
1000
0001
0000
,  // measure 16
0021
0000
0130
0000
2100
0000
3001
0100
0001
1000
0001
0000
0100
0010
0100
0000
,  // measure 17
0001
0000
1000
0000
1100
0000
0100
0010
0001
0010
0100
0000
1100
0000
1000
0001
,  // measure 18
0010
0001
1000
0000
1010
0000
0010
0100
0001
0100
0010
0000
1010
0000
1000
0010
,  // measure 19
0100
0010
1000
0000
1001
0000
0001
0010
0100
0010
0001
0000
1001
0000
1000
0001
,  // measure 20
0100
0001
1000
0000
1100
0000
0100
0010
0001
0010
0100
0000
1100
0000
1000
0001
,  // measure 21
0010
0001
1000
0000
1010
0000
0010
0100
0001
0100
0010
0000
1010
0000
1000
0001
,  // measure 22
0010
0001
1000
0000
1010
0000
0010
0100
0001
0100
0010
0000
1010
0000
1000
0001
,  // measure 23
0100
0001
1000
0000
1100
0000
0100
0010
0001
0010
0100
0000
1100
0000
1000
0001
,  // measure 24
0010
0001
1000
0000
1010
0000
0010
0100
0010
0000
1000
0010
0100
0010
1000
0001
,  // measure 25
1000
0100
1000
0100
0010
0001
0010
0001
1000
0100
1000
0100
1000
0000
0001
0000
0010
0001
0010
0001
1000
0100
1000
0100
0010
0001
0010
0001
0010
0000
0100
0000
,  // measure 26
1000
0001
1000
0001
0100
0001
0100
0001
1000
0010
1000
0010
1000
0000
0001
0000
0010
0100
0010
0100
1000
0100
1000
0100
0010
0001
0010
0001
0010
0000
0210
0000
,  // measure 27
0000
0000
1300
0001
0100
0000
0010
0000
0100
0010
1000
0000
0001
0000
0021
0000
,  // measure 28
0000
0000
0000
0000
0130
0000
1000
0000
0001
0100
0010
0000
1000
0000
1002
0000
,  // measure 29
0000
0103
0100
0010
1000
1000
0001
0202
,  // measure 30
0000
0000
0000
0000
0000
0000
0303
0000
0000
0000
0000
0000
0220
0330
0000
0000
1010
0000
0000
0000
1000
0000
0001
0000
0010
0000
0000
0000
0210
0000
0000
0000
,  // measure 31
0000
0000
1300
0001
0100
0000
0120
0000
0000
0000
1030
0001
0010
0000
0100
0000
,  // measure 32
1100
0000
1000
0000
1001
0000
0000
0000
0201
0000
0310
1000
0000
1000
0001
0000
,  // measure 33
0011
0000
0010
0000
0100
0000
1000
0000
1002
0000
0010
0000
0013
0000
0010
0100
,  // measure 34
1000
0100
0010
0001
1000
0001
1000
0000
1020
0000
0130
0001
1000
0000
1200
0000
,  // measure 35
0000
0000
0310
0001
1000
0000
1020
0000
0000
0130
0001
0000
1000
0000
0100
0000
,  // measure 36
0010
0001
0010
0000
0110
0000
0000
0000
2100
0000
3001
0100
0001
0000
1000
0000
,  // measure 37
1200
0000
0310
0001
0010
0000
0100
0000
2100
0000
3001
0100
0000
0100
0001
0100
,  // measure 38
0020
0000
1030
0001
0100
0001
1000
0000
1200
0000
0310
0001
1000
0000
1020
0000
,  // measure 39
0000
0000
0130
0001
1000
0000
1200
0000
0000
0310
0001
0000
1000
0000
0000
0000
,  // measure 40
1020
0000
0100
0000
0130
0000
0000
0000
0102
0000
1003
0100
0000
0100
0010
0000
,  // measure 41
0011
0000
0001
0000
1000
0000
0000
0000
1020
0000
0100
0000
0130
0000
0100
0001
,  // measure 42
2000
0000
3001
0010
0100
0000
1000
0000
1001
0000
0001
0100
0010
0000
2010
0000
,  // measure 43
0000
3000
1001
0000
1001
0000
0202
0000
0303
0000
0110
0000
1001
0000
1100
0000
,  // measure 44
0100
0010
0001
0010
0100
0000
1000
0000
2002
0000
0000
3003
0022
0000
0000
0033
,  // measure 45
2100
0000
0001
0000
3001
0000
0001
0100
0020
0000
1030
0001
0000
0000
0201
0000
,  // measure 46
0000
0310
0010
1000
1002
0000
0013
0100
,  // measure 47
2100
0000
0000
0000
0000
0000
3001
0000
0000
0000
0000
0000
0100
0000
0010
0000
0100
0000
0010
0000
0100
0000
0010
0000
0100
0000
0000
0000
0000
0000
0001
0000
0000
2000
0000
0000
0000
0000
0000
3100
0000
0000
0010
0000
0000
0100
0000
0000
,  // measure 48
1000
0001
0000
0101
0000
0100
0010
0000
2010
0000
3001
0000
0001
0100
0000
0120
,  // measure 49
0000
1030
0001
0000
0001
0010
0000
0220
0030
0000
1300
0000
1001
0000
0001
0100
,  // measure 50
0010
0100
0000
0101
0000
0001
1000
0000
1200
0000
0310
0000
0010
0001
0000
2001
,  // measure 51
0000
3010
0100
0000
0100
0001
0000
2002
0003
0000
3010
0000
0110
0000
0100
0001
,  // measure 52
1000
0001
0000
0011
0000
0010
0100
0000
2200
0000
3300
0000
1001
0000
0001
0100
,  // measure 53
0010
0100
0001
0000
1000
0100
0010
0100
1000
0001
0010
0000
0110
0000
0100
1000
,  // measure 54
0100
0010
0001
1000
0000
1000
0001
0100
0001
1000
0100
0010
0100
1000
0001
0100
,  // measure 55
0001
0000
1000
0100
0010
0001
0010
0100
2000
0000
0000
0000
3001
0000
0100
0000
,  // measure 56
0010
0000
0100
0000
0001
0000
1000
0000
0020
0000
1030
0002
0000
0000
1003
0000
,  // measure 57
0100
0001
0100
1000
0000
0001
0010
1000
,  // measure 58
0010
0000
0000
0001
0000
0000
1000
0000
0000
0004
0400
0000
0000
0000
0000
0000
0000
0000
0000
0000
0000
0000
0000
0000
,  // measure 59
0000
0000
0000
0000
,  // measure 60
0000
0000
0303
0000
;
