#TITLE:Symphonic Love;
#SUBTITLE:;
#ARTIST:Miyuki Hashimoto;
#TITLETRANSLIT:;
#SUBTITLETRANSLIT:;
#ARTISTTRANSLIT:;
#GENRE:;
#CREDIT:Ace Of Hearts;
#BANNER:Symphonic Love - bn.png;
#BACKGROUND:Symphonic Love - bg.jpg;
#LYRICSPATH:;
#CDTITLE:Ace Of Hearts.png;
#MUSIC:Symphonic Love.ogg;
#OFFSET:1.180;
#SAMPLESTART:67.000;
#SAMPLELENGTH:12.000;
#SELECTABLE:YES;
#BPMS:0.000=144.000,62.000=288.000,67.500=144.000,80.000=288.000,80.750=144.000,96.000=288.000,96.750=144.000,126.000=288.000,132.000=144.000,144.000=288.000,144.750=144.000,156.000=288.000,160.000=144.000,192.000=288.000,196.000=144.000,222.000=288.000,228.000=144.000,252.000=288.000,259.500=144.000,272.000=288.000,272.750=144.000,288.000=288.000,288.750=144.000,316.000=288.000,324.000=144.000,336.000=288.000,336.750=144.000,348.000=288.000,352.000=144.000,384.000=288.000,388.000=144.000,414.000=288.000,420.000=144.000,444.500=288.000,452.000=144.000,464.000=288.000,468.000=72.000,484.000=144.000,492.000=288.000,500.000=144.000,524.000=288.000,528.000=144.000;
#DISPLAYBPM:72.000:144.000;
#STOPS:62.000=0.052
,62.250=0.052
,62.500=0.052
,62.750=0.052
,63.000=0.052
,63.250=0.052
,63.500=0.052
,63.750=0.052
,64.000=0.104
,64.500=0.104
,65.000=0.104
,65.500=0.104
,66.000=0.104
,66.500=0.104
,67.000=0.104
,80.000=0.052
,80.250=0.052
,80.500=0.052
,96.000=0.052
,96.250=0.052
,96.500=0.052
,126.000=0.052
,126.250=0.052
,126.500=0.052
,126.750=0.052
,127.000=0.052
,127.250=0.052
,127.500=0.052
,127.750=0.052
,128.000=0.104
,128.500=0.104
,129.000=0.104
,129.500=0.104
,130.000=0.104
,130.500=0.052
,130.750=0.052
,131.000=0.052
,131.250=0.052
,131.500=0.052
,131.750=0.052
,144.000=0.052
,144.250=0.052
,144.500=0.052
,156.000=0.104
,156.500=0.104
,157.000=0.104
,157.500=0.052
,157.750=0.052
,158.000=0.052
,158.250=0.052
,158.500=0.052
,158.750=0.052
,159.000=0.052
,159.250=0.052
,159.500=0.052
,159.750=0.052
,192.000=0.104
,192.500=0.104
,193.000=0.104
,193.500=0.104
,194.000=0.052
,194.250=0.052
,194.500=0.104
,195.000=0.052
,195.250=0.052
,195.500=0.052
,195.750=0.052
,222.000=0.052
,222.250=0.052
,222.500=0.052
,222.750=0.052
,223.000=0.052
,223.250=0.052
,223.500=0.052
,223.750=0.052
,224.000=0.104
,224.500=0.104
,225.000=0.104
,225.500=0.104
,226.000=0.104
,226.500=0.104
,227.000=0.052
,227.250=0.052
,227.500=0.052
,227.750=0.052
,252.000=0.104
,252.500=0.104
,253.000=0.104
,253.500=0.052
,253.750=0.052
,254.000=0.052
,254.250=0.052
,254.500=0.052
,254.750=0.052
,255.000=0.052
,255.250=0.052
,255.500=0.052
,255.750=0.052
,256.000=0.104
,256.500=0.104
,257.000=0.104
,257.500=0.104
,258.000=0.104
,258.500=0.104
,259.000=0.104
,272.000=0.052
,272.250=0.052
,272.500=0.052
,288.000=0.052
,288.250=0.052
,288.500=0.052
,316.000=0.104
,316.500=0.104
,317.000=0.104
,317.500=0.052
,317.750=0.052
,318.000=0.052
,318.250=0.052
,318.500=0.052
,318.750=0.052
,319.000=0.052
,319.250=0.052
,319.500=0.052
,319.750=0.052
,320.000=0.104
,320.500=0.104
,321.000=0.104
,321.500=0.104
,322.000=0.104
,322.500=0.052
,322.750=0.052
,323.000=0.052
,323.250=0.052
,323.500=0.052
,323.750=0.052
,336.000=0.052
,336.250=0.052
,336.500=0.052
,348.000=0.104
,348.500=0.104
,349.000=0.104
,349.500=0.104
,350.000=0.052
,350.250=0.052
,350.500=0.052
,350.750=0.052
,351.000=0.052
,351.250=0.052
,351.500=0.052
,351.750=0.052
,384.000=0.052
,384.250=0.052
,384.500=0.104
,385.000=0.104
,385.500=0.104
,386.000=0.104
,386.500=0.052
,386.750=0.052
,387.000=0.052
,387.250=0.052
,387.500=0.052
,387.750=0.052
,414.000=0.052
,414.250=0.052
,414.500=0.052
,414.750=0.052
,415.000=0.052
,415.250=0.052
,415.500=0.052
,415.750=0.052
,416.000=0.104
,416.500=0.104
,417.000=0.104
,417.500=0.104
,418.000=0.104
,418.500=0.104
,419.000=0.052
,419.250=0.052
,419.500=0.052
,419.750=0.052
,444.500=0.104
,445.000=0.104
,445.500=0.104
,446.000=0.104
,446.500=0.104
,447.000=0.104
,447.500=0.104
,448.000=0.052
,448.250=0.052
,448.500=0.052
,448.750=0.052
,449.000=0.052
,449.250=0.052
,449.500=0.052
,449.750=0.052
,450.000=0.052
,450.250=0.052
,450.500=0.052
,450.750=0.052
,451.000=0.052
,451.250=0.052
,451.500=0.052
,451.750=0.052
,464.000=0.104
,464.500=0.052
,464.750=0.052
,465.000=0.104
,465.500=0.052
,465.750=0.052
,466.000=0.052
,466.250=0.052
,466.500=0.052
,466.750=0.052
,467.000=0.052
,467.250=0.052
,467.500=0.052
,467.750=0.052
,492.000=0.104
,492.500=0.104
,493.000=0.104
,493.500=0.104
,494.000=0.052
,494.250=0.052
,494.500=0.052
,494.750=0.052
,495.000=0.052
,495.250=0.052
,495.500=0.052
,495.750=0.052
,496.000=0.104
,496.500=0.104
,497.000=0.104
,497.500=0.104
,498.000=0.052
,498.250=0.052
,498.500=0.104
,499.000=0.052
,499.250=0.052
,499.500=0.052
,499.750=0.052
,524.000=0.104
,524.500=0.104
,525.000=0.104
,525.500=0.052
,525.750=0.052
,526.000=0.052
,526.250=0.052
,526.500=0.052
,526.750=0.052
,527.000=0.052
,527.250=0.052
,527.500=0.052
,527.750=0.052
;
#BGCHANGES:;
#FGCHANGES:;
#KEYSOUNDS:;

//---------------dance-single - Hard----------------
#NOTES:
     dance-single:
     Ace Of Hearts (2011):
     Hard:
     10:
     0.747,0.255,0.043,0.680,0.430: // measure 1
0000
0000
0000
0000
,  // measure 2
0000
0000
1000
0010
1000
0000
0000
0001
,  // measure 3
0010
0100
0010
0001
2000
0000
3001
0200
,  // measure 4
0000
0300
0000
0000
0000
0000
0000
0000
,  // measure 5
0000
0000
0000
0000
,  // measure 6
0000
0000
0001
0100
0002
0000
0003
1000
,  // measure 7
0100
0010
0100
1000
0002
0000
1003
0020
,  // measure 8
0000
2030
0000
3000
0000
0000
0000
0000
,  // measure 9
0000
0001
1000
0100
1000
0001
0100
0002
,  // measure 10
1003
0000
0100
0000
0010
0000
0100
0000
1000
0000
0001
0000
0000
0000
1000
0100
,  // measure 11
1000
0000
1000
0000
0001
0000
0001
0000
0100
0000
0010
0000
0000
0000
0100
0001
,  // measure 12
0100
0000
0100
0000
0010
0000
0010
0000
1000
0000
0001
0000
0000
0000
0010
0001
,  // measure 13
0010
0010
0100
1000
0100
0010
0001
1000
,  // measure 14
0020
0000
1030
0000
0001
0000
0010
0000
0100
0000
0010
0000
0000
0000
0001
1000
,  // measure 15
0001
0000
0001
0000
0100
0000
0100
0000
0010
0000
1000
0000
0000
0000
0010
1000
,  // measure 16
0010
0000
0010
0000
0100
0000
0100
0001
0100
0001
1000
0001
1000
0001
0010
0001
,  // measure 17
1000
0000
1000
0000
1000
0000
1000
0000
1000
0000
1000
0000
1001
0000
0001
0100
,  // measure 18
0002
0000
0103
0001
0200
0000
0301
0100
0001
0000
2000
0000
3000
0000
0010
0100
,  // measure 19
0020
0000
0130
0010
0200
0000
0310
0100
0010
0000
2000
0000
3000
0000
0001
0000
,  // measure 20
0002
0000
0013
0001
0020
0000
0031
0010
0100
0000
0020
0000
0030
0000
0001
0000
,  // measure 21
1000
0010
1000
0000
0002
0000
1003
0000
0200
0000
0010
0000
0310
0000
0001
0000
,  // measure 22
2000
0000
3010
1000
0020
0000
1030
0010
1000
0000
0002
0000
0003
0000
0010
0100
,  // measure 23
0020
0000
0130
0010
0200
0000
0310
0100
0010
0000
0002
0000
0003
0000
0000
0000
,  // measure 24
0000
0000
1000
0000
2200
0000
3300
0000
0110
0000
0020
0000
0030
0000
0001
0010
,  // measure 25
0001
1000
0001
0000
0010
0000
0001
0000
2000
0000
0010
0000
3020
0000
0030
0000
,  // measure 26
0100
0000
0001
0000
0100
0000
0010
0000
1000
0000
0001
0000
0000
0000
0010
0001
,  // measure 27
0010
0000
0010
0000
0100
0000
0100
0000
1000
0000
0001
0000
0000
0000
1000
0010
,  // measure 28
1000
0000
1000
0000
0001
0000
0001
0000
0100
0000
0010
0000
0000
0000
0100
0001
,  // measure 29
0200
0000
0310
0000
1000
0000
0001
0000
0200
0000
0010
0000
0310
0000
1000
0001
,  // measure 30
1000
0000
1000
0000
0001
0000
0001
0000
0100
0000
0010
0000
0000
0000
1000
0010
,  // measure 31
1000
0000
1000
0000
0001
0000
0001
0000
0010
0000
0100
0000
0000
0000
0010
0001
,  // measure 32
0010
0000
0010
0000
0001
0000
1000
0001
1000
0001
0010
0100
0010
0100
1000
0100
,  // measure 33
0010
0000
0010
0000
0010
0000
0010
0000
0010
0000
0010
0100
1000
0100
0010
0001
,  // measure 34
1000
0000
0001
0000
0100
0000
0010
0000
0000
0000
1000
0010
1000
0000
0001
0000
,  // measure 35
0010
0100
1000
0001
0100
0001
1000
0000
,  // measure 36
0001
0000
0001
0000
1000
0000
0010
0000
0000
0000
0100
0010
0100
0000
0001
0000
,  // measure 37
1000
0001
1000
0000
0010
0000
1000
0000
0001
0000
0020
0000
0000
0000
0230
0000
,  // measure 38
1000
0000
1300
0000
0001
0000
0010
0000
0000
0000
0001
1000
0001
0000
0100
0000
,  // measure 39
0001
1000
0100
0010
0100
1000
0001
0200
,  // measure 40
0010
0000
0010
0000
0310
0000
0010
1000
0001
1000
0001
1000
0100
0010
0100
0010
,  // measure 41
0002
0000
1003
0000
0010
0000
0100
0000
0001
0000
0100
0000
0001
1000
0002
0000
,  // measure 42
0013
0010
0100
200M
3000
0002
M003
0200
,  // measure 43
030M
0000
0020
0000
0M30
0000
1000
0000
1100
0000
0200
0000
0300
0000
1000
0001
,  // measure 44
1000
0000
0020
0000
0030
0000
0100
0001
0100
0000
0020
0000
0030
0000
0100
0001
,  // measure 45
0200
0310
1000
0001
0020
0130
1000
0000
,  // measure 46
0001
0001
0010
M200
0300
002M
0030
0M02
,  // measure 47
0003
0000
20M0
0000
3000
0000
0010
0000
0110
0000
0200
0000
0300
0000
0010
0100
,  // measure 48
0010
0000
2000
0000
3000
0000
0001
0010
0001
0000
2000
0000
3000
0000
0010
0100
,  // measure 49
0020
0000
1030
0000
0001
0000
0010
0000
0100
0010
0100
0000
0010
0001
0010
0001
,  // measure 50
2000
3000
0001
M020
0030
0M02
0003
20M0
,  // measure 51
3000
0000
002M
0000
0030
0000
0100
0000
0101
0000
0002
0000
0003
0000
1000
0010
,  // measure 52
1000
0000
0002
0000
0003
0000
0010
0001
0010
0000
0200
0000
0300
0000
1000
0001
,  // measure 53
2000
3010
0100
0001
0200
0310
0100
0000
,  // measure 54
0001
0100
0010
200M
3000
0M20
0030
M200
,  // measure 55
0300
0000
00M2
0000
0003
0000
1000
0000
1010
0000
0020
0000
0030
0000
0100
0001
,  // measure 56
0100
0000
0020
0000
0030
0000
1000
0001
1000
0010
1000
0010
0100
0001
0100
0001
,  // measure 57
1000
0000
0100
0000
1000
0000
0001
0000
0100
0000
0010
0000
0100
0001
0100
0001
,  // measure 58
1000
0000
0100
0000
0010
0000
0100
0000
1000
0000
0001
0000
0000
0000
1000
0010
,  // measure 59
1000
0000
1000
0000
0001
0000
0001
0000
0100
0000
0010
0000
0000
0000
0100
0010
,  // measure 60
0100
0000
0100
0000
0001
0000
0001
0000
1000
0000
0100
0000
0000
0000
0010
0001
,  // measure 61
0010
0100
1000
0001
0100
0010
0100
0001
,  // measure 62
2000
0000
3010
0000
0100
0000
0010
0000
1000
0000
0001
0000
0000
0000
1000
0100
,  // measure 63
1000
0000
1000
0000
0001
0000
0001
0000
0100
0000
0010
0000
0000
0000
0100
0001
,  // measure 64
0100
0000
0100
0000
0010
0000
0010
0100
0001
0100
0001
0100
0010
1000
0010
1000
,  // measure 65
0001
0000
0001
0000
0001
0000
0001
0000
0001
0000
0001
0000
1001
0000
1000
0100
,  // measure 66
2000
0000
3100
1000
0200
0000
1300
0100
1000
0000
0002
0000
0003
0000
0100
0010
,  // measure 67
0200
0000
0310
0100
0020
0000
0130
0010
0200
0000
0302
0000
0003
0000
1000
0010
,  // measure 68
2000
0000
3010
1000
0020
0000
1030
0010
2000
0000
3002
0000
0003
0000
0010
0000
,  // measure 69
0001
1000
0001
0000
0010
0000
0100
0000
2000
0000
3001
0000
0001
0000
0010
0100
,  // measure 70
0020
0000
0130
0010
0200
0000
0310
0100
0020
0000
0032
0000
0003
0000
1000
0001
,  // measure 71
2000
0000
3001
1000
0002
0000
1003
0001
2000
0000
3020
0000
0030
0000
0000
0000
,  // measure 72
0000
0000
0100
0000
0102
0000
0003
0000
1001
0000
2000
0000
3000
0000
0100
0010
,  // measure 73
0100
1000
0100
0000
0010
0000
0100
0000
1000
0000
0001
0000
0001
0000
0000
0000
,  // measure 74
1000
0000
0010
0000
0100
0000
0010
0000
1000
0000
0001
0000
0000
0000
0010
0001
,  // measure 75
0010
0000
0100
0000
1000
0000
0001
0000
0100
0000
0010
0000
0000
0000
0100
0010
,  // measure 76
0100
0000
0010
0000
1000
0000
0010
0000
0100
0000
0001
0000
0000
0000
1000
0100
,  // measure 77
1000
0000
0001
0000
0100
0000
0010
0000
1000
0000
0010
0000
0010
0000
0100
0001
,  // measure 78
0100
0000
0010
0000
1000
0000
0010
0000
0100
0000
0001
0000
0000
0000
1000
0100
,  // measure 79
1000
0000
0001
0000
0010
0000
0100
0000
0010
0000
0001
0000
0000
0000
1000
0010
,  // measure 80
1000
0000
1000
0000
0001
0000
0001
1000
0001
0100
0001
0100
0010
1000
0010
1000
,  // measure 81
0001
0000
0001
0000
1000
0000
1000
0000
0100
0000
0010
0001
0010
0001
1000
0001
,  // measure 82
1000
0010
0100
0010
0000
1000
0001
0010
,  // measure 83
0100
0010
0001
1000
0010
0100
0001
0000
,  // measure 84
1000
0000
0100
0000
0010
0000
0001
0000
0000
0000
1000
0010
1000
0000
0001
0000
,  // measure 85
0100
0010
0100
0000
0001
0000
1000
0000
0100
0000
0020
0000
0000
0000
0130
0000
,  // measure 86
1000
0000
0001
0000
0100
0000
0010
0000
0000
0000
0100
0001
0100
0000
0010
0000
,  // measure 87
1000
0001
0010
0100
0010
0001
1000
0001
,  // measure 88
0010
0000
0010
0000
0100
0000
0100
0000
1000
0001
1000
0001
0100
0001
0100
0001
,  // measure 89
2000
3100
0010
0100
1000
0001
0100
0000
,  // measure 90
0010
0100
0001
20M0
3000
0M02
0003
M020
,  // measure 91
0030
0000
020M
0000
0300
0000
1000
0000
0001
0000
0200
0000
0300
0000
0010
1000
,  // measure 92
0010
0000
0200
0000
0300
0000
0001
1000
0001
0000
0020
0000
0030
0000
0100
1000
,  // measure 93
0100
0010
0001
1000
0001
0100
0001
0000
,  // measure 94
1000
0010
1000
0M02
0003
02M0
0300
002M
,  // measure 95
0030
0000
2M00
0000
3000
0000
0001
0000
0010
0000
0100
0000
0000
0000
0010
0001
,  // measure 96
0010
0000
0200
0000
0300
0000
1000
0001
1000
0000
0020
0000
0030
0000
1000
0010
,  // measure 97
1000
0001
1000
0000
0010
0000
0100
0000
0001
0000
1000
0010
1000
0001
1000
0001
,  // measure 98
0200
0300
0010
2M00
3000
00M2
0003
M200
,  // measure 99
0300
0000
002M
0000
0030
0000
1000
0000
0001
0000
0200
0000
0300
0000
0010
0100
,  // measure 100
0010
0000
2000
0000
3000
0000
0001
0010
0001
0000
2000
0000
3000
0000
0010
1000
,  // measure 101
0010
0100
0001
1000
0100
0010
0100
0000
,  // measure 102
1000
0001
0010
0M02
0003
20M0
3000
020M
,  // measure 103
0300
0000
M020
0000
0030
0000
0100
0000
1000
0000
0002
0000
0003
0000
1000
0010
,  // measure 104
1000
0000
0002
0000
0003
0000
0010
0100
0010
0001
0010
0001
1000
0100
1000
0100
,  // measure 105
0010
0000
0001
0000
0010
0000
0100
0000
1000
0000
0001
0000
1000
0010
1000
0010
,  // measure 106
0100
0001
1000
0200
0000
0310
0100
1000
,  // measure 107
0000
M001
0010
0100
2000
0000
3000
0002
,  // measure 108
0000
0103
0010
2000
0000
3001
0100
0002
,  // measure 109
0000
0000
1003
0100
0010
0100
2000
0000
0000
0000
3001
0000
0001
0000
0020
0000
,  // measure 110
0000
0130
1000
0002
0000
0103
0010
0100
,  // measure 111
0000
0M01
1000
0010
2000
0000
3000
0002
,  // measure 112
0000
0013
0100
1000
0100
0010
0001
1000
,  // measure 113
0010
1000
0010
1000
0001
0100
0001
0100
0010
0100
0010
0100
0001
1000
0001
1000
,  // measure 114
02M0
0000
0310
0000
0000
0000
0010
0000
0000
0000
0100
1000
0100
0000
0010
0000
,  // measure 115
M002
0000
1003
0000
0000
0000
1000
0000
0000
0000
0010
1000
0010
0000
0100
0001
,  // measure 116
0200
0000
0310
0100
0010
0000
1000
0001
2000
0000
3001
0010
0001
0000
0010
0100
,  // measure 117
0020
0000
0031
0010
0002
0000
1003
0100
1000
0001
1000
0001
0100
0001
0100
0001
,  // measure 118
04M0
M000
000M
M000
,  // measure 119
00M0
0000
0000
0000
000M
0000
0300
0000
0000
0010
0100
0010
1000
0001
2000
0000
,  // measure 120
3010
0000
0010
0000
0100
0000
M001
0000
0000
0000
1M00
0000
0000
0000
01M0
0000
0000
0000
001M
0000
0000
0000
0001
0000
0010
0000
0100
0000
0000
0000
0010
0001
,  // measure 121
0010
0000
0200
0000
0300
0000
1000
0100
1000
0000
0002
0000
0003
0000
0010
0001
0010
0000
0100
0000
1000
0000
0001
0000
1000
0000
0100
0000
0010
0000
0000
0000
,  // measure 122
0100
1000
0001
02M0
0300
M020
0030
200M
,  // measure 123
3000
0000
00M2
0000
0003
0000
0010
0000
0100
0000
2000
0000
3000
0000
0001
0100
,  // measure 124
0001
0000
0001
0000
1000
0000
1000
0000
0100
0010
0100
0010
0001
1000
0001
1000
,  // measure 125
0010
0000
0100
0000
0001
0000
1000
0000
0100
0010
0100
0000
1000
0100
1000
0100
,  // measure 126
0020
0030
0100
20M0
3000
0M02
0003
M200
,  // measure 127
0300
0000
002M
0000
0030
0000
1000
0000
0001
0000
0200
0000
0300
0000
0010
0100
,  // measure 128
0010
0000
2000
0000
3000
0000
0001
1000
0001
0000
0200
0000
0300
0000
0010
0100
,  // measure 129
0010
1000
0001
0010
0100
1000
0001
0000
,  // measure 130
1000
0010
0100
002M
0030
2M00
3000
00M2
,  // measure 131
0003
0000
M020
0000
0030
0000
0100
0000
1000
0000
0002
0000
0003
0000
1000
0010
,  // measure 132
1000
0000
1000
0000
0001
0000
0001
0100
0010
1000
0010
1000
0001
0010
0001
0010
,  // measure 133
0100
0010
0001
1000
0100
0000
0000
0000
;

//---------------dance-single - Medium----------------
#NOTES:
     dance-single:
     Ace Of Hearts (2011):
     Medium:
     7:
     0.500,0.000,0.000,0.115,0.032: // measure 1
0000
0000
0000
0000
,  // measure 2
0000
0000
0000
0000
,  // measure 3
0000
0000
0000
0000
,  // measure 4
0000
0000
0000
0000
,  // measure 5
0000
0000
0000
0000
,  // measure 6
0000
0000
1000
0100
1000
0000
0000
0001
,  // measure 7
0100
0001
1000
0001
1000
0000
0010
0200
,  // measure 8
0000
0302
0000
0003
0000
0000
0000
0000
,  // measure 9
0000
1000
0100
1000
0100
0010
0001
0010
,  // measure 10
0001
1000
0010
1000
0010
1000
0000
0001
,  // measure 11
0001
0010
0001
0010
0001
0010
0000
0100
,  // measure 12
0100
1000
0100
1000
0100
1000
0000
0001
,  // measure 13
0001
0100
0001
1000
0001
1000
0010
1000
,  // measure 14
0001
0010
0001
0010
0001
0010
0000
0100
,  // measure 15
0100
1000
0100
1000
0100
1000
0000
0001
,  // measure 16
0001
0100
0001
0100
0040
0000
0000
0000
,  // measure 17
1030
1000
0001
0001
0010
0010
0000
0001
,  // measure 18
0001
1000
1000
0010
0100
0010
0000
1000
,  // measure 19
1000
0010
0010
0100
0001
0100
0000
0001
,  // measure 20
0001
0100
0100
0010
1000
0010
0000
1000
,  // measure 21
0010
1000
0001
1000
0001
0010
0000
0100
,  // measure 22
0100
0010
0010
0001
1000
0001
0000
1000
,  // measure 23
1000
0010
0010
0100
0001
0100
0000
0000
,  // measure 24
0000
0010
0100
0000
0001
1000
0000
0010
,  // measure 25
1000
0001
1000
0010
2000
0000
3020
0000
,  // measure 26
0130
0001
0100
0001
0100
0001
0000
1000
,  // measure 27
1000
0001
0010
0001
0010
0001
0000
0010
,  // measure 28
0010
0100
1000
0100
1000
0100
0000
1000
,  // measure 29
0001
0010
0001
1000
0002
0000
0023
0000
,  // measure 30
0031
1000
0001
1000
0001
1000
0000
0010
,  // measure 31
0010
0100
0001
0100
0001
0100
0000
0010
,  // measure 32
0010
1000
0001
1000
0004
0000
0000
0000
,  // measure 33
1003
1000
0010
0010
0100
0000
0000
0000
,  // measure 34
0001
0001
1000
0010
0000
1000
0010
1000
,  // measure 35
0001
0010
0001
0010
0100
1000
0100
0000
,  // measure 36
1000
1000
0001
0100
0000
0010
0010
1000
,  // measure 37
0001
1000
0001
0100
0001
2000
0000
3100
,  // measure 38
0010
0010
0100
1000
0000
0001
0001
0010
,  // measure 39
0001
1000
0001
1000
0010
1000
0010
0200
,  // measure 40
0000
0301
1000
1000
0001
0001
0100
0100
,  // measure 41
0020
0130
0001
0100
0001
0100
0010
0000
,  // measure 42
1000
0001
1000
0001
0000
0010
0000
0100
,  // measure 43
0000
1000
0000
0001
1000
0001
0000
1000
,  // measure 44
1000
0010
0000
0100
0100
0001
0000
1000
,  // measure 45
0010
1000
0001
1000
0001
0010
0100
0000
,  // measure 46
0010
0001
0010
0001
0000
1000
0000
0010
,  // measure 47
0000
1000
0000
0001
0010
0001
0000
1000
,  // measure 48
1000
0010
0000
0100
0100
0001
0000
1000
,  // measure 49
0010
0100
0010
1000
0001
0000
0000
0000
,  // measure 50
1000
0000
0001
0010
0000
0100
0000
0010
,  // measure 51
0000
0001
0000
1000
0010
1000
0000
0001
,  // measure 52
0001
0100
0000
0010
0010
1000
0000
0001
,  // measure 53
0100
0010
1000
0001
1000
0001
0100
0000
,  // measure 54
0010
0010
0100
0001
0000
1000
0000
0001
,  // measure 55
0000
0010
0000
0100
0010
0100
0000
1000
,  // measure 56
0100
1000
0000
0001
0100
0001
0000
1000
,  // measure 57
0100
0010
0100
1000
0001
0000
0000
0000
,  // measure 58
1000
1000
0010
0100
0010
1000
0000
0001
,  // measure 59
0001
1000
0100
1000
0100
0010
0000
0100
,  // measure 60
0100
1000
0100
1000
0100
0010
0000
0001
,  // measure 61
0001
1000
0010
0100
0010
1000
0001
0010
,  // measure 62
0100
0010
0100
0010
0100
1000
0000
0001
,  // measure 63
0001
0100
0001
0100
0001
1000
0000
0001
,  // measure 64
1000
1000
0010
0040
0000
0000
0000
0000
,  // measure 65
0130
0100
0001
0001
1000
1000
0000
0010
,  // measure 66
0010
1000
0001
0010
0001
0010
0000
0100
,  // measure 67
0100
1000
0001
1000
0100
1000
0000
0001
,  // measure 68
0001
0100
0010
0100
0001
0100
0000
0010
,  // measure 69
0100
0010
1000
0010
0100
0010
0000
1000
,  // measure 70
1000
0001
0010
0001
0010
0100
0000
0010
,  // measure 71
0010
0001
1000
0001
1000
0010
0000
0000
,  // measure 72
0000
1000
0001
0000
1000
0100
0000
0010
,  // measure 73
0001
0010
0100
1000
0002
0000
0023
0000
,  // measure 74
0130
1000
0100
1000
0001
1000
0000
0010
,  // measure 75
0010
1000
0001
1000
0001
0010
0000
0100
,  // measure 76
0100
1000
0100
1000
0001
0100
0000
0010
,  // measure 77
1000
0010
0100
0001
2000
0000
3200
0000
,  // measure 78
0310
0001
0010
0001
1000
0010
0000
1000
,  // measure 79
1000
0010
0100
0010
0100
0001
0000
1000
,  // measure 80
0010
0010
0100
0004
0000
0000
0000
0000
,  // measure 81
1003
1000
0010
0010
0100
0000
0000
0000
,  // measure 82
0001
0010
0100
1000
0000
0001
0100
0001
,  // measure 83
1000
0001
1000
0001
1000
0100
0010
0000
,  // measure 84
0001
1000
0001
0010
0000
0001
1000
0001
,  // measure 85
0100
0010
0100
0001
1000
0002
0000
0103
,  // measure 86
0010
1000
0010
0100
0000
0001
0100
0010
,  // measure 87
1000
0010
0100
0001
1000
0001
0010
0200
,  // measure 88
0000
1300
0001
0001
1000
1000
0010
0010
,  // measure 89
1000
0001
0010
0001
1000
0001
1000
0000
,  // measure 90
0010
1000
0010
1000
0000
0001
0000
0100
,  // measure 91
0000
0010
0000
1000
0001
1000
0000
0010
,  // measure 92
0010
0100
0000
0001
0001
1000
0000
0010
,  // measure 93
0010
1000
0001
0010
0100
1000
0001
0000
,  // measure 94
0010
0001
0010
0100
0000
1000
0000
0001
,  // measure 95
0000
0100
0000
0010
1000
0010
0000
0100
,  // measure 96
0100
0001
0000
1000
1000
0100
0000
0010
,  // measure 97
0001
0010
0100
1000
0001
0000
0000
0000
,  // measure 98
1000
0000
0001
0100
0000
0010
0000
0100
,  // measure 99
0000
0001
0000
1000
0100
0010
0000
0001
,  // measure 100
0001
1000
0000
0010
0010
1000
0000
0001
,  // measure 101
0010
0100
0010
0001
1000
0001
0100
0000
,  // measure 102
0010
1000
0001
0010
0000
0001
0000
1000
,  // measure 103
0000
0010
0000
1000
0010
0100
0000
0001
,  // measure 104
0001
1000
0000
0100
0100
0010
0000
0001
,  // measure 105
0010
0001
1000
0001
0100
0000
0000
0000
,  // measure 106
0001
0100
0001
2000
0000
3001
0100
0001
,  // measure 107
0000
1000
0100
0010
0002
0000
0000
0023
,  // measure 108
0000
0031
1000
0002
0000
1003
0010
2000
,  // measure 109
0000
3001
0100
0002
0000
0000
0000
0023
,  // measure 110
0000
0031
0010
0200
0000
0310
0001
1000
,  // measure 111
0000
0001
0010
0100
2000
0000
0000
3002
,  // measure 112
0000
1003
0100
0010
0100
1000
0001
0100
,  // measure 113
0004
4000
0000
0000
0000
0000
0000
0000
0000
0000
0000
0000
3003
0000
0000
0000
,  // measure 114
0000
1000
0000
1000
0000
0001
0001
0010
,  // measure 115
0010
0100
0000
0100
0000
1000
1000
0001
,  // measure 116
0002
0000
0000
1003
2000
0000
0000
3010
,  // measure 117
0010
0100
0100
0001
0001
1000
1000
0001
,  // measure 118
0004
0000
0000
0000
,  // measure 119
0000
0000
0003
0000
0000
1000
0010
1000
,  // measure 120
0001
0000
0010
0001
0000
1000
0000
0001
0000
1000
0000
0001
0010
0001
0000
1000
,  // measure 121
1000
0100
0000
0010
0010
0001
0000
1000
0100
0010
0001
0010
0100
1000
0100
0000
,  // measure 122
0010
0001
1000
0010
0000
1000
0000
0001
,  // measure 123
0000
0010
0000
0100
1000
0100
0000
0010
,  // measure 124
0001
0001
1000
1000
0010
0010
1000
1000
,  // measure 125
0001
0010
0100
0010
0001
0000
0000
0000
,  // measure 126
1000
0000
0010
1000
0000
0001
0000
0010
,  // measure 127
0000
0100
0000
1000
0100
1000
0000
0001
,  // measure 128
0001
0100
0000
0010
0010
0100
0000
0001
,  // measure 129
0001
1000
0100
0010
0100
1000
0001
0000
,  // measure 130
1000
0010
1000
0001
0000
0010
0000
0100
,  // measure 131
0000
1000
0000
0001
0100
0001
0000
1000
,  // measure 132
0001
0001
1000
1000
0010
0010
0100
0100
,  // measure 133
0001
1000
0010
0100
0001
0000
0000
0000
;

//---------------dance-single - Expert----------------
#NOTES:
     dance-single:
     Ace Of Hearts (2011):
     Challenge:
     12:
     0.995,0.453,1.000,0.133,0.616: // measure 1
0000
0000
0000
0000
,  // measure 2
1001
1100
0000
0011
0000
0110
0000
0000
,  // measure 3
0011
1100
0000
1001
0000
0101
0000
0000
,  // measure 4
1010
1001
0000
0011
0000
1100
0000
0000
,  // measure 5
1001
0101
0000
1010
0000
1001
0000
0000
,  // measure 6
0021
0000
0130
0000
1100
0000
1000
0001
0100
0000
0010
0000
1010
0000
1000
0001
,  // measure 7
0010
0000
0100
0000
1100
0000
1000
0001
0100
0000
0010
0000
1010
0000
1000
0001
,  // measure 8
0010
0000
0001
0000
1001
0000
1000
0010
0100
0000
0001
0000
0011
0000
0010
0100
,  // measure 9
2200
000M
00M0
000M
00M0
000M
00M0
330M
,  // measure 10
1001
0000
0001
0000
0101
0000
0100
0000
0110
0000
0010
0000
1010
0000
1000
0001
,  // measure 11
1000
0100
1000
0001
1000
0000
0001
0100
0001
1000
0001
0100
0001
1000
0001
1000
,  // measure 12
0001
0000
0100
0000
0110
0000
0010
0100
0010
1000
0010
0100
0010
1000
0010
0100
,  // measure 13
0001
0000
1000
0000
1100
0000
0100
0000
0110
0000
0011
0000
1100
0000
1000
0001
,  // measure 14
0100
0000
0010
0000
1010
0000
1000
0001
0010
0000
0100
0000
1100
0000
1000
0001
,  // measure 15
0100
0000
0010
0000
1010
0000
1000
0001
0010
0001
1000
0001
0100
0000
0010
0100
,  // measure 16
0001
0000
0001
0000
1001
0000
1000
0100
0010
0100
1000
0100
0010
0001
1000
0001
,  // measure 17
0101
0000
0101
0000
1010
0000
1010
0000
1001
0000
1001
0000
0011
0000
0010
0100
,  // measure 18
1000
0000
1000
0100
0010
0000
0010
0001
1000
0000
0010
0000
0110
0000
0100
0001
,  // measure 19
1000
0000
1000
0001
0100
0000
0100
0010
1000
0000
0001
0000
0011
0000
0010
0000
,  // measure 20
0110
0000
0100
1000
0001
0000
0001
1000
0100
0000
0010
0000
0011
0000
0001
0000
,  // measure 21
1000
0010
1000
0000
0001
0000
0010
0000
0100
0000
1100
0000
0011
0000
0001
0000
,  // measure 22
2001
0000
3010
0100
0001
0000
0001
1000
0010
0000
0100
0000
0101
0000
0001
1000
,  // measure 23
0100
0000
0100
0010
0001
0000
0001
1000
0010
0000
0100
0000
0101
0000
0001
0000
,  // measure 24
1000
0000
1100
0000
0M01
0000
0000
0000
0011
0000
010M
0000
0000
0000
1000
0010
,  // measure 25
1000
0001
1000
0000
0100
0000
0010
0000
0001
0000
0101
0000
1010
0000
1000
0000
,  // measure 26
0001
0010
0100
1000
0100
0010
0001
1000
0001
0100
0010
1000
0010
0100
0001
1000
,  // measure 27
1010
0000
0010
0000
0110
0000
0100
0000
0101
0000
0001
1000
0100
0000
0100
0010
,  // measure 28
0001
0000
0001
0000
1001
0000
1000
0010
0100
0010
1000
0010
0100
0010
1000
0010
,  // measure 29
0100
0000
0001
0000
1000
0000
0100
0000
0010
0000
0011
0000
1100
0000
1000
0001
,  // measure 30
0100
0000
0010
0000
1010
0000
1000
0001
0100
0001
1000
0001
0100
0000
0010
1000
,  // measure 31
0001
0000
0001
0000
0011
0000
0010
0100
1000
0100
0010
0001
1000
0000
0001
0100
,  // measure 32
0010
0000
1000
0000
1001
0000
0001
0100
0010
1000
0010
0100
0001
1000
0001
0010
,  // measure 33
010M
0000
010M
0000
10M0
0000
1M00
0000
00M1
0000
1M00
0000
001M
1000
0001
1000
,  // measure 34
0010
0000
0010
0000
0100
0000
0101
0000
0000
0000
0001
1000
0100
0000
0010
0000
,  // measure 35
0110
0100
1000
0001
0101
0100
0120
0030
,  // measure 36
1010
0000
1000
0000
0001
0000
0011
0000
0000
0000
0010
0100
1000
0000
0001
0000
,  // measure 37
0100
0010
0100
0000
0001
0000
1000
0000
1010
0000
0020
0000
0000
0000
0130
0000
,  // measure 38
0101
0000
0001
0000
1000
0000
1100
0000
0000
0000
0100
0010
0001
0000
1000
0000
,  // measure 39
1010
0010
0100
0001
1000
0100
0010
0011
,  // measure 40
1001
0000
1001
0000
1100
0000
0100
0010
0100
1000
0100
0010
0001
1000
0001
0100
,  // measure 41
0020
0000
0130
0001
1000
0000
0100
0010
0001
0000
0010
0100
1000
0001
0100
0010
,  // measure 42
1010
1010
1001
M101
0100
011M
0010
1M10
,  // measure 43
1000
0000
10M1
0000
0001
0000
0011
0000
0011
0000
0110
0000
0100
0000
1000
0001
,  // measure 44
0101
0000
0100
0000
0110
0000
0010
1000
1001
0000
0001
0000
0011
0000
0010
0100
,  // measure 45
1100
1000
0001
0100
0110
1010
0101
0001
,  // measure 46
1001
1001
1100
M110
0010
0M11
0001
10M1
,  // measure 47
1000
0000
101M
0000
0010
0000
0110
0000
0110
0000
0101
0000
0001
0000
1000
0100
,  // measure 48
0110
0000
0010
0000
0001
0000
1000
0010
0110
0000
0100
0000
0001
0000
1000
0100
,  // measure 49
0110
0000
0010
0000
0011
0000
0001
0000
1000
0100
1000
0000
0001
0100
0010
0100
,  // measure 50
0101
0001
1001
110M
0100
M110
0010
0M11
,  // measure 51
0001
0000
10M1
0000
1000
0000
1010
0000
1010
0000
0110
0000
0100
0000
0001
1000
,  // measure 52
1010
0000
0010
0000
0110
0000
0100
0001
1001
0000
1000
0000
1100
0000
0100
0010
,  // measure 53
0011
0001
1000
0010
0110
0100
0101
0001
,  // measure 54
1001
1001
1010
M110
0100
01M1
0001
1M01
,  // measure 55
1000
0000
110M
0000
0100
0000
0110
0000
0110
0000
0010
0000
0011
0000
0001
1000
,  // measure 56
1010
0000
0010
0000
0110
0000
0100
0001
1000
0001
0100
0001
1000
0001
0100
0001
,  // measure 57
1001
0000
1000
0000
0010
0000
0100
0000
0101
0000
0001
0000
1000
0100
0010
0100
,  // measure 58
1000
0100
1000
0100
0010
0001
0010
0001
1000
0010
1000
0010
0100
0001
0100
0001
,  // measure 59
1000
0000
0010
0000
0110
0000
0100
0001
1000
0100
0010
0001
0010
0100
1000
0001
,  // measure 60
0100
0000
0010
1000
0001
0000
0010
0001
1000
0010
1000
0010
0100
0000
0010
0100
,  // measure 61
0001
0000
1000
0000
1001
0000
0001
0000
0010
0000
0110
0000
1001
0000
1000
0010
,  // measure 62
0100
0000
0001
0000
0011
0000
0010
0100
1000
0100
0010
0001
1000
0000
0001
0100
,  // measure 63
0010
0000
1000
0000
1001
0000
0001
0010
0100
1000
0100
0010
0001
0000
1000
0010
,  // measure 64
0110
0000
0110
0000
0101
0000
0001
1000
0010
0100
0001
1000
0010
0100
0001
1000
,  // measure 65
1100
0000
1100
0000
0011
0000
0011
0000
1001
0000
1001
0000
1010
0000
0010
0100
,  // measure 66
0001
0000
0001
1000
0100
0000
0100
0010
0001
0000
1000
0000
1010
0000
0010
0100
,  // measure 67
0001
0000
0001
1000
0100
0000
0100
0010
0001
0000
1000
0000
1100
0000
0100
0010
,  // measure 68
0001
0000
0001
1000
0010
0000
0010
1000
0001
0000
0010
0000
0110
0000
0100
0000
,  // measure 69
1000
0001
1000
0000
0010
0000
1000
0000
0001
0000
0011
0000
1100
0000
0100
1000
,  // measure 70
0010
0000
0010
1000
0100
0000
0100
1000
0010
0000
0100
0000
0101
0000
0100
0001
,  // measure 71
0010
0000
0010
0001
0100
0000
0100
0001
0010
0000
0100
0000
1100
0000
1000
0000
,  // measure 72
0001
0000
0101
0000
1M00
0000
0000
0000
1010
0000
00M1
0000
1000
0000
0001
0100
,  // measure 73
0010
0100
0010
0000
1000
0000
0001
0000
0010
0000
0110
0000
1001
0000
1000
0000
,  // measure 74
0010
0100
0010
0100
0001
0100
0001
0100
0010
1000
0010
1000
0001
0000
1000
0100
,  // measure 75
0010
0000
0001
0000
1001
0000
1000
0010
0100
0001
0100
0010
1000
0000
0001
0010
,  // measure 76
0100
0000
1000
0000
1001
0000
0001
0100
0010
1000
0010
0100
0001
0000
1000
0010
,  // measure 77
0100
0000
0010
0000
1000
0000
0001
0000
0100
0000
0110
0000
1001
0000
1000
0010
,  // measure 78
0100
0000
0010
1000
0001
0000
0010
0001
1000
0001
0010
0100
1000
0000
0001
0100
,  // measure 79
0010
0000
0100
0001
1000
0000
0100
0010
0001
0010
0100
1000
0001
0000
1000
0010
,  // measure 80
0110
0000
0110
0000
0101
0000
0001
1000
0100
1000
0001
1000
0100
1000
0001
0100
,  // measure 81
M001
0000
0M01
0000
10M0
0000
100M
0000
01M0
0000
0010
0100
1000
0100
0010
0001
,  // measure 82
1000
1000
0010
0110
0000
0100
0101
0001
,  // measure 83
1001
1000
1100
0100
0110
0010
0012
0003
,  // measure 84
1001
0000
1000
0000
0100
0000
0110
0000
0000
0000
0010
0100
1000
0000
0001
0000
,  // measure 85
0100
0010
0100
0000
0001
0000
1000
0000
1100
0000
0200
0000
0000
0000
0310
0000
,  // measure 86
0011
0000
0001
0000
1000
0000
1010
0000
0000
0000
0010
0100
0001
0000
1000
0000
,  // measure 87
1100
0100
0010
0001
1000
0010
0100
0010
,  // measure 88
1010
0000
1010
0000
1001
0000
1001
0000
0001
0010
0100
1000
0100
0010
0001
1000
,  // measure 89
0001
0000
0100
0010
1000
0000
0010
0100
0001
0000
1000
0100
0010
0100
1000
0000
,  // measure 90
1001
1001
0101
011M
0010
1M10
1000
10M1
,  // measure 91
0001
0000
M011
0000
0010
0000
0110
0000
0110
0000
0100
0000
1100
0000
1000
0001
,  // measure 92
0101
0000
0100
0000
0110
0000
0010
1000
1001
0000
0001
0000
0101
0000
0100
0010
,  // measure 93
1010
1000
0001
0010
0110
1100
0011
0001
,  // measure 94
1001
1001
1010
M110
0100
01M1
0001
1M01
,  // measure 95
1000
0000
110M
0000
0100
0000
0110
0000
0011
0000
0001
0000
1001
0000
1000
0010
,  // measure 96
0110
0000
0100
0000
0101
0000
0001
1000
1100
0000
0100
0000
0110
0000
0010
0001
,  // measure 97
1000
0001
0010
0000
0100
0000
1000
0000
1001
0000
0001
0100
0010
1000
0010
0100
,  // measure 98
0101
0001
1000
1010
0010
0110
0100
0101
,  // measure 99
0001
0000
0011
0000
0010
0000
0110
0000
0110
0000
0100
0000
1100
0000
1000
0001
,  // measure 100
0101
0000
0100
0000
0110
0000
0010
1000
1001
0000
0001
0000
0011
0000
0010
0100
,  // measure 101
1100
1000
0001
0100
0110
1010
0101
0001
,  // measure 102
1001
1001
1100
0110
0010
0011
0001
0101
,  // measure 103
0100
0000
0110
0000
0010
0000
1010
0000
1001
0000
0001
0000
0011
0000
0010
0100
,  // measure 104
1100
0000
1000
0000
1001
0000
0001
0010
0100
0010
0001
0010
0100
0010
0001
0010
,  // measure 105
0110
0000
0100
0000
1000
0000
0001
0000
0101
0000
0100
0000
0010
1000
0010
0100
,  // measure 106
M001
1000
0010
020M
0000
0301
1000
1100
,  // measure 107
0M00
0100
0010
0001
2000
3000
10M1
0002
,  // measure 108
0000
0103
0010
200M
0000
3100
0010
0012
,  // measure 109
0000
0000
0000
0000
0000
0000
1003
0000
0010
0000
1000
0000
0010
0000
0000
1000
0000
0000
0002
0000
0000
0000
0000
0000
0003
0000
0000
0000
0000
0000
0011
0000
0000
0000
0000
0000
1100
0000
0000
0000
0000
0000
10M2
0000
0000
0000
0000
0000
,  // measure 110
0000
1003
0010
M210
0000
0301
1000
1010
,  // measure 111
00M0
0010
0100
0001
1001
1000
M000
1200
,  // measure 112
0000
0310
0011
0011
1001
1001
0011
0011
,  // measure 113
0010
0100
1000
0001
0010
0100
1000
0001
0010
0100
1000
0001
0010
0100
1000
0001
,  // measure 114
1000
0000
1010
0000
00M0
0000
1M10
0000
M000
0000
0M10
0100
0020
0000
1030
0001
,  // measure 115
2001
3000
1100
0000
0M00
0000
11M0
0000
000M
0000
10M0
0001
1000
0000
0001
1000
,  // measure 116
1002
0000
0013
0100
0020
0000
0031
1000
1002
0000
0103
0010
0200
0000
0301
1000
,  // measure 117
1002
0000
1003
0001
2001
0000
3001
1000
0010
0100
0010
0100
0001
1000
0001
1000
,  // measure 118
240M
0000
00M0
000M
3000
00M0
000M
M000
,  // measure 119
00M0
0000
000M
0000
M340
0000
0M00
0000
000M
0000
0M00
0000
000M
0000
0M00
0030
,  // measure 120
M011
0000
0010
0000
0000
0000
011M
0000
0000
0000
02M0
0000
0000
0000
0310
0001
0M10
0000
0010
0000
0000
0000
011M
0000
0000
0000
M200
0000
0000
0000
1300
0100
,  // measure 121
10M0
0000
1000
0000
0000
0000
1M01
0000
0000
0000
M002
0000
0000
0000
1003
0100
10M0
0000
1000
0000
0000
0000
1M01
0000
0000
0000
0001
0000
02M0
0000
0300
0000
,  // measure 122
0110
0110
1010
10M1
0001
M011
0010
011M
,  // measure 123
0100
0000
11M0
0000
1000
0000
1001
0000
1001
0000
0001
0000
0101
0000
0100
0010
,  // measure 124
1010
0000
1010
0000
1001
0000
1001
0000
0001
0010
0100
1000
0100
0010
0001
1000
,  // measure 125
1001
0000
0001
0000
0100
0000
0010
0000
1000
0010
0100
0000
0010
0100
0001
0100
,  // measure 126
0110
0010
1010
1M10
1000
10M1
0001
M011
,  // measure 127
0010
0000
011M
0000
0100
0000
1100
0000
1100
0000
1001
0000
0001
0000
0100
0010
,  // measure 128
1010
0000
1000
0000
1001
0000
0001
0010
0110
0000
0100
0000
1100
0000
1000
0001
,  // measure 129
0101
0100
0010
1000
1001
0011
1100
1000
,  // measure 130
1001
1001
0101
011M
0010
1M10
1000
10M1
,  // measure 131
0001
0000
M011
0000
0010
0000
0110
0000
0110
0000
0100
0000
1100
0000
1000
0001
,  // measure 132
0101
0000
0101
0000
0110
0000
0010
1000
0001
1000
0100
1000
0001
0100
0010
1000
,  // measure 133
1001
0001
0010
0100
1100
0000
0000
0000
;

//---------------dance-single - Easy----------------
#NOTES:
     dance-single:
     Ace Of Hearts (2011):
     Easy:
     5:
     0.196,0.000,0.000,0.051,0.000: // measure 1
0000
0000
0000
0000
,  // measure 2
0000
0000
0000
0000
,  // measure 3
0000
0000
0000
0000
,  // measure 4
0000
0000
0000
0000
,  // measure 5
0000
0000
0000
0000
,  // measure 6
0000
0001
0001
0000
,  // measure 7
1000
0000
0100
0000
1000
0000
0000
0001
,  // measure 8
0000
0000
0000
0000
,  // measure 9
0000
1000
2000
0000
,  // measure 10
3001
0100
0001
0000
,  // measure 11
1000
0001
1000
0000
,  // measure 12
0001
0010
0001
0000
,  // measure 13
1000
0010
1000
0000
,  // measure 14
0001
1000
0001
0000
,  // measure 15
1000
0100
1000
0000
,  // measure 16
0001
0004
0000
0000
,  // measure 17
0003
0000
0000
0000
,  // measure 18
1000
1000
0010
0000
,  // measure 19
0100
0100
0001
0000
,  // measure 20
1000
1000
0100
0000
,  // measure 21
0010
0010
0001
0000
,  // measure 22
1000
1000
0001
0000
,  // measure 23
0100
0100
0001
0000
,  // measure 24
0000
1000
1000
0000
,  // measure 25
0001
0010
0001
0000
,  // measure 26
1000
0010
1000
0000
,  // measure 27
0001
0100
0001
0000
,  // measure 28
1000
0100
1000
0000
,  // measure 29
0001
0010
0001
0000
,  // measure 30
1000
0001
1000
0000
,  // measure 31
0001
0100
0001
0000
,  // measure 32
1000
4000
0000
0000
,  // measure 33
3000
0000
0000
0000
,  // measure 34
0001
0000
0000
0001
0000
0000
0000
0000
,  // measure 35
1000
0100
1000
0000
,  // measure 36
0100
0000
0000
0100
0000
0000
0000
0000
,  // measure 37
1000
0001
1000
0000
,  // measure 38
0010
0000
0000
0010
0000
0000
0000
0000
,  // measure 39
1000
0000
0010
0000
1000
0000
0000
0002
,  // measure 40
0000
0000
0000
0000
,  // measure 41
0003
0000
0000
0000
,  // measure 42
1000
0000
0000
1000
0000
0000
0000
0001
,  // measure 43
0000
0001
0000
0000
0001
0000
0000
0000
,  // measure 44
0010
0000
0010
0000
,  // measure 45
0001
1000
0001
0000
,  // measure 46
0010
0000
0000
0010
0000
0000
0000
0100
,  // measure 47
0000
0100
0000
0000
0100
0000
0000
0000
,  // measure 48
1000
0000
1000
0000
,  // measure 49
0001
1000
0001
0000
,  // measure 50
1000
0000
0000
1000
0000
0000
0000
0010
,  // measure 51
0000
0010
0000
0000
0010
0000
0000
0000
,  // measure 52
0100
0000
0100
0000
,  // measure 53
0001
0100
0001
0000
,  // measure 54
0100
0000
0000
0100
0000
0000
0000
0010
,  // measure 55
0000
0010
0000
0000
0010
0000
0000
0000
,  // measure 56
1000
0000
1000
0000
,  // measure 57
0001
0100
0001
0000
,  // measure 58
1000
0001
1000
0000
,  // measure 59
0010
1000
0010
0000
,  // measure 60
1000
0001
1000
0000
,  // measure 61
0001
0010
0001
0000
,  // measure 62
0010
0100
0010
0000
,  // measure 63
0001
0010
0001
0000
,  // measure 64
0010
0040
0000
0000
,  // measure 65
0030
0000
0000
0000
,  // measure 66
0001
0001
1000
0000
,  // measure 67
0100
0100
0010
0000
,  // measure 68
0100
0100
1000
0000
,  // measure 69
0001
0001
0100
0000
,  // measure 70
0010
0010
0100
0000
,  // measure 71
0001
0001
1000
0000
,  // measure 72
0000
0100
0100
0000
,  // measure 73
0010
0010
0001
0000
,  // measure 74
1000
0010
1000
0000
,  // measure 75
0010
0100
0010
0000
,  // measure 76
1000
0001
1000
0000
,  // measure 77
0001
0010
0001
0000
,  // measure 78
0010
0100
0010
0000
,  // measure 79
0001
1000
0001
0000
,  // measure 80
0100
0400
0000
0000
,  // measure 81
0300
0000
0000
0000
,  // measure 82
0010
0000
0000
0010
0000
0000
0000
0000
,  // measure 83
1000
0001
1000
0000
,  // measure 84
0001
0000
0000
0001
0000
0000
0000
0000
,  // measure 85
0010
0001
0010
0000
,  // measure 86
0100
0000
0000
0100
0000
0000
0000
0000
,  // measure 87
1000
0000
0100
0000
1000
0000
0000
2000
,  // measure 88
0000
0000
0000
0000
,  // measure 89
3000
0000
0000
0000
,  // measure 90
0001
0000
0000
0001
0000
0000
0000
0100
,  // measure 91
0000
0100
0000
0000
0100
0000
0000
0000
,  // measure 92
0010
0000
0010
0000
,  // measure 93
1000
0010
1000
0000
,  // measure 94
0001
0000
0000
0001
0000
0000
0000
0010
,  // measure 95
0000
0010
0000
0000
0010
0000
0000
0000
,  // measure 96
0100
0000
0100
0000
,  // measure 97
1000
0001
1000
0000
,  // measure 98
0001
0000
0000
0001
0000
0000
0000
0100
,  // measure 99
0000
0100
0000
0000
0100
0000
0000
0000
,  // measure 100
0010
0000
0010
0000
,  // measure 101
0100
0001
0100
0000
,  // measure 102
0001
0000
0000
0001
0000
0000
0000
1000
,  // measure 103
0000
1000
0000
0000
1000
0000
0000
0000
,  // measure 104
0100
0000
0100
0000
,  // measure 105
0010
0001
0010
0000
,  // measure 106
0001
0000
0000
0001
0000
0000
0000
1000
,  // measure 107
0000
0000
0000
0000
1000
0000
0000
0200
,  // measure 108
0000
0000
0000
0300
0000
0000
0000
0020
,  // measure 109
0000
0000
0000
0030
0000
0000
0000
0002
,  // measure 110
0000
0000
0000
0003
0000
0000
0000
1000
,  // measure 111
0000
0000
0001
0000
0001
0000
0000
0200
,  // measure 112
0000
0300
0001
1000
,  // measure 113
0004
0000
0000
0003
,  // measure 114
2000
0000
3000
0010
,  // measure 115
0020
0000
0030
0100
,  // measure 116
0200
0000
0302
0000
,  // measure 117
1003
1000
0010
0010
,  // measure 118
0400
0000
0000
0000
,  // measure 119
0300
0000
0000
0000
,  // measure 120
0001
0001
0010
0010
,  // measure 121
0001
0001
2000
3000
,  // measure 122
0010
0000
0000
0010
0000
0000
0000
1000
,  // measure 123
0000
1000
0000
0000
1000
0000
0000
0000
,  // measure 124
0001
0000
0001
0000
,  // measure 125
1000
0100
1000
0000
,  // measure 126
0001
0000
0000
0001
0000
0000
0000
0100
,  // measure 127
0000
0100
0000
0000
0100
0000
0000
0000
,  // measure 128
0010
0000
0010
0000
,  // measure 129
0100
0001
0100
0000
,  // measure 130
0010
0000
0000
0010
0000
0000
0000
1000
,  // measure 131
0000
1000
0000
0000
1000
0000
0000
0000
,  // measure 132
0001
0000
0001
0000
,  // measure 133
0010
0100
1000
0000
;

//---------------dance-single - Novice----------------
#NOTES:
     dance-single:
     Ace Of Hearts (2011):
     Beginner:
     1:
     0.091,0.000,0.000,0.094,0.000: // measure 1
0000
0000
0000
0000
,  // measure 2
0000
0000
0000
0000
,  // measure 3
0000
0000
0000
0000
,  // measure 4
0000
0000
0000
0000
,  // measure 5
0000
0000
0000
0000
,  // measure 6
0000
0000
0000
0000
,  // measure 7
0000
0000
0000
0000
,  // measure 8
0000
0000
0000
0000
,  // measure 9
0000
0000
0000
0000
,  // measure 10
0001
0000
0000
0000
,  // measure 11
0001
0000
0000
0000
,  // measure 12
0100
0000
0000
0000
,  // measure 13
0100
0000
0000
0000
,  // measure 14
0001
0000
0000
0000
,  // measure 15
0001
0000
0000
0000
,  // measure 16
2000
0000
0000
0000
,  // measure 17
3000
0000
0000
0000
,  // measure 18
0010
0000
0000
0000
,  // measure 19
0010
0000
0000
0000
,  // measure 20
0100
0000
0000
0000
,  // measure 21
0100
0000
0000
0000
,  // measure 22
0001
0000
0000
0000
,  // measure 23
0001
0000
0000
0000
,  // measure 24
1000
0000
0000
0000
,  // measure 25
1000
0000
0000
0000
,  // measure 26
0010
0000
0000
0000
,  // measure 27
0010
0000
0000
0000
,  // measure 28
0100
0000
0000
0000
,  // measure 29
0100
0000
0000
0000
,  // measure 30
0001
0000
0000
0000
,  // measure 31
0001
0000
0000
0000
,  // measure 32
0020
0000
0000
0000
,  // measure 33
0030
0000
0000
0000
,  // measure 34
0001
0000
0000
0000
,  // measure 35
0001
0000
0000
0000
,  // measure 36
1000
0000
0000
0000
,  // measure 37
1000
0000
0000
0000
,  // measure 38
0010
0000
0000
0000
,  // measure 39
0010
0000
0000
0000
,  // measure 40
0200
0000
0000
0000
,  // measure 41
0300
0000
0000
0000
,  // measure 42
0001
0000
0000
0000
,  // measure 43
0001
0000
0000
0000
,  // measure 44
1000
0000
1000
0000
,  // measure 45
2000
0000
3000
0000
,  // measure 46
0010
0000
0000
0000
,  // measure 47
0010
0000
0000
0000
,  // measure 48
0100
0000
0100
0000
,  // measure 49
0200
0000
0300
0000
,  // measure 50
0001
0000
0000
0000
,  // measure 51
0001
0000
0000
0000
,  // measure 52
1000
0000
1000
0000
,  // measure 53
2000
0000
3000
0000
,  // measure 54
0100
0000
0000
0000
,  // measure 55
0100
0000
0000
0000
,  // measure 56
0010
0000
0010
0000
,  // measure 57
0020
0000
0030
0000
,  // measure 58
0001
0000
0000
0000
,  // measure 59
0001
0000
0000
0000
,  // measure 60
1000
0000
0000
0000
,  // measure 61
1000
0000
0000
0000
,  // measure 62
0100
0000
0000
0000
,  // measure 63
0100
0000
0000
0000
,  // measure 64
0020
0000
0000
0000
,  // measure 65
0030
0000
0000
0000
,  // measure 66
0001
0000
0000
0000
,  // measure 67
0001
0000
0000
0000
,  // measure 68
0100
0000
0000
0000
,  // measure 69
0100
0000
0000
0000
,  // measure 70
0010
0000
0000
0000
,  // measure 71
0010
0000
0000
0000
,  // measure 72
0100
0000
0000
0000
,  // measure 73
0100
0000
0000
0000
,  // measure 74
0001
0000
0000
0000
,  // measure 75
0001
0000
0000
0000
,  // measure 76
1000
0000
0000
0000
,  // measure 77
1000
0000
0000
0000
,  // measure 78
0100
0000
0000
0000
,  // measure 79
0100
0000
0000
0000
,  // measure 80
2000
0000
0000
0000
,  // measure 81
3000
0000
0000
0000
,  // measure 82
0001
0000
0000
0000
,  // measure 83
0001
0000
0000
0000
,  // measure 84
1000
0000
0000
0000
,  // measure 85
1000
0000
0000
0000
,  // measure 86
0100
0000
0000
0000
,  // measure 87
0100
0000
0000
0000
,  // measure 88
0020
0000
0000
0000
,  // measure 89
0030
0000
0000
0000
,  // measure 90
0001
0000
0000
0000
,  // measure 91
0001
0000
0000
0000
,  // measure 92
0010
0000
0010
0000
,  // measure 93
0020
0000
0030
0000
,  // measure 94
0100
0000
0000
0000
,  // measure 95
0100
0000
0000
0000
,  // measure 96
1000
0000
1000
0000
,  // measure 97
2000
0000
3000
0000
,  // measure 98
0100
0000
0000
0000
,  // measure 99
0100
0000
0000
0000
,  // measure 100
0010
0000
0010
0000
,  // measure 101
0020
0000
0030
0000
,  // measure 102
0001
0000
0000
0000
,  // measure 103
0001
0000
0000
0000
,  // measure 104
0100
0000
0100
0000
,  // measure 105
0200
0000
0300
0000
,  // measure 106
0020
0000
0000
0000
,  // measure 107
0030
0000
0000
0000
,  // measure 108
2000
0000
0000
0000
,  // measure 109
3000
0000
0000
0000
,  // measure 110
0002
0000
0000
0000
,  // measure 111
0003
0000
0000
0000
,  // measure 112
0020
0000
0000
0000
,  // measure 113
0030
0000
0000
0000
,  // measure 114
0001
0000
0000
0000
,  // measure 115
0001
0000
0000
0000
,  // measure 116
2000
0000
3000
0000
,  // measure 117
0200
0000
0300
0000
,  // measure 118
0400
0000
0000
0000
,  // measure 119
0300
0000
0000
0000
,  // measure 120
1000
0000
1000
0000
,  // measure 121
0001
0001
0001
0000
,  // measure 122
0010
0000
0000
0000
,  // measure 123
0010
0000
0000
0000
,  // measure 124
0001
0000
0001
0000
,  // measure 125
0002
0000
0003
0000
,  // measure 126
1000
0000
0000
0000
,  // measure 127
1000
0000
0000
0000
,  // measure 128
0001
0000
0001
0000
,  // measure 129
0001
0000
0000
0000
,  // measure 130
0010
0000
0000
0000
,  // measure 131
0010
0000
0000
0000
,  // measure 132
0100
0000
0100
0000
,  // measure 133
0200
0000
0300
0000
;
