#TITLE:Spring of Dreams;
#SUBTITLE:;
#ARTIST:3L;
#TITLETRANSLIT:;
#SUBTITLETRANSLIT:;
#ARTISTTRANSLIT:;
#GENRE:Engrish Pop;
#CREDIT:Ace Of Hearts;
#BANNER:Spring of Dreams - bn.png;
#BACKGROUND:Spring of Dreams - bg.png;
#LYRICSPATH:;
#CDTITLE:Ace Of Hearts.png;
#MUSIC:Spring of Dreams.ogg;
#OFFSET:1.780;
#SAMPLESTART:76.700;
#SAMPLELENGTH:12.000;
#SELECTABLE:YES;
#BPMS:0.000=85.000,32.000=80.000,33.000=65.000,36.500=153.000,329.000=76.500,345.000=153.000,409.000=76.500,417.000=153.000,465.000=76.500,481.000=153.000,609.000=76.500;
#STOPS:;
#BGCHANGES:2.000=Spring of Dreams Video.avi=1.000=1=0=0=StretchNoLoop==CrossFade==,
99999=-nosongbg-=1.000=0=0=0 // don't automatically add -songbackground-
;
#KEYSOUNDS:;

//---------------dance-single - Lunatic----------------
#NOTES:
     dance-single:
     Ace Of Hearts (2011):
     Challenge:
     11:
     0.771,0.000,0.135,1.000,0.674: // measure 1
0000
0000
0000
0000
,  // measure 2
0000
0000
0000
0000
,  // measure 3
0000
0000
0000
0000
,  // measure 4
0000
0000
0000
0000
,  // measure 5
0000
0000
0000
0000
,  // measure 6
0000
0000
0000
0000
,  // measure 7
0000
0000
0000
0000
,  // measure 8
0000
0000
0000
0000
,  // measure 9
0000
0000
0000
0000
,  // measure 10
0000
0000
0000
0000
0000
0000
0000
0000
0000
0000
0000
0000
0001
0010
0001
0010
,  // measure 11
0100
1000
0100
1000
0002
0000
0203
0000
0320
0000
0130
0002
0000
2003
0000
3100
,  // measure 12
0020
0000
0032
0000
2003
0000
3010
0200
0000
0301
0000
0020
0000
0230
0000
0310
,  // measure 13
0001
0010
0100
0010
0002
0000
2003
0000
3020
0000
0130
0002
0000
2003
0000
3100
,  // measure 14
0020
0000
0032
0000
2003
0000
3100
0020
0000
0230
0000
2300
0000
3002
0000
1003
,  // measure 15
0001
0100
0001
1000
0200
0000
0320
0000
0032
0000
1003
0100
0000
0100
0020
0000
,  // measure 16
0032
0000
2003
0000
3010
0000
0100
0001
0100
0000
0010
0000
1000
0001
1000
0001
,  // measure 17
0200
0000
0320
0000
2030
0000
3001
0010
0000
0001
1000
0000
0010
1000
0000
0001
,  // measure 18
0100
0001
2000
0000
3004
0000
0000
0000
0000
0000
0000
0000
1003
0100
1000
0100
,  // measure 19
0010
0001
0010
0001
1000
0000
0010
0000
0100
0000
0010
0000
1000
0000
0001
0000
,  // measure 20
0010
0000
0100
0000
2000
0000
0000
0010
0000
0000
3001
0000
0101
0000
0000
0000
,  // measure 21
0100
0000
0010
0000
1000
0000
0001
0200
0000
0000
0310
0000
1000
0000
0001
0000
,  // measure 22
0010
0000
0200
0000
0000
0000
1300
0000
0001
0000
0100
0000
0010
1000
0010
1000
,  // measure 23
0001
0100
0001
0100
0020
0000
0000
0000
0000
0000
0000
0000
0030
0000
1000
0000
,  // measure 24
0001
0000
0010
0000
0200
0000
0000
1000
0000
0000
0310
0000
0011
0000
0000
0000
,  // measure 25
0001
0000
0100
0000
0120
0000
0000
1000
0000
0000
0130
0000
0101
0000
0001
0000
,  // measure 26
2000
0000
0020
0000
0000
0000
0000
0000
3030
0000
0010
0000
0100
0000
0001
1000
,  // measure 27
0001
0010
0001
0010
0001
0000
1000
0000
0100
0000
0010
0000
0100
0000
1000
0000
,  // measure 28
0001
0000
0100
0000
0002
0000
0000
0010
0000
0000
1003
0000
1010
0000
0000
0000
,  // measure 29
0010
0000
0100
0000
0002
0000
1003
0100
0000
0000
0010
0000
0100
0000
1000
0000
,  // measure 30
0001
0200
0000
0310
0100
0001
1000
0000
,  // measure 31
0010
1000
0200
0000
0000
0000
0300
1000
,  // measure 32
0001
0000
0100
0000
0020
0000
0000
1000
0000
0000
0130
0000
0101
0000
0000
0000
,  // measure 33
0001
0000
1000
0000
0200
0000
0000
0310
0000
0000
0001
0000
1000
0000
0100
0000
,  // measure 34
1000
0000
0002
0000
0000
0000
0000
0000
0000
0000
0000
0000
1003
0010
1000
0010
,  // measure 35
0100
0001
0100
0001
1000
0000
0001
0000
0100
0000
0010
0000
0000
0000
0010
0000
,  // measure 36
1000
0001
0000
0001
0100
0010
0100
0001
,  // measure 37
0200
0000
0300
0010
1000
0001
0000
0001
,  // measure 38
0010
0100
0000
0100
1000
0001
0100
0010
,  // measure 39
1000
0000
0001
0100
0001
0000
1000
0000
1100
0000
0100
0000
0000
0000
0100
0000
,  // measure 40
0110
0010
0000
0010
0001
1000
0001
1000
,  // measure 41
0200
0000
0300
0010
0011
0001
0000
0001
,  // measure 42
1001
0000
1000
0000
0000
0000
1000
0000
0010
0000
1000
0000
0001
0100
0001
0100
,  // measure 43
0010
1000
0010
1000
0002
0000
0000
0000
0000
0000
1003
0000
0200
0000
0000
0010
,  // measure 44
0000
0000
1300
0000
0002
0000
0000
0100
0000
0000
1003
0000
0200
0000
0000
0000
,  // measure 45
0300
0000
0010
0000
0200
0000
0000
1000
0000
0000
0310
0000
0012
0000
0000
1000
,  // measure 46
0000
0000
0013
0000
0210
0000
0000
0000
0000
0000
1300
0000
1000
0001
1000
0001
,  // measure 47
0100
0001
0100
0001
2000
0000
0000
0000
0000
0000
3010
0000
0200
0000
0000
0302
,  // measure 48
0000
0000
1003
0000
0200
0000
0000
0320
0000
0000
0130
0000
2000
0000
0000
0000
,  // measure 49
3000
0000
0001
0000
0200
0000
0000
0010
0000
0000
0301
0000
2000
0000
0000
0100
,  // measure 50
0000
3001
0020
0000
0000
0000
0031
1000
,  // measure 51
0010
0100
0010
0100
0002
0000
0000
0000
0000
0000
1003
0000
0200
0000
0000
0320
,  // measure 52
0000
0000
0130
0000
2000
0000
0000
3002
0000
0000
0013
0000
0200
0000
0300
0000
,  // measure 53
0000
0000
0010
0000
0002
0000
0000
2003
0000
0000
3010
0000
0200
0000
0000
0320
,  // measure 54
0000
0000
1030
0000
0002
0000
0000
0000
0000
0000
0013
0000
0010
0100
0010
0100
,  // measure 55
1000
0100
1000
0100
0020
0000
0000
0000
0000
0000
0130
0000
2000
0000
0000
3001
,  // measure 56
0000
0000
0010
0000
0200
0000
0000
0320
0000
0000
0031
0000
2000
0000
0000
0000
,  // measure 57
3000
0000
0010
0000
0200
0000
0000
0010
0000
0000
0301
0000
2000
0000
0000
0100
,  // measure 58
0000
3001
0022
0000
0000
0033
0010
0100
,  // measure 59
1000
0001
1000
0001
0200
0000
0320
0000
2030
0000
3001
0010
0000
0100
0000
0010
,  // measure 60
0002
0000
2003
0000
3020
0000
0130
0001
0000
2000
0000
3100
0000
0020
0000
0130
,  // measure 61
1000
0001
1000
0001
1000
0010
2000
0000
3002
0000
0103
0020
0000
2030
0000
3001
,  // measure 62
0020
0000
0230
0000
2300
0000
3001
0200
0000
0320
0000
2030
0000
3002
0000
0013
,  // measure 63
0001
1000
0001
0010
0200
0000
0320
0000
0032
0000
1003
0100
0000
0100
2000
0000
,  // measure 64
3002
0000
2003
0000
3020
0000
0230
0000
0301
0000
1000
0001
0000
1000
0020
0000
,  // measure 65
0230
0000
0302
0000
2003
0000
3100
0010
0000
0001
1000
0000
0001
0100
0000
0010
,  // measure 66
0100
0010
2000
0000
3040
0000
0000
0000
0000
0000
0000
0000
1030
0001
1000
0001
,  // measure 67
0100
0001
0100
0001
1000
0000
0100
0000
0010
0000
0001
0000
0010
0000
0100
0000
,  // measure 68
1000
0000
0001
0000
0200
0000
0000
0010
0000
0000
0301
0000
1001
0000
0000
0000
,  // measure 69
1000
0000
0100
0000
0020
0000
0130
2000
0000
0000
3001
0000
0100
0000
0010
0000
,  // measure 70
1000
0000
0002
0000
0000
0000
0013
0000
1000
0000
0010
0000
0001
0010
0001
0010
,  // measure 71
0100
1000
0100
1000
0001
0000
0100
0000
0010
0000
0100
0000
0001
0000
1000
0000
,  // measure 72
0100
0000
0010
0000
0200
0000
0000
0010
0000
0000
1300
0000
1001
0000
0000
0000
,  // measure 73
0001
0000
0100
0000
0020
0000
0000
0130
0000
0000
0001
0000
0100
0000
1000
0000
,  // measure 74
0200
0000
0002
0000
0000
0000
0000
0000
0303
0000
0001
0000
1000
0000
0010
1000
,  // measure 75
0010
0100
0010
0100
0001
0000
1000
0000
0100
0000
0010
0000
0100
0000
1000
0000
,  // measure 76
0001
0000
0100
0000
0002
0000
0000
0010
0000
0000
1003
0000
1100
0000
0000
0000
,  // measure 77
0100
0000
0010
0000
0001
0000
1000
0020
0000
0000
0130
0000
0001
0000
1000
0000
,  // measure 78
0100
2000
0000
3001
0010
1000
0010
0000
,  // measure 79
0001
1000
0020
0000
0000
0030
0000
1000
,  // measure 80
0001
0000
0010
0000
0200
0000
0000
1000
0000
0000
0310
0000
0011
0000
0000
0000
,  // measure 81
0001
0000
1000
0000
0002
0000
0000
0013
0000
0000
0100
0000
0001
0000
0100
0000
,  // measure 82
2000
0000
0002
0000
0000
0000
0000
0000
0000
0000
3003
0000
0001
0010
0001
0010
,  // measure 83
0100
1000
0100
1000
0002
1003
0100
0010
0000
0010
0100
1000
0000
1000
0100
0010
,  // measure 84
0001
0010
0200
0000
0300
0010
0001
1000
0000
1000
0001
0010
0000
0010
0001
0010
,  // measure 85
0100
1000
0002
0000
0003
1000
1010
0010
0000
0010
0110
0100
0000
0100
0001
1000
,  // measure 86
0001
0100
0020
0000
0030
0100
0101
0001
0000
0001
1001
1000
0000
0100
0010
0001
,  // measure 87
1000
0100
1000
0100
0010
0001
0010
0001
2000
0000
0000
0000
0000
0000
0000
0000
0000
0000
0000
0000
3010
0000
0000
0000
0200
0000
0000
0000
0000
0000
0001
0000
,  // measure 88
0000
0000
0310
0000
2000
0000
0000
0100
0000
0000
3001
0000
0201
0000
0000
0000
,  // measure 89
0300
0000
0010
0000
2010
0000
0000
0001
0000
0000
3100
0000
0120
0000
0000
0001
,  // measure 90
0000
0000
0130
0000
2100
0000
0000
0000
0000
0000
3001
0000
0001
0100
0001
0100
,  // measure 91
0010
0100
0010
0100
0002
0000
0000
0000
0000
0000
1003
0000
0200
0000
0000
0010
,  // measure 92
0000
0000
1300
0000
0002
0000
0000
0203
0000
0000
0310
0000
2000
0000
0000
0000
,  // measure 93
3000
0000
0001
0000
0021
0000
0000
0100
0000
0000
0031
0000
2001
0000
0000
0010
,  // measure 94
0000
3001
0202
0000
0000
0303
0001
1000
,  // measure 95
0100
0010
0100
0010
0002
0000
0000
0000
0000
0000
2003
0000
0020
0000
3000
0002
,  // measure 96
0000
0030
2000
0003
0200
0000
3000
0020
0000
0300
2000
0030
0002
0000
3000
0000
,  // measure 97
0003
0000
0010
0000
0200
0000
0000
2300
0000
0000
3001
0000
0200
0000
0000
0320
,  // measure 98
0000
0000
1030
0000
0002
0000
0000
0000
0000
0000
1003
0000
1000
0010
1000
0010
,  // measure 99
0100
0001
0100
0001
2000
0000
0000
0000
0000
0000
0200
3000
0020
0300
0000
2000
,  // measure 100
0000
0030
3002
0000
0200
0000
0003
0020
0000
0300
0002
0030
2000
0000
0003
0000
,  // measure 101
3000
0000
0010
0000
0200
0000
0000
0302
0000
0000
1003
0000
0200
0000
0000
0320
,  // measure 102
0000
0130
2200
0000
0000
3300
0100
0010
,  // measure 103
0001
1000
0001
0100
0040
0000
0000
0000
0000
0000
0000
0000
4030
0000
0000
0000
,  // measure 104
0000
0000
3400
0000
0320
0031
4000
0000
,  // measure 105
0000
0000
0000
0000
3002
0000
0000
0000
0000
0000
0000
0000
0203
0000
0000
0320
,  // measure 106
0000
2030
3004
0000
0000
0000
4003
0000
,  // measure 107
0000
0000
0000
0000
3020
0000
0000
2030
0000
0000
3001
0000
0200
0000
0000
0000
,  // measure 108
0300
0000
0000
0000
0220
0000
0000
0000
0330
0000
0010
0000
0010
1000
0010
1000
,  // measure 109
0001
0100
0001
0100
0020
0000
2030
0000
3002
0000
0013
0200
0000
2300
0000
3001
,  // measure 110
0200
0000
0320
0000
0230
0000
0301
2000
0000
3200
0000
0320
0000
0032
0000
1003
,  // measure 111
0010
0100
0010
1000
0001
0010
0002
0000
2003
0000
3010
0200
0000
0320
0000
1030
,  // measure 112
0002
0000
0203
0000
0320
0000
1030
0001
0000
0200
0000
0320
0000
2030
0000
3001
,  // measure 113
0010
0100
0010
0001
2000
0000
3200
0000
0320
0000
0130
1000
0000
1000
0002
0000
,  // measure 114
0023
0000
0031
0000
2000
0000
3010
0100
0010
0000
2000
0000
3001
0100
0002
0000
,  // measure 115
1003
0000
0100
0000
0020
0000
0130
1000
0000
0001
1000
0000
0001
0010
0000
0001
,  // measure 116
1000
0001
1000
0000
0400
0000
0000
0000
0000
0000
0000
0000
0310
0001
0010
0001
,  // measure 117
1000
0100
1000
0100
0020
0031
0010
0100
0000
0010
0100
1000
0000
0100
0010
0001
,  // measure 118
0010
0100
2000
0000
3000
0001
0100
0010
0000
0100
0010
1000
0000
0010
0100
0001
,  // measure 119
0100
0010
2000
0000
3000
0001
1001
1000
0000
1000
1010
0010
0000
0100
0010
1000
,  // measure 120
0010
0100
0002
0000
0003
1000
1100
0100
0000
0100
0110
0010
0000
0010
0001
1000
,  // measure 121
0001
0010
0100
1000
0001
0010
0100
1000
0002
0000
0000
0000
0000
0000
0000
0000
0000
0000
0000
0000
2003
0000
0000
0000
0020
0000
0000
0000
3000
0000
0002
0000
,  // measure 122
0000
0030
2000
0003
0200
0000
3000
0020
0000
0300
2030
0000
0002
0000
3000
0000
,  // measure 123
0003
0000
0010
0000
0200
0000
0000
0010
0000
0000
1300
0000
0002
0000
0000
0100
,  // measure 124
0000
0000
1003
0000
0020
0000
0000
0000
0000
0000
0130
0000
0100
0001
0100
0001
,  // measure 125
1000
0100
1000
0100
0020
0000
0000
0000
0000
0000
2000
0030
0002
3000
0000
0200
,  // measure 126
0003
0000
0020
0300
0002
0030
0000
2000
0000
0003
0020
3000
0200
0000
0030
0000
,  // measure 127
0300
0000
0001
0000
2001
0000
0000
0010
0000
0000
3001
0000
0021
0000
0000
0100
,  // measure 128
0000
0031
2002
0000
0000
3003
1000
0010
,  // measure 129
0100
0001
0100
0010
2000
0000
0000
0000
0000
0000
0010
0000
0001
0000
0000
0010
,  // measure 130
0000
0000
0001
0000
0100
0000
0000
0001
0000
0000
0010
0000
3001
0000
0000
0000
,  // measure 131
0000
0000
0001
0000
0020
0000
0000
0230
0000
0000
1300
0000
0002
0000
0000
0203
,  // measure 132
0000
0000
0310
0000
2000
0000
0000
0000
0000
0000
3010
0000
0010
0100
0001
0100
,  // measure 133
0001
1000
0100
1000
0002
0000
0000
0000
0000
0000
0010
0000
1000
0000
0000
0100
,  // measure 134
0000
0000
1000
0000
0100
0000
0000
0010
0000
0000
0100
0000
1003
0000
0000
0000
,  // measure 135
0000
0000
1000
0000
0020
0000
0000
0130
0000
0000
0001
0000
2000
0000
0000
3010
,  // measure 136
0000
1000
2002
0000
0000
3003
0001
0010
,  // measure 137
0001
1000
0001
1000
0002
0000
0203
0000
0320
0000
1030
0002
0000
0023
0000
0130
,  // measure 138
2000
0000
3002
0000
0023
0000
0031
2000
0000
3020
0000
0230
0000
0301
0000
1000
,  // measure 139
0100
1000
0001
0100
0001
1000
0002
0000
0023
0000
0130
2000
0000
3002
0000
0103
,  // measure 140
0020
0000
0230
0000
0302
0000
1003
0020
0000
0230
0000
0302
0000
2003
0000
3100
,  // measure 141
0010
0100
1000
0001
0200
0000
0320
0000
2030
0000
3001
0100
0000
0100
0020
0000
,  // measure 142
2030
0000
3002
0000
0023
0000
0130
1000
0200
0000
0310
0000
0001
1000
0002
0000
,  // measure 143
2003
0000
3200
0000
0320
0000
0130
1000
0000
0001
0100
0000
0001
1000
0000
0001
,  // measure 144
0010
0001
2000
0000
3040
0000
0000
0000
0000
0000
0000
0000
1030
0001
1000
0001
,  // measure 145
0010
0100
1000
0100
0020
0000
0032
0000
2003
0000
3010
0200
0000
0302
0000
1003
,  // measure 146
0200
0000
0320
0000
0230
0000
1300
0002
0000
0203
0000
0320
0000
2030
0000
3001
,  // measure 147
0100
0001
1000
0001
0010
0100
0020
0000
0032
0000
1003
0020
0000
0230
0000
0301
,  // measure 148
2000
0000
3200
0000
0320
0000
0130
2000
0000
3002
0000
0203
0000
0320
0000
0130
,  // measure 149
0001
1000
0001
0100
0020
0000
2030
0000
3002
0000
0013
0100
0000
0100
2000
0000
,  // measure 150
3002
0000
0203
0000
0320
0000
1030
0001
2000
0000
3100
0000
0010
0100
0020
0000
,  // measure 151
0031
0000
2000
0000
3002
0000
0103
0010
0000
1000
0010
0000
0100
0010
0000
1000
,  // measure 152
0001
1000
0020
0000
4030
0000
0000
0000
0000
0000
0000
0000
3001
0010
0100
1000
,  // measure 153
0100
0010
0001
1000
0002
0000
0000
0000
0003
0000
0000
0000
0020
0000
0000
0000
,  // measure 154
0030
0200
0320
0032
,  // measure 155
0003
2000
3000
0200
,  // measure 156
0300
2000
3000
0002
,  // measure 157
1003
0100
1000
0100
0010
0001
0010
0200
0000
0000
0000
0000
0000
0000
0000
0000
0000
0000
0300
0000
0000
0000
0000
0000
0000
0000
0000
0000
0000
0000
0000
0000
;

//---------------dance-single - Hard----------------
#NOTES:
     dance-single:
     Ace Of Hearts (2011):
     Hard:
     9:
     0.640,0.000,0.117,1.000,0.340: // measure 1
0000
0000
0000
0000
,  // measure 2
0000
0000
0000
0000
,  // measure 3
0000
0000
0000
0000
,  // measure 4
0000
0000
0000
0000
,  // measure 5
0000
0000
0000
0000
,  // measure 6
0000
0000
0000
0000
,  // measure 7
0000
0000
0000
0000
,  // measure 8
0000
0000
0000
0000
,  // measure 9
0000
0000
0000
0000
,  // measure 10
0000
0000
0000
0000
,  // measure 11
0000
0000
0000
0000
2000
0000
3200
0000
0320
0000
0031
0020
0000
0230
0000
0310
,  // measure 12
0002
2003
3010
1000
0001
0010
0001
1000
,  // measure 13
0010
0000
0100
0000
0002
0000
2003
0000
3020
0000
0130
0002
0000
2003
0000
3010
,  // measure 14
0200
0000
0302
0000
2003
0000
3100
0020
0000
0230
0000
2300
0000
3002
0000
1003
,  // measure 15
0010
0000
0100
0000
0020
0000
2030
0000
3002
0000
0013
0100
0000
0100
0020
0000
,  // measure 16
0032
2003
3010
0100
0001
0100
0010
1000
,  // measure 17
0001
0000
0010
0000
0200
0000
0000
2300
0000
0000
3002
0000
0000
0023
0000
0000
,  // measure 18
0031
1000
0040
0000
0000
0000
2030
0000
,  // measure 19
3002
0000
0023
0000
0000
0000
0000
0030
,  // measure 20
0001
0000
1000
0000
0200
0000
0000
0320
0000
0000
0031
0000
1000
0000
0000
0000
,  // measure 21
0010
0000
0100
0000
0002
0000
1003
0020
0000
0000
1030
0000
0001
0000
0010
0000
,  // measure 22
0100
2000
0000
3001
0100
0001
1000
0000
,  // measure 23
0001
1000
0200
0000
0000
0000
0300
0010
,  // measure 24
0100
0000
1000
0000
0002
0000
0000
0203
0000
0000
0310
0000
1000
0000
0000
0000
,  // measure 25
0001
0000
0010
0000
0200
0000
0000
0310
0000
0000
0001
0000
1000
0000
0001
0000
,  // measure 26
2000
0020
0000
0000
3000
0000
0230
0000
,  // measure 27
0302
0000
2003
0000
0000
0000
0000
3000
,  // measure 28
0001
0000
0010
0000
0002
0000
0000
2003
0000
0000
3010
0000
0100
0000
0000
0000
,  // measure 29
0010
0000
0100
0000
0002
0000
1003
0100
0000
0000
0010
0000
0100
0000
1000
0000
,  // measure 30
0001
0200
0000
0310
1000
0001
0010
0000
,  // measure 31
0001
1000
0200
0000
0000
0000
0300
1000
,  // measure 32
0001
0000
0100
0000
0020
0000
0000
0230
0000
0000
0301
0000
1000
0000
0000
0000
,  // measure 33
0001
0000
0010
0000
0200
0000
0000
0320
0000
0000
0031
0000
1000
0000
0010
0000
,  // measure 34
0200
0002
0000
0000
0000
0000
0000
0000
,  // measure 35
0303
0000
0000
0001
0100
0010
0000
0100
,  // measure 36
0001
1000
0000
0100
0010
0001
0010
0100
,  // measure 37
2000
0000
3000
0001
0010
0100
0000
0010
,  // measure 38
0001
1000
0000
0010
1000
0001
1000
0001
,  // measure 39
0020
0000
0030
0001
1000
1010
0000
0010
,  // measure 40
0100
0101
0000
0001
1000
0100
0010
0100
,  // measure 41
2000
0000
3000
0001
0100
0110
0000
0010
,  // measure 42
1000
1001
0000
0001
0010
0100
0010
0001
,  // measure 43
2000
0000
3000
0000
1020
0000
0000
0000
0000
0000
0130
0000
0002
0000
0000
2003
,  // measure 44
0000
0000
3100
0000
0020
0000
0000
0230
0000
0000
1300
0000
0002
0000
0000
0000
,  // measure 45
0003
0000
1000
0000
0020
0000
0000
0230
0000
0000
0310
0000
2000
0000
0000
3002
,  // measure 46
0000
0013
0200
0000
0000
0310
0020
0000
,  // measure 47
0000
0000
0030
0000
0012
0000
0000
0000
0000
0000
1003
0000
0020
0000
0000
0230
,  // measure 48
0000
0000
0310
0000
2000
0000
0000
3002
0000
0000
0013
0000
0200
0000
0000
0000
,  // measure 49
0300
0000
1000
0000
0002
0000
0000
0203
0000
0000
0310
0000
2000
0000
0000
3002
,  // measure 50
0000
2003
0020
0000
0000
0000
0000
0000
,  // measure 51
3030
0000
0000
0000
0210
0000
0000
0000
0000
0000
0301
0000
2000
0000
0000
3020
,  // measure 52
0000
0000
0130
0000
0002
0000
0000
2003
0000
0000
3100
0000
0020
0000
0000
0000
,  // measure 53
0030
0000
0100
0000
2000
0000
0000
3002
0000
0000
0103
0000
0020
0000
0000
0230
,  // measure 54
0000
0301
2000
0000
0000
3100
0200
0000
,  // measure 55
0000
0000
0300
0000
0120
0000
0000
0000
0000
0000
0031
0000
2000
0000
0000
3002
,  // measure 56
0000
0000
0103
0000
0020
0000
0000
2030
0000
0000
3001
0000
0200
0000
0000
0000
,  // measure 57
0300
0000
0010
0000
0200
0000
0000
0302
0000
0000
1003
0000
0200
0000
0000
0320
,  // measure 58
0000
0230
2000
0000
0000
0000
0000
0000
,  // measure 59
3300
0000
0000
0000
2000
0000
3002
0000
0023
0000
0031
2000
0000
3020
0000
0130
,  // measure 60
0002
2003
3100
0010
0100
1000
0001
0100
,  // measure 61
0010
0000
1000
0000
0002
0000
0023
0000
0230
0000
0310
0002
0000
1003
0020
0000
,  // measure 62
0230
0302
1003
0010
0100
0010
1000
0001
,  // measure 63
0010
0000
0100
0000
0020
0000
0032
0000
2003
0000
3010
0100
0000
0100
0020
0000
,  // measure 64
2030
3002
0013
0100
0010
0001
1000
0001
,  // measure 65
0100
0000
0010
0000
2000
0000
0000
3020
0000
0000
0230
0000
0000
0302
0000
0000
,  // measure 66
1003
0010
0400
0000
0000
0000
0302
0000
,  // measure 67
0203
0020
0000
0300
,  // measure 68
1030
0000
0001
0000
0020
0000
0000
0230
0000
0000
1300
0000
1001
0000
0000
0000
,  // measure 69
0001
0000
0100
0000
0020
0000
0130
0002
0000
0000
1003
0000
0100
0000
0010
0000
,  // measure 70
0100
2000
0000
3001
0100
0010
1000
0000
,  // measure 71
0010
1000
0200
0000
0000
0000
0300
0010
,  // measure 72
0001
0000
1000
0000
0020
0000
0000
0230
0000
0000
0301
0000
1001
0000
0000
0000
,  // measure 73
1000
0000
0100
0000
0020
0000
0000
0130
0000
0000
1000
0000
0001
0000
0100
0000
,  // measure 74
0020
2000
0000
0000
0030
0000
3002
0000
,  // measure 75
0023
0030
0220
0000
0000
0000
0030
0000
,  // measure 76
1300
0000
0001
0000
0200
0000
0000
0320
0000
0000
1030
0000
1001
0000
0000
0000
,  // measure 77
0001
0000
0100
0000
0020
0000
0130
0001
0000
0000
0100
0000
0010
0000
1000
0000
,  // measure 78
0001
0020
0000
0130
1000
0100
1000
0000
,  // measure 79
0001
0100
0220
0000
0000
0000
0330
0010
,  // measure 80
1000
0000
0001
0000
0020
0000
0000
0230
0000
0000
1300
0000
0002
0000
0000
0000
,  // measure 81
0013
0000
0100
0000
0020
0000
0000
0032
0000
0000
1003
0000
0010
0000
1000
0000
,  // measure 82
0002
0020
0000
0000
0000
0000
0000
0000
,  // measure 83
0033
0000
0000
0000
0000
0010
0100
1000
0000
0001
0010
0100
0000
0010
0001
0010
,  // measure 84
0001
1000
0002
0000
0003
1000
0100
0010
0000
0100
0010
0001
0000
0010
0100
0010
,  // measure 85
0100
1000
0200
0000
0300
0010
0001
1001
0000
1000
0001
0101
0000
0100
0010
0100
,  // measure 86
0010
1000
0020
0000
0030
0100
0001
1001
0000
1000
0010
0110
0000
0100
0001
0100
,  // measure 87
0010
1000
0002
0000
0023
0000
0000
0000
0000
0000
0130
0000
2000
0000
0000
3002
,  // measure 88
0000
0000
0103
0000
0020
0000
0000
2030
0000
0000
3001
0000
0200
0000
0000
0000
,  // measure 89
0300
0000
0001
0000
2000
0000
0000
3200
0000
0000
0310
0000
0200
0000
0000
2300
,  // measure 90
0000
3001
0200
0000
0000
0310
0020
0000
,  // measure 91
0000
0000
0030
0000
2010
0000
0000
0000
0000
0000
3001
0000
0020
0000
0000
0230
,  // measure 92
0000
0000
0310
0000
0002
0000
0000
2003
0000
0000
3010
0000
0200
0000
0000
0000
,  // measure 93
0300
0000
0010
0000
0200
0000
0000
0302
0000
0000
1003
0000
0200
0000
0000
0320
,  // measure 94
0000
0031
2002
0000
0000
0000
0000
0000
,  // measure 95
3003
0000
0000
0000
1200
0000
0000
0000
0000
0000
0310
0000
0200
0000
0000
2300
,  // measure 96
0000
0000
3001
0000
0200
0000
0000
0320
0000
0000
0130
0000
0002
0000
0000
0000
,  // measure 97
0003
0000
1000
0000
0020
0000
0000
0230
0000
0000
0301
0000
2000
0000
0000
3200
,  // measure 98
0000
0310
0002
0000
0000
1003
2000
0000
,  // measure 99
0000
0000
3000
0000
1020
0000
0000
0000
0000
0000
0130
0000
0002
0000
0000
2003
,  // measure 100
0000
0000
3100
0000
0020
0000
0000
0230
0000
0000
1300
0000
0002
0000
0000
0000
,  // measure 101
0003
0000
0100
0000
0020
0000
0000
0230
0000
0000
0301
0000
2000
0000
0000
3002
,  // measure 102
0000
0013
0220
0000
0000
0000
0000
0000
,  // measure 103
0330
0400
0000
4300
,  // measure 104
0000
0000
3004
0000
0023
0130
0040
0000
,  // measure 105
0000
0000
0000
0000
0032
0000
0000
0000
0000
0000
0000
0000
2003
0000
0000
3200
,  // measure 106
0000
0310
0004
0000
0000
0000
4003
0000
,  // measure 107
0000
0000
0000
0000
3020
0000
0000
0230
0000
0000
0301
0000
2000
0000
0000
0000
,  // measure 108
3000
2020
0000
0000
,  // measure 109
3030
0000
0000
0000
0020
0000
0230
0000
0302
0000
1003
0020
0000
2030
0000
3001
,  // measure 110
0020
0032
1003
0010
0100
0010
1000
0001
,  // measure 111
0010
0000
0100
0000
0020
0000
0032
0000
2003
0000
3010
0100
0000
0100
0010
0000
,  // measure 112
1000
0001
0010
0001
1000
0010
0100
0001
,  // measure 113
0100
0000
0010
0000
2000
0000
3002
0000
0023
0000
0130
1000
0000
1000
0200
0000
,  // measure 114
0320
0032
1003
0010
0100
0010
1000
0001
,  // measure 115
0010
0000
0100
0000
0020
0000
0000
0032
0000
0000
2003
0000
0000
3020
0000
0000
,  // measure 116
1030
0001
4000
0000
0000
0000
3010
0000
,  // measure 117
0100
0000
0000
0000
0000
0001
0100
0010
0000
0100
0001
1000
0000
0001
0100
0010
,  // measure 118
1000
0010
0200
0000
0300
0010
1000
0001
0000
1000
0001
0010
0000
0001
0010
0100
,  // measure 119
1000
0100
0020
0000
0030
0100
1000
1001
0000
0001
0100
0110
0000
0010
1000
0001
,  // measure 120
0010
0001
2000
0000
3000
0001
0010
0110
0000
0100
1000
1001
0000
0001
0010
0100
,  // measure 121
1000
0100
0020
0030
0012
0000
0000
0000
0000
0000
1003
0000
0020
0000
0000
0230
,  // measure 122
0000
0000
0301
0000
2000
0000
0000
3200
0000
0000
0310
0000
0200
0000
0000
0000
,  // measure 123
0300
0000
1000
0000
0200
0000
0000
0320
0000
0000
0130
0000
2000
0000
0000
3002
,  // measure 124
0000
0103
0020
0000
0000
1030
2000
0000
,  // measure 125
0000
0000
3000
0000
1200
0000
0000
0000
0000
0000
0310
0000
0200
0000
0000
2300
,  // measure 126
0000
0000
3001
0000
0200
0000
0000
0320
0000
0000
0130
0000
0002
0000
0000
0000
,  // measure 127
0003
0000
1000
0000
0020
0000
0000
0230
0000
0000
0301
0000
2000
0000
0000
3200
,  // measure 128
0000
0310
0022
0000
0000
0000
0000
0000
,  // measure 129
0033
0000
0000
0000
2100
0000
0000
0000
0000
0000
3001
0000
0200
0000
0000
0320
,  // measure 130
0000
0000
1030
0000
0002
0000
0000
0023
0000
0000
0130
0000
2000
0000
0000
0000
,  // measure 131
3000
0000
0001
0000
0200
0000
0000
0320
0000
0000
0130
0000
0002
0000
0000
2003
,  // measure 132
0000
3100
0020
0000
0000
0031
0002
0000
,  // measure 133
0000
0000
0003
0000
2001
0000
0000
0000
0000
0000
3010
0000
0200
0000
0000
0302
,  // measure 134
0000
0000
1003
0000
0200
0000
0000
0320
0000
0000
0130
0000
2000
0000
0000
0000
,  // measure 135
3000
0000
0001
0000
0200
0000
0000
0320
0000
0000
0130
0000
0002
0000
0000
2003
,  // measure 136
0000
3100
0220
0000
0000
0000
0000
0000
,  // measure 137
0330
0000
0000
0000
0020
0000
0032
0000
2003
0000
3010
0200
0000
0302
0000
1003
,  // measure 138
0200
0320
0130
1000
0001
0100
0010
0100
,  // measure 139
0001
0000
1000
0000
0200
0000
0320
0000
0230
0000
1300
0002
0000
0203
0000
0310
,  // measure 140
2000
0000
3002
0000
2003
0000
3010
0200
0000
0302
0000
2003
0000
3002
0000
0013
,  // measure 141
0200
0000
2300
0000
3002
0000
0203
0000
0320
0000
1030
0001
0000
0001
2000
0000
,  // measure 142
3020
0230
0301
1000
0100
0010
0100
1000
,  // measure 143
0001
0000
0100
0000
0020
0000
0000
2030
0000
0000
3002
0000
0000
0023
0000
0000
,  // measure 144
0130
1000
0004
0000
0000
0000
2003
0000
,  // measure 145
3020
0000
0000
0000
0230
0000
0302
0000
2003
0000
3001
0020
0000
0230
0000
1300
,  // measure 146
0002
0000
0023
0000
0230
0000
0310
0002
0000
2003
0000
3020
0000
0230
0000
0301
,  // measure 147
2000
0000
3200
0000
0310
0000
0100
0000
1000
0000
0001
0200
0000
0320
0000
1030
,  // measure 148
0001
0000
0010
0000
0200
0000
0310
0002
0000
2003
0000
3020
0000
0230
0000
0301
,  // measure 149
2000
0000
3100
0000
0010
0000
0100
0000
2000
0000
3001
0010
0000
0010
0002
0000
,  // measure 150
2003
3200
0310
0100
1000
0001
1000
0010
,  // measure 151
1000
0000
0001
0000
0020
0000
0000
0230
0000
0000
2300
0000
0000
3002
0000
0000
,  // measure 152
0103
0010
4000
0000
0000
0000
3002
0000
,  // measure 153
0023
0230
0300
2000
,  // measure 154
3000
0002
0203
0320
,  // measure 155
0030
2000
3000
0002
,  // measure 156
0003
0200
0300
0020
,  // measure 157
4030
0004
0000
0000
0000
0000
0000
3003
0000
0000
0000
0000
0000
0000
0000
0000
0000
0000
0000
0000
0000
0000
0000
0000
0000
0000
0000
0000
0000
0000
0000
0000
;

//---------------dance-single - Normal----------------
#NOTES:
     dance-single:
     Ace Of Hearts (2011):
     Medium:
     7:
     0.372,0.000,0.060,0.612,0.060: // measure 1
0000
0000
0000
0000
,  // measure 2
0000
0000
0000
0000
,  // measure 3
0000
0000
0000
0000
,  // measure 4
0000
0000
0000
0000
,  // measure 5
0000
0000
0000
0000
,  // measure 6
0000
0000
0000
0000
,  // measure 7
0000
0000
0000
0000
,  // measure 8
0000
0000
0000
0000
,  // measure 9
0000
0000
0000
0000
,  // measure 10
0000
0000
0000
0000
,  // measure 11
0000
0000
0001
0010
0001
0000
1000
0010
,  // measure 12
1000
0002
0023
0230
,  // measure 13
2300
0000
3001
0100
0001
0000
1000
0000
,  // measure 14
0001
0010
0001
1000
,  // measure 15
0001
0000
1000
0100
1000
0000
0001
0010
,  // measure 16
0001
2000
3020
0230
,  // measure 17
0302
0000
2003
0000
0000
3020
0000
0000
,  // measure 18
1030
0002
0000
2003
,  // measure 19
3200
0320
0000
0030
,  // measure 20
0001
0000
1000
0000
0001
0100
0001
0000
,  // measure 21
1000
0010
1000
0001
,  // measure 22
0010
0200
0000
0310
0001
0000
1000
0000
,  // measure 23
0001
0200
0000
0300
,  // measure 24
0001
0000
0100
0000
0001
1000
0001
0000
,  // measure 25
1000
0100
0010
0001
,  // measure 26
1000
0020
0000
0000
0030
0000
2000
0000
,  // measure 27
3002
0023
0000
0030
,  // measure 28
0001
0000
1000
0000
0001
0100
0001
0000
,  // measure 29
1000
0010
0100
0001
,  // measure 30
1000
0020
0000
1030
0001
0000
1000
0000
,  // measure 31
0001
0200
0000
0300
,  // measure 32
0010
0000
1000
0000
0001
0010
0001
0000
,  // measure 33
1000
0100
0010
0001
,  // measure 34
1000
0002
0000
0000
0000
0000
0000
0000
,  // measure 35
0003
0000
0000
1000
0000
1000
0000
0010
,  // measure 36
0000
0010
0000
0100
0000
0100
0000
0100
,  // measure 37
0000
0000
0000
0001
0000
0001
0000
1000
,  // measure 38
0000
1000
0000
0010
0000
0010
0000
0010
,  // measure 39
0000
0000
0110
0000
,  // measure 40
0101
0000
0001
0001
,  // measure 41
0001
0000
1001
0000
,  // measure 42
1100
0000
1000
1000
,  // measure 43
1000
0000
0000
0000
0002
0000
0000
0000
0000
0000
0000
0000
0103
0000
0000
0100
,  // measure 44
0000
0000
0000
0000
0010
0000
0000
0020
0000
0000
0130
0000
0001
0000
0000
0000
,  // measure 45
0000
1000
0010
1000
,  // measure 46
0001
2000
0000
3020
,  // measure 47
0000
0000
0000
0000
0230
0000
0000
0000
0000
0000
0000
0000
0301
0000
0000
0001
,  // measure 48
0000
0000
0000
0000
1000
0000
0000
2000
0000
0000
3001
0000
0010
0000
0000
0000
,  // measure 49
0000
0100
1000
0001
,  // measure 50
1000
0200
0000
0000
,  // measure 51
0300
0000
0000
0000
0020
0000
0000
0000
0000
0000
0000
0000
0130
0000
0000
0100
,  // measure 52
0000
0000
0000
0000
1000
0000
0000
2000
0000
0000
3001
0000
0100
0000
0000
0000
,  // measure 53
0000
0010
1000
0010
,  // measure 54
0100
0002
0000
2003
,  // measure 55
0000
0000
0000
0000
3200
0000
0000
0000
0000
0000
0000
0000
0310
0000
0000
0010
,  // measure 56
0000
0000
0000
0000
0001
0000
0000
0002
0000
0000
1003
0000
0010
0000
0000
0000
,  // measure 57
0000
0100
0010
1000
,  // measure 58
0001
0020
0000
0000
,  // measure 59
0030
0000
0001
1000
0001
0000
1000
0010
,  // measure 60
1000
0002
0203
0320
,  // measure 61
2030
0000
3001
0100
0001
0000
1000
0001
,  // measure 62
1000
0002
0023
0230
,  // measure 63
2300
0000
3001
0010
0001
0000
1000
0100
,  // measure 64
1000
0002
0203
0320
,  // measure 65
2030
0000
3002
0000
0000
0023
0000
0000
,  // measure 66
0130
2000
0000
3002
,  // measure 67
0203
0320
0000
0030
,  // measure 68
1000
0000
0010
0000
0100
0001
0100
0000
,  // measure 69
0010
1000
0001
0010
,  // measure 70
0001
2000
0000
3010
1000
0000
0001
0000
,  // measure 71
0010
0200
0000
0300
,  // measure 72
1000
0000
0001
0000
1000
0010
1000
0000
,  // measure 73
0001
0010
0100
1000
,  // measure 74
0001
2000
0000
0000
0000
0000
3020
0000
,  // measure 75
0230
0302
0000
0003
,  // measure 76
1000
0000
0010
0000
1000
0001
1000
0000
,  // measure 77
0001
0010
0100
1000
,  // measure 78
0001
0020
0000
0031
1000
0000
0100
0000
,  // measure 79
0010
0200
0000
0300
,  // measure 80
1000
0000
0001
0000
1000
0100
1000
0000
,  // measure 81
0001
0100
0010
0100
,  // measure 82
0001
2000
0000
0000
0000
0000
0000
0000
,  // measure 83
3000
0000
0000
0001
0001
0001
0000
1000
,  // measure 84
1000
2000
3000
0010
0010
0010
0000
0100
,  // measure 85
0100
0200
0300
0101
0000
1001
0000
1000
,  // measure 86
1000
1000
0000
1100
0000
0011
0000
0001
,  // measure 87
0001
0000
0001
0000
2000
0000
0000
0000
0000
0000
0000
0000
3010
0000
0000
0010
,  // measure 88
0000
0000
0000
0000
0100
0000
0000
0200
0000
0000
0301
0000
1000
0000
0000
0000
,  // measure 89
0000
0000
0000
0000
0010
0000
0000
0010
0000
0000
0000
0000
1000
0000
0000
2000
,  // measure 90
0000
3002
0000
2003
,  // measure 91
0000
0000
0000
0000
3200
0000
0000
0000
0000
0000
0000
0000
0310
0000
0000
0010
,  // measure 92
0000
0000
0000
0000
0001
0000
0000
0002
0000
0000
1003
0000
0100
0000
0000
0000
,  // measure 93
0000
0010
0001
1000
,  // measure 94
0001
0200
0000
0000
,  // measure 95
0300
0000
0000
0000
0020
0000
0000
0000
0000
0000
0000
0000
1030
0000
0000
1000
,  // measure 96
0000
0000
0000
0000
0001
0000
0000
0002
0000
0000
1003
0000
0100
0000
0000
0000
,  // measure 97
0000
0000
0000
0000
0010
0000
0000
0010
0000
0000
0000
0000
0100
0000
0000
0200
,  // measure 98
0000
1300
0002
0000
0000
0000
2003
0000
,  // measure 99
0000
0000
0000
0000
3020
0000
0000
0000
0000
0000
0000
0000
1030
0000
0000
1000
,  // measure 100
0000
0000
0000
0000
0001
0000
0000
0002
0000
0000
1003
0000
0010
0000
0000
0000
,  // measure 101
0000
1000
0010
1000
,  // measure 102
0001
2002
0000
0000
,  // measure 103
3003
2000
0000
3020
,  // measure 104
0000
0000
0230
0000
0310
0100
0002
0000
,  // measure 105
0000
0000
0000
0000
2003
0000
0000
0000
0000
0000
0000
0000
3001
0000
0000
0001
,  // measure 106
0000
0020
0000
0230
,  // measure 107
0000
0000
0000
0000
1300
0000
0000
1000
0000
0000
0000
0000
0002
0000
0000
0000
,  // measure 108
0003
0020
0000
0000
,  // measure 109
0030
0000
0001
1000
0001
0000
1000
0010
,  // measure 110
1000
0002
0023
0230
,  // measure 111
2300
0000
3001
0100
0001
0000
1000
0001
,  // measure 112
1000
0020
2030
3002
,  // measure 113
0023
0000
0130
1000
0100
0000
1000
0001
,  // measure 114
1000
0020
2030
3002
,  // measure 115
0023
0000
0032
0000
0000
2003
0000
0000
,  // measure 116
3001
0100
0002
0000
0000
0000
2003
0000
,  // measure 117
3200
0000
0300
0010
0010
0010
0000
0001
,  // measure 118
0001
0002
0003
1000
1000
1000
0000
0010
,  // measure 119
0010
0020
0030
1010
0000
0101
0000
0001
,  // measure 120
0001
0001
0000
1001
0000
1100
0000
0100
,  // measure 121
0100
0000
0100
0000
0020
0000
0000
0000
0000
0000
0000
0000
0031
0000
0000
0001
,  // measure 122
0000
0000
0000
0000
1000
0000
0000
2000
0000
0000
3001
0000
0100
0000
0000
0000
,  // measure 123
0000
0000
0000
0000
0010
0000
0000
0010
0000
0000
0000
0000
1000
0000
0000
1000
,  // measure 124
0000
0000
0002
0000
0000
1003
0020
0000
,  // measure 125
0000
0000
0030
0000
0210
0000
0000
0000
0000
0000
0000
0000
0301
0000
0000
0001
,  // measure 126
0000
0000
0000
0000
1000
0000
0000
2000
0000
0000
3100
0000
0010
0000
0000
0000
,  // measure 127
0000
0100
0010
0001
,  // measure 128
1000
2020
0000
0000
,  // measure 129
3030
0000
0000
0000
0020
0000
0000
0000
0000
0000
0000
0000
1030
0000
0000
1000
,  // measure 130
0000
0000
0000
0000
0001
0000
0000
0002
0000
0000
0013
0000
0100
0000
0000
0000
,  // measure 131
0000
0000
0000
0000
0010
0000
0000
0010
0000
0000
0000
0000
0001
0000
0000
0001
,  // measure 132
0000
0000
2000
0000
0000
3001
0200
0000
,  // measure 133
0300
0000
0000
0000
0120
0000
0000
0000
0000
0000
0000
0000
1030
0000
0000
1000
,  // measure 134
0000
0000
0000
0000
0001
0000
0000
0002
0000
0000
1003
0000
0010
0000
0000
0000
,  // measure 135
0000
0100
0010
1000
,  // measure 136
0001
0022
0000
0000
,  // measure 137
0033
0000
0001
1000
0001
0000
0010
0001
,  // measure 138
0010
0002
2003
3020
,  // measure 139
0230
0000
0301
1000
0001
0000
0010
0001
,  // measure 140
0010
0200
2300
3002
,  // measure 141
0203
0000
0310
1000
0010
0000
0100
0001
,  // measure 142
0100
0020
2030
3002
,  // measure 143
0023
0000
0032
0000
0000
2003
0000
0000
,  // measure 144
3020
0230
0000
0302
,  // measure 145
2003
0000
3010
0100
0001
0000
1000
0010
,  // measure 146
0100
0002
2003
3200
,  // measure 147
0320
0000
0031
0010
0100
0000
1000
0100
,  // measure 148
0010
0002
2003
3020
,  // measure 149
0230
0000
0301
0100
0010
0000
1000
0001
,  // measure 150
0010
0002
2003
3200
,  // measure 151
0320
0000
0230
0000
0000
2300
0000
0000
,  // measure 152
3002
0203
0000
0302
,  // measure 153
2003
3200
0300
0020
,  // measure 154
0030
0002
2003
3020
,  // measure 155
0030
2000
3000
0002
,  // measure 156
0003
2000
3000
0020
,  // measure 157
0430
0300
0000
0000
;

//---------------dance-single - Easy----------------
#NOTES:
     dance-single:
     Ace Of Hearts (2011):
     Easy:
     4:
     0.223,0.000,0.064,0.235,0.000: // measure 1
0000
0000
0000
0000
,  // measure 2
0000
0000
0000
0000
,  // measure 3
0000
0000
0000
0000
,  // measure 4
0000
0000
0000
0000
,  // measure 5
0000
0000
0000
0000
,  // measure 6
0000
0000
0000
0000
,  // measure 7
0000
0000
0000
0000
,  // measure 8
0000
0000
0000
0000
,  // measure 9
0000
0000
0000
0000
,  // measure 10
0000
0000
0000
0000
,  // measure 11
0000
1000
1000
1000
,  // measure 12
0000
0010
0010
0010
,  // measure 13
0000
1000
0000
1000
,  // measure 14
0000
0001
0000
0001
,  // measure 15
0000
0010
0010
0010
,  // measure 16
0000
0100
0100
0100
,  // measure 17
0000
1000
0000
1000
,  // measure 18
0000
0002
0000
1003
,  // measure 19
1000
2000
0000
3000
,  // measure 20
0000
0010
0010
0010
,  // measure 21
0000
0100
0100
0100
,  // measure 22
0000
0001
0000
0001
,  // measure 23
0100
0200
0000
0300
,  // measure 24
0000
0010
0010
0010
,  // measure 25
0000
1000
1000
1000
,  // measure 26
0000
0020
0000
0130
,  // measure 27
0100
0200
0000
0300
,  // measure 28
0000
0001
0001
0001
,  // measure 29
0000
1000
1000
1000
,  // measure 30
0000
0010
0000
0010
,  // measure 31
0100
0200
0000
0300
,  // measure 32
0000
0001
0001
0001
,  // measure 33
0000
1000
0000
0010
,  // measure 34
0010
0020
0000
0000
,  // measure 35
0030
0000
0100
0000
,  // measure 36
0001
0000
1000
1000
,  // measure 37
1000
0000
0001
0000
,  // measure 38
0010
0000
0100
0100
,  // measure 39
0100
0000
0110
0000
,  // measure 40
1001
0000
1000
1000
,  // measure 41
1000
0000
1001
0000
,  // measure 42
1001
0000
0001
0001
,  // measure 43
0001
0020
0000
0031
,  // measure 44
0000
1000
1000
1000
,  // measure 45
0000
0010
0010
0010
,  // measure 46
0000
2000
0000
3001
,  // measure 47
0000
0002
0000
0013
,  // measure 48
0000
0100
0100
0100
,  // measure 49
0000
1000
1000
1000
,  // measure 50
0000
0002
0000
0000
,  // measure 51
0003
2000
0000
3010
,  // measure 52
0000
1000
1000
1000
,  // measure 53
0000
0001
0000
0001
,  // measure 54
0000
2000
0000
3100
,  // measure 55
0000
0020
0000
0031
,  // measure 56
0000
1000
1000
1000
,  // measure 57
0000
0001
0001
0001
,  // measure 58
0000
2002
0000
0000
,  // measure 59
3003
1000
1000
1000
,  // measure 60
0000
0100
0100
0100
,  // measure 61
0000
0010
0000
0001
,  // measure 62
0000
1000
1000
1000
,  // measure 63
0000
0010
0010
0010
,  // measure 64
0000
0100
0100
0100
,  // measure 65
0000
0001
0000
1000
,  // measure 66
0000
0002
0000
0013
,  // measure 67
0010
0020
0000
0030
,  // measure 68
0000
0100
0100
0100
,  // measure 69
0000
1000
0000
0001
,  // measure 70
0000
0010
0010
0010
,  // measure 71
0000
0200
0000
0300
,  // measure 72
0000
1000
1000
1000
,  // measure 73
0000
0001
0001
0001
,  // measure 74
0000
0200
0000
0301
,  // measure 75
0001
0002
0000
0003
,  // measure 76
0000
1000
1000
1000
,  // measure 77
0000
0100
0100
0100
,  // measure 78
0000
0010
0010
0010
,  // measure 79
0000
0200
0000
0300
,  // measure 80
0000
1000
1000
1000
,  // measure 81
0000
0001
0000
1000
,  // measure 82
0000
2002
0000
0000
,  // measure 83
3003
0000
0001
0001
,  // measure 84
0001
0000
0010
0010
,  // measure 85
0010
0000
0110
1001
,  // measure 86
0001
0000
1001
1001
,  // measure 87
1000
0020
0000
1030
,  // measure 88
0000
0001
0001
0001
,  // measure 89
0000
0010
0010
0010
,  // measure 90
0000
0002
0000
1003
,  // measure 91
0000
0020
0000
1030
,  // measure 92
0000
0001
0001
0001
,  // measure 93
0000
0100
0100
0100
,  // measure 94
0000
0020
0000
0000
,  // measure 95
0030
0200
0000
0301
,  // measure 96
0000
1000
1000
1000
,  // measure 97
0000
0001
0001
0001
,  // measure 98
0000
0020
0000
0130
,  // measure 99
0000
2000
0000
3100
,  // measure 100
0000
0010
0010
0010
,  // measure 101
0000
0001
0001
0001
,  // measure 102
0000
2002
0000
0000
,  // measure 103
3003
2000
0000
3002
,  // measure 104
0000
0203
0000
0302
,  // measure 105
0000
2003
0000
3010
,  // measure 106
0010
0020
0000
0230
,  // measure 107
0000
0301
0001
0001
,  // measure 108
0000
2000
0000
0000
,  // measure 109
3000
0001
0001
0001
,  // measure 110
0000
0100
0100
0100
,  // measure 111
0000
0010
0000
1000
,  // measure 112
0000
0001
0001
0001
,  // measure 113
0000
0010
0010
0010
,  // measure 114
0000
0100
0100
0100
,  // measure 115
0000
1000
0000
0001
,  // measure 116
0000
2000
0000
3000
,  // measure 117
0000
0000
0001
0001
,  // measure 118
0001
0000
1000
1000
,  // measure 119
1000
0000
1100
0011
,  // measure 120
1100
0000
1001
0110
,  // measure 121
1001
0002
0000
1003
,  // measure 122
0000
0010
0010
0010
,  // measure 123
0000
0100
0100
0100
,  // measure 124
0000
0002
0000
1003
,  // measure 125
0000
0020
0000
1030
,  // measure 126
0000
0001
0001
0001
,  // measure 127
0000
0010
0010
0010
,  // measure 128
0000
0200
0000
0000
,  // measure 129
0300
2000
0000
3001
,  // measure 130
0000
0100
0100
0100
,  // measure 131
0000
0010
0010
0010
,  // measure 132
0000
0200
0000
0301
,  // measure 133
0000
2000
0000
3100
,  // measure 134
0000
0010
0010
0010
,  // measure 135
0000
0100
0100
0100
,  // measure 136
0000
2200
0000
3300
,  // measure 137
0000
1000
0001
1000
,  // measure 138
0000
0010
0010
0010
,  // measure 139
0000
0100
0000
0001
,  // measure 140
0000
1000
0001
1000
,  // measure 141
0000
0010
0100
0010
,  // measure 142
0000
1000
0000
0001
,  // measure 143
0000
0020
0000
0230
,  // measure 144
0000
2300
0000
3000
,  // measure 145
0000
0001
0010
0001
,  // measure 146
0000
1000
0010
1000
,  // measure 147
0000
0001
0000
0010
,  // measure 148
0000
0100
0000
1000
,  // measure 149
0000
0001
0100
0001
,  // measure 150
0000
1000
0010
1000
,  // measure 151
0000
0002
0000
2003
,  // measure 152
0000
3020
0000
0000
,  // measure 153
0030
2000
3000
0002
,  // measure 154
0003
0200
0300
0020
,  // measure 155
0030
2000
3000
0002
,  // measure 156
0003
0020
0030
0200
,  // measure 157
2300
3000
0000
0000
;

//---------------dance-single - Moedan----------------
#NOTES:
     dance-single:
     Ace Of Hearts (2011):
     Beginner:
     2:
     0.158,0.000,0.050,0.199,0.000: // measure 1
0000
0000
0000
0000
,  // measure 2
0000
0000
0000
0000
,  // measure 3
0000
0000
0000
0000
,  // measure 4
0000
0000
0000
0000
,  // measure 5
0000
0000
0000
0000
,  // measure 6
0000
0000
0000
0000
,  // measure 7
0000
0000
0000
0000
,  // measure 8
0000
0000
0000
0000
,  // measure 9
0000
0000
0000
0000
,  // measure 10
0000
0000
0000
0000
,  // measure 11
0000
1000
0000
1000
,  // measure 12
0000
2000
0000
3000
,  // measure 13
0000
0001
0000
0001
,  // measure 14
0000
0002
0000
0003
,  // measure 15
0000
0100
0000
0100
,  // measure 16
0000
0200
0000
0300
,  // measure 17
0000
0020
0000
0000
,  // measure 18
0000
0030
0000
1000
,  // measure 19
0000
2000
0000
3000
,  // measure 20
0000
0001
0000
0001
,  // measure 21
0000
0010
0000
0010
,  // measure 22
0000
0020
0000
0030
,  // measure 23
0000
0001
0000
0000
,  // measure 24
0000
1000
0000
1000
,  // measure 25
0000
0010
0000
0010
,  // measure 26
0000
0010
0000
0100
,  // measure 27
0000
0200
0000
0300
,  // measure 28
0000
0010
0000
0010
,  // measure 29
0000
1000
0000
1000
,  // measure 30
0000
2000
0000
3000
,  // measure 31
0000
0001
0000
0000
,  // measure 32
0000
0010
0000
0010
,  // measure 33
0000
0001
0000
0001
,  // measure 34
0000
0002
0000
0003
,  // measure 35
0000
0000
1000
0000
,  // measure 36
1000
0000
1000
0000
,  // measure 37
0000
0000
0001
0000
,  // measure 38
0001
0000
0001
0000
,  // measure 39
0000
0000
1001
0000
,  // measure 40
1001
0000
1000
0000
,  // measure 41
0000
0000
1001
0000
,  // measure 42
1001
0000
0001
0000
,  // measure 43
0000
2000
0000
3000
,  // measure 44
0000
0010
0000
0010
,  // measure 45
0000
0100
0000
0100
,  // measure 46
0000
0200
0000
0300
,  // measure 47
0000
0020
0000
0030
,  // measure 48
0000
1000
0000
1000
,  // measure 49
0000
0001
0000
0001
,  // measure 50
0000
0002
0000
0003
,  // measure 51
0000
0020
0000
0030
,  // measure 52
0000
0001
0000
0001
,  // measure 53
0000
1000
0000
1000
,  // measure 54
0000
2000
0000
3000
,  // measure 55
0000
0020
0000
0030
,  // measure 56
0000
0100
0000
0100
,  // measure 57
0000
0001
0000
0001
,  // measure 58
0000
0002
0000
0003
,  // measure 59
0000
1000
0000
1000
,  // measure 60
0000
2000
0000
3000
,  // measure 61
0000
0010
0000
0010
,  // measure 62
0000
0100
0000
0100
,  // measure 63
0000
0001
0000
0001
,  // measure 64
0000
0002
0000
0003
,  // measure 65
0000
1000
0000
1000
,  // measure 66
0000
1000
0000
0010
,  // measure 67
0000
0020
0000
0030
,  // measure 68
0000
1000
0000
1000
,  // measure 69
0000
0001
0000
0001
,  // measure 70
0000
0002
0000
0003
,  // measure 71
0000
0100
0000
0000
,  // measure 72
0000
0010
0000
0010
,  // measure 73
0000
1000
0000
1000
,  // measure 74
0000
1000
0000
0001
,  // measure 75
0000
0002
0000
0003
,  // measure 76
0000
0010
0000
0010
,  // measure 77
0000
0100
0000
0100
,  // measure 78
0000
0200
0000
0300
,  // measure 79
0000
1000
0000
0000
,  // measure 80
0000
0001
0000
0001
,  // measure 81
0000
1000
0000
1000
,  // measure 82
0000
2000
0000
3000
,  // measure 83
0000
0000
0001
0001
,  // measure 84
0001
0000
0100
0100
,  // measure 85
0100
0000
0110
0110
,  // measure 86
0010
0000
0110
1001
,  // measure 87
1000
0200
0000
0300
,  // measure 88
0000
0010
0000
0010
,  // measure 89
0000
0001
0000
0001
,  // measure 90
0000
0002
0000
0003
,  // measure 91
0000
2000
0000
3000
,  // measure 92
0000
0010
0000
0010
,  // measure 93
0000
0100
0000
0100
,  // measure 94
0000
0200
0000
0300
,  // measure 95
0000
0010
0000
0010
,  // measure 96
0000
0020
0000
0030
,  // measure 97
0000
1000
0000
1000
,  // measure 98
0000
2000
0000
3000
,  // measure 99
0000
0001
0000
0001
,  // measure 100
0000
0002
0000
0003
,  // measure 101
0000
0010
0000
0010
,  // measure 102
0000
0020
0000
0030
,  // measure 103
0000
0002
0003
2000
,  // measure 104
3000
0200
0300
0020
,  // measure 105
0030
0001
0000
0001
,  // measure 106
0000
0002
0000
0003
,  // measure 107
0000
1000
0000
0000
,  // measure 108
0000
0020
0000
0030
,  // measure 109
0000
1000
0000
1000
,  // measure 110
0000
2000
0000
3000
,  // measure 111
0000
0001
0000
0001
,  // measure 112
0000
1000
0000
1000
,  // measure 113
0000
0010
0000
0010
,  // measure 114
0000
0020
0000
0030
,  // measure 115
0000
1000
0000
1000
,  // measure 116
0000
2000
0000
3000
,  // measure 117
0000
0000
0001
0001
,  // measure 118
0001
0000
0100
0100
,  // measure 119
0100
0000
0110
1001
,  // measure 120
0110
0000
1001
0110
,  // measure 121
1001
0002
0000
0003
,  // measure 122
0000
1000
0000
1000
,  // measure 123
0000
0010
0000
0010
,  // measure 124
0000
0020
0000
0030
,  // measure 125
0000
0200
0000
0300
,  // measure 126
0000
0001
0000
0001
,  // measure 127
0000
1000
0000
1000
,  // measure 128
0000
2000
0000
3000
,  // measure 129
0000
0020
0000
0030
,  // measure 130
0000
0100
0000
0100
,  // measure 131
0000
0001
0000
0001
,  // measure 132
0000
0002
0000
0003
,  // measure 133
0000
1000
0000
1000
,  // measure 134
0000
2000
0000
3000
,  // measure 135
0000
0010
0000
0010
,  // measure 136
0000
0020
0000
0030
,  // measure 137
0000
0100
0000
0100
,  // measure 138
0000
0200
0000
0300
,  // measure 139
0000
0001
0000
0001
,  // measure 140
0000
1000
0000
1000
,  // measure 141
0000
0100
0000
0100
,  // measure 142
0000
0200
0000
0300
,  // measure 143
0000
0010
0000
0010
,  // measure 144
0000
0020
0000
0030
,  // measure 145
0000
0001
0000
0001
,  // measure 146
0000
0002
0000
0003
,  // measure 147
0000
1000
0000
1000
,  // measure 148
0000
0010
0000
0010
,  // measure 149
0000
0100
0000
0100
,  // measure 150
0000
0200
0000
0300
,  // measure 151
0000
0001
0000
0001
,  // measure 152
0000
0002
0000
0003
,  // measure 153
0000
1000
0000
0001
,  // measure 154
0000
1000
0000
0100
,  // measure 155
0000
0010
0000
0001
,  // measure 156
0000
1000
0000
0001
,  // measure 157
0002
0003
0000
0000
;

//---------------dance-single - Extra----------------
#NOTES:
     dance-single:
     Extra:
     Edit:
     13:
     -1.000,-1.000,-1.000,-1.000,-1.000:
// measure 1
0000
0000
0000
0000
,  // measure 2
0002
0013
0001
1000
0010
0100
0010
1000
,  // measure 3
0002
0013
0100
0010
0001
1000
0010
0100
,  // measure 4
0020
1030
0001
0010
0100
1000
0001
0100
,  // measure 5
0020
0130
0001
1000
0100
0010
0100
1000
,  // measure 6
0002
0103
0010
0100
0001
1000
0100
0010
,  // measure 7
0002
1003
0010
0100
0001
0100
0010
1000
,  // measure 8
0020
0130
0001
1000
0100
0010
0001
1000
,  // measure 9
0020
0130
0002
1003
0200
0000
0000
0000
,  // measure 10
0000
0000
0300
0000
0000
0000
0000
0000
0000
0000
0000
0000
1000
0010
0100
0001
,  // measure 11
0100
0010
1000
0001
0020
0000
0130
0000
2100
0000
3001
0100
0000
0120
0000
1030
,  // measure 12
0001
0000
0021
0000
0230
0000
1300
0001
0000
0201
0000
0310
0000
2010
0000
3001
,  // measure 13
1000
0001
0010
0001
1000
0100
0010
0000
0012
0000
1003
0010
0000
0210
0000
0301
,  // measure 14
1000
0000
0200
0300
0120
0000
0031
1000
0000
1100
0000
0100
0000
0120
0000
0031
,  // measure 15
0010
0100
1000
0100
0020
0000
0130
0000
2100
0000
3001
0100
0000
0100
0010
0000
,  // measure 16
2010
0000
3001
0000
0021
0000
0130
1000
0001
0000
0201
0000
0310
0100
0001
0000
,  // measure 17
1001
0000
2000
0000
3020
0000
0130
0002
0000
1003
0200
0000
1300
0002
0000
0103
,  // measure 18
0010
0100
0002
0000
4003
0000
0000
0000
0000
0000
0000
0000
3010
0100
0010
1000
,  // measure 19
0001
0010
0100
1000
0100
0010
0002
0000
1003
0010
0200
0000
0301
1000
0020
0000
,  // measure 20
1030
0001
0100
0000
0120
0000
1030
0001
0000
0001
0010
0000
0100
1000
0002
0000
,  // measure 21
0103
0000
0010
0000
2010
0000
3001
0010
0000
0010
0100
0000
1000
0001
0100
0000
,  // measure 22
0010
0000
2000
0000
0000
0000
3001
0000
0100
0000
0010
0000
0100
0010
0100
0001
,  // measure 23
1000
0001
0010
0100
1000
0100
0020
0000
0130
1000
0002
0000
0103
0010
2000
0000
,  // measure 24
3001
0000
0010
0000
0210
0000
1300
0001
0000
0001
0100
0000
0110
0000
0010
0000
,  // measure 25
1000
0001
0100
0000
0120
0000
1030
0001
0000
0001
0010
0000
0110
0000
0100
0000
,  // measure 26
1100
0000
2000
0000
3001
0100
0020
0000
1030
0001
0200
0000
0301
1000
0010
1000
,  // measure 27
0001
0010
0100
1000
0001
0100
0020
0000
0130
0001
2000
0000
3100
0010
0002
0000
,  // measure 28
0013
0100
1000
0000
1002
0000
0103
0010
0000
0010
1000
0000
0001
0010
0100
0000
,  // measure 29
0010
0000
0001
0000
2001
0000
3010
0100
0000
0100
0001
0000
1000
0100
0010
0000
,  // measure 30
0001
0000
0201
0000
0000
0000
0310
0000
1000
0000
0001
0000
0010
0001
1000
0010
,  // measure 31
0100
0001
1000
0100
0010
0100
2000
0000
3001
0100
0020
0000
0130
0001
2000
0000
,  // measure 32
3010
0000
0100
0000
0102
0000
1003
0100
0000
0100
0010
0000
0001
0010
0100
0000
,  // measure 33
1000
0000
0001
0000
0201
0000
0310
1000
0000
1000
0001
0000
0011
0000
0010
0000
,  // measure 34
0100
0000
1000
0000
0001
0100
0010
0100
0001
1000
0001
0010
0100
1000
0100
0010
,  // measure 35
0001
1000
0001
0100
0020
0000
1030
0000
1001
0000
0001
0000
0000
0000
0001
0000
,  // measure 36
0011
0010
0000
0100
1000
1001
0001
0100
,  // measure 37
0110
0010
2010
3001
0011
0010
0000
0100
,  // measure 38
1100
1000
0000
0001
0100
0010
1010
1000
,  // measure 39
1002
0000
0013
0100
2000
0000
3001
0000
0101
0000
0100
0000
0000
0000
0010
0000
,  // measure 40
1010
1000
0000
0001
0010
0110
0100
1100
,  // measure 41
1000
0001
0201
0310
1010
1000
0000
0001
,  // measure 42
0011
0000
0010
0000
0000
0000
0100
0000
1000
0000
0001
0000
0100
0010
0100
0001
,  // measure 43
1000
0100
0010
0001
0010
0100
1000
0001
0100
0001
1000
0100
0010
0100
1000
0001
,  // measure 44
0100
0010
0100
0001
1000
0001
0010
0100
1000
0100
0010
0001
1000
0001
0100
0010
,  // measure 45
0100
0001
1000
0100
0010
0001
1000
0010
0100
0010
1000
0001
0010
0100
1000
0100
,  // measure 46
0010
0001
1000
0010
0200
0000
0000
0000
0000
0000
0310
0000
0010
1000
0001
0010
,  // measure 47
0100
0010
0001
1000
0001
0100
0010
0100
0001
1000
0001
0010
0100
1000
0100
0010
,  // measure 48
0001
1000
0010
0100
0010
1000
0001
0010
0100
0010
0001
1000
0010
0100
0010
1000
,  // measure 49
0001
0010
0100
1000
0100
0010
0001
1000
0001
0100
0010
0100
0001
1000
0001
0010
,  // measure 50
0100
1000
0100
0010
0002
0000
0000
0000
0000
0000
0000
0000
1003
0000
1000
0000
,  // measure 51
0010
0100
0010
1000
0001
0010
0100
0010
0001
1000
0001
0100
0010
1000
0010
0100
,  // measure 52
0001
1000
0001
0010
0100
0010
0001
1000
0010
0100
0010
1000
0001
0010
0100
1000
,  // measure 53
0001
0010
0001
1000
0010
0100
0010
1000
0001
0100
0010
0100
0001
1000
0001
0010
,  // measure 54
0100
1000
0100
0010
0200
0000
0000
0000
0000
0000
1300
0000
1000
0001
0100
0010
,  // measure 55
0100
0001
1000
0001
0010
0100
1000
0100
0010
0001
1000
0001
0100
0010
0100
0001
,  // measure 56
1000
0100
0010
0001
0010
0100
1000
0001
0100
0010
0100
0001
1000
0001
0010
0100
,  // measure 57
1000
0100
0010
0001
1000
0001
0100
0010
0100
0001
1000
0001
0010
0100
1000
0100
,  // measure 58
0010
0001
1000
0001
0020
0000
0000
0000
0000
0000
0000
0000
0130
0000
0100
0000
,  // measure 59
1000
0001
0100
0010
1000
0000
0010
0000
0210
0000
0301
1000
0000
1200
0000
0310
,  // measure 60
0001
0000
2000
3000
1020
0000
0130
0001
0000
2001
0000
3100
0000
0120
0000
0031
,  // measure 61
1000
0010
0100
0010
1000
0001
0010
0000
0210
0000
1300
0001
0000
0201
0000
0310
,  // measure 62
1000
0000
1200
0000
0320
0000
0130
1000
0000
1002
0000
0103
0000
0120
0000
1030
,  // measure 63
0001
0010
0001
1000
0010
0100
0001
0000
0021
0000
0130
1000
0000
1000
0002
0003
,  // measure 64
0201
0000
0320
0030
2010
0000
3001
0010
0100
0000
2000
0000
3001
0100
0020
0030
,  // measure 65
1010
0000
2000
0000
3002
0000
0013
0200
0000
0310
0002
0000
1003
0020
0000
0130
,  // measure 66
0010
1000
0002
0000
0043
0000
0000
0000
0000
0000
0000
0000
0130
1000
0001
0100
,  // measure 67
0010
1000
0010
0100
0001
1000
0200
0000
0310
0100
2000
0000
3001
0100
0020
0000
,  // measure 68
1030
0001
0100
0000
0110
0000
0010
1000
0000
1000
0001
0000
0010
0100
1000
0000
,  // measure 69
0001
0000
0100
0000
0120
0000
1030
0001
0000
0001
0010
0000
0100
1000
0001
0000
,  // measure 70
0100
0000
0120
0000
0000
0000
1030
0000
0001
0000
0010
0000
0001
1000
0010
0100
,  // measure 71
0010
1000
0001
0010
0100
1000
0002
0000
0103
0010
2000
0000
3010
0100
0002
0000
,  // measure 72
1003
0100
0010
0000
0012
0000
1003
0010
0000
0010
0100
0000
0001
1000
0100
0000
,  // measure 73
0010
0000
0100
0000
2100
0000
3001
0100
0000
0100
0010
0000
1010
0000
1000
0000
,  // measure 74
0001
0000
0010
0000
0100
0010
0001
1000
0010
0100
0010
1000
0001
0010
0100
1000
,  // measure 75
0001
1000
0100
0010
0001
1000
0020
0000
0130
0001
2000
0000
3100
0010
0002
0000
,  // measure 76
1003
0000
0010
0000
0210
0000
0301
1000
0000
1000
0100
0000
0010
0100
1000
0000
,  // measure 77
0001
0000
0100
0000
0120
0000
1030
0001
0000
0001
0010
0000
0100
1000
0001
0000
,  // measure 78
0100
0000
0120
0000
0000
0000
1030
0000
0001
0000
0010
0000
0100
1000
0001
0100
,  // measure 79
0010
1000
0001
0100
0010
1000
0002
0000
0013
0100
2000
0000
3001
0100
0020
0000
,  // measure 80
1030
0000
0001
0000
0021
0000
0130
1000
0000
1000
0001
0000
0100
0010
1000
0000
,  // measure 81
0001
0000
0010
0000
0210
0000
1300
0001
0000
0001
0100
0000
0010
0000
1000
0000
,  // measure 82
0001
0000
0010
0000
0100
0010
0001
1000
0001
0100
0010
0100
0001
1000
0001
0010
,  // measure 83
0100
1000
0100
0010
0002
1003
0100
0001
0000
0001
0100
1000
0000
1000
0001
0100
,  // measure 84
0010
1000
0001
1000
1002
1003
0010
0001
0000
0001
0010
1000
0000
1000
0100
0010
,  // measure 85
0001
0010
0001
0000
1000
0000
0001
0010
0001
0000
1000
0000
1010
0000
0010
0000
0000
0000
0100
0000
0101
0000
0001
0000
0000
0000
1000
0000
0100
0000
0010
0000
,  // measure 86
0011
0001
1001
1000
1020
0130
0101
0001
0000
1000
1100
0100
0000
0010
0011
0001
,  // measure 87
1000
0010
1000
0010
0100
0001
0100
0001
1000
0000
0100
0000
0010
0000
0001
0000
0010
0000
0100
0000
1000
0000
0001
0000
0100
0000
0001
0000
1000
0000
0001
0000
,  // measure 88
0010
0100
1000
0100
0010
0001
1000
0010
0100
0001
0100
0010
1000
0001
0010
0100
,  // measure 89
1000
0001
0100
0001
1000
0100
1000
0001
0010
0001
1000
0001
0100
0010
0100
0001
,  // measure 90
1000
0001
0010
0100
2000
0000
0000
0000
0000
0000
3001
0000
0001
0100
0010
0100
,  // measure 91
0001
1000
0100
0010
0100
1000
0001
0100
0010
0100
0001
1000
0100
0010
0100
1000
,  // measure 92
0001
0100
0010
1000
0010
0100
0001
1000
0001
0010
0100
1000
0100
0010
0001
1000
,  // measure 93
0001
0100
0010
1000
0010
0100
0001
1000
0001
0010
0100
0010
0001
1000
0100
0010
,  // measure 94
0100
1000
0001
0100
0020
0000
0000
0000
0000
0000
0000
0000
1030
0000
1000
0000
,  // measure 95
0100
0010
0100
1000
0001
0100
0010
0100
0001
1000
0100
0010
0100
1000
0001
0100
,  // measure 96
0010
1000
0001
0010
0100
0010
0001
1000
0001
0100
0010
0100
0001
1000
0100
0010
,  // measure 97
0100
1000
0001
0100
0010
1000
0010
0100
0001
1000
0001
0010
0100
1000
0100
0010
,  // measure 98
0001
1000
0010
0100
0002
0000
0000
0000
0000
0000
0013
0000
0010
0100
1000
0100
,  // measure 99
0010
0001
1000
0010
0100
0010
1000
0001
0010
0100
1000
0100
0010
0001
1000
0001
,  // measure 100
0100
0010
0100
0001
1000
0100
0010
0100
1000
0001
0100
0010
1000
0010
0100
0001
,  // measure 101
1000
0001
0010
0100
0010
0001
1000
0001
0100
0010
1000
0010
0100
0001
1000
0001
,  // measure 102
0010
0100
1000
0001
0200
0000
0000
0000
0000
0000
0000
0000
0310
0000
0010
0000
,  // measure 103
1000
0001
0010
0100
4000
0000
0000
0000
0000
0000
0000
0000
3040
0000
0000
0000
,  // measure 104
0000
0000
0430
0000
0302
1003
0040
0000
,  // measure 105
0000
0000
0000
0000
0230
0000
0301
0000
1000
0000
0100
0000
0020
0000
0130
1000
,  // measure 106
0000
1000
0001
0000
0200
0000
0310
0000
1000
0000
0001
0000
0020
0000
0130
0000
,  // measure 107
0010
0000
0001
0000
2000
0000
3010
0100
0000
0100
0001
0000
2000
0000
3100
0000
,  // measure 108
0010
0000
0001
0000
2002
0000
0000
0000
0003
0000
3010
0000
0010
0100
0010
1000
,  // measure 109
0001
0010
0100
1000
0002
0000
0103
0000
0120
0000
1030
0001
0000
0201
0000
0310
,  // measure 110
1000
0000
0002
0003
0021
0000
0130
1000
0000
1002
0000
0103
0000
0120
0000
1030
,  // measure 111
0001
1000
0100
0010
0001
1000
0010
0000
0210
0000
0301
1000
0000
1200
0000
0310
,  // measure 112
0001
0000
0201
0000
0320
0000
1030
0001
0000
0021
0000
0130
0000
2100
0000
3001
,  // measure 113
0100
0010
1000
0010
0100
0000
0001
0000
2001
0000
3100
0010
0000
0010
0100
0000
,  // measure 114
2100
0000
3002
0003
0201
0000
0310
1000
0001
0000
0021
0000
0130
1000
0001
0000
,  // measure 115
0101
0000
0200
0000
0320
0000
1030
0002
0000
0013
0200
0000
0310
0002
0000
1003
,  // measure 116
0010
0100
0020
0000
4030
0000
0000
0000
0000
0000
0000
0000
3001
0010
0100
0010
,  // measure 117
0001
1000
0100
0010
0200
1300
0100
0101
0000
0001
0100
1100
0000
1000
0001
0100
,  // measure 118
0010
1000
0001
1000
1001
0001
0010
1010
0000
1000
0010
0011
0000
0001
1000
0001
,  // measure 119
0010
0100
0010
0000
0001
0000
0010
0100
0020
0000
0031
0000
1000
0000
1010
0000
0000
0000
0010
0000
0100
0000
0101
0000
0000
0000
0001
0000
1000
0000
0100
0000
,  // measure 120
0110
0000
0010
0000
0011
0000
0001
0010
0200
0000
1300
0000
0001
0000
0101
0000
0000
0000
0100
0000
0010
0000
1010
0000
0000
0000
1000
0000
0001
0000
0010
0000
,  // measure 121
0100
0010
0001
0010
0100
1000
0100
0010
0001
0000
1000
0000
0010
0000
0100
0000
0010
0000
1000
0000
0001
0000
0010
0000
0100
0000
0010
0000
0001
0000
1000
0000
,  // measure 122
0100
0010
0100
1000
0001
0100
0010
0100
0001
1000
0010
0100
0010
1000
0001
0010
,  // measure 123
0100
1000
0100
0010
0001
1000
0010
0100
0010
1000
0001
0010
0100
0010
0001
1000
,  // measure 124
0001
0100
0010
1000
0002
0000
0000
0000
0000
0000
1003
0000
1000
0010
0100
0010
,  // measure 125
1000
0001
0010
0100
0010
0001
1000
0001
0100
0010
0100
0001
1000
0100
0010
0100
,  // measure 126
1000
0001
0100
0010
1000
0010
0100
0001
1000
0001
0010
0100
1000
0100
0010
0001
,  // measure 127
1000
0010
1000
0001
0010
0100
1000
0100
0010
0001
1000
0001
0100
0010
1000
0001
,  // measure 128
0010
0100
1000
0001
2000
0000
0000
0000
0000
0000
0000
0000
3001
0000
0001
0000
,  // measure 129
0010
0100
1000
0100
0010
0100
1000
0001
0100
0010
1000
0010
0100
0010
1000
0001
,  // measure 130
0010
0100
1000
0100
0010
0001
1000
0010
0100
0001
0100
0010
1000
0001
0010
0001
,  // measure 131
1000
0100
1000
0001
0100
0001
1000
0010
1000
0001
0010
0100
1000
0001
0100
0001
,  // measure 132
1000
0100
0010
0001
0020
0000
0000
0000
0000
0000
0130
0000
0100
1000
0001
0100
,  // measure 133
0010
0100
0001
1000
0100
0010
0100
1000
0001
0100
0001
1000
0001
0010
0100
1000
,  // measure 134
0001
1000
0100
0010
0001
0010
0100
1000
0001
0100
0010
0100
0001
1000
0100
0010
,  // measure 135
0001
1000
0010
0100
0001
0100
0010
1000
0001
0010
0001
1000
0100
1000
0001
0100
,  // measure 136
0010
1000
0010
0100
0002
0000
0000
0000
0000
0000
0000
0000
1003
0000
1000
0000
,  // measure 137
0100
0010
0100
1000
0002
0000
0103
0000
0120
0000
1030
0001
0000
0021
0000
0130
,  // measure 138
1000
0000
1002
0000
0203
0000
0310
1000
0000
1200
0000
0310
0000
0012
0000
1003
,  // measure 139
0010
0100
0010
1000
0001
0010
0001
0000
2001
0000
3010
0100
0000
0102
0000
1003
,  // measure 140
0100
0000
0120
0000
0032
0000
1003
0010
0000
0210
0000
0301
0000
2001
0000
3100
,  // measure 141
0010
0100
1000
0001
0200
0000
0310
0000
2010
0000
3001
0010
0000
0010
0200
0300
,  // measure 142
2100
0000
3001
0100
0020
0000
1030
0001
0100
0000
0120
0000
1030
0001
0200
0000
,  // measure 143
0310
0000
1000
0000
1002
0000
0013
0200
0000
1300
0002
0000
0103
0020
0000
1030
,  // measure 144
0001
0010
0200
0000
4300
0000
0000
0000
0000
0000
0000
0000
3001
0100
0010
1000
,  // measure 145
0010
0100
0001
1000
0100
0000
0010
0000
0012
0000
1003
0010
0000
0210
0000
0301
,  // measure 146
1000
0000
0200
0300
0120
0000
0031
1000
0000
1020
0000
0130
0000
0102
0000
1003
,  // measure 147
0100
0010
0100
1000
0001
0100
0010
0000
2010
0000
3001
0010
0000
0210
0000
1300
,  // measure 148
0001
0000
0100
0000
0120
0000
1030
0001
0000
0021
0000
0130
0000
2100
0000
3001
,  // measure 149
0100
0010
0100
0001
2000
0000
3100
0000
0120
0000
0031
1000
0000
1000
0010
0000
,  // measure 150
0100
0001
1000
0000
1200
0000
0310
0001
1000
0000
1020
0000
0130
0001
1000
0000
,  // measure 151
0200
0000
0310
0000
0012
0000
1003
0020
0000
1030
0002
0000
0013
0200
0000
1300
,  // measure 152
0001
1000
0200
0000
0340
0000
0000
0000
0000
0000
0000
0000
0031
0010
0100
1000
,  // measure 153
0100
0000
0000
0000
0000
0000
0000
0000
0000
0000
0000
0000
0010
0000
0000
0000
0000
0000
0000
0000
0000
0000
0000
0000
0001
0000
0000
0000
0000
0000
0000
0000
0000
0000
0000
0000
1000
0000
0000
0000
0000
0000
0000
0000
0000
0000
0000
0000
0020
0000
0000
0000
0000
0000
0000
0000
0000
0000
0000
0000
0130
0000
0000
0000
0000
0000
0000
0000
0000
0000
0000
0000
0001
0000
0000
0000
0000
0000
0000
0000
0000
0000
0000
0000
1000
0000
0000
0000
0000
0000
0100
0000
0000
0000
0000
0000
0000
0000
0000
0000
0000
0000
0000
0000
0000
0000
0000
0000
0010
0000
0000
0000
0000
0000
0100
0000
0000
0000
0000
0000
0000
0000
0000
0000
0000
0000
0010
0000
0000
0000
0000
0000
0001
0000
0000
0000
0000
0000
0010
0000
0000
0000
0000
0000
0001
0000
0000
0000
0000
0000
0000
0000
1000
0000
0000
0000
0000
0000
0000
0000
0001
0000
0000
0000
0000
0000
0000
0000
0010
0000
0000
0000
0000
0000
0000
0000
0001
0000
0000
0000
0000
0000
0000
0000
0010
0000
0000
0000
0000
0000
0000
0000
,  // measure 154
0100
0000
0000
0000
0000
0000
0000
0000
0010
0000
0000
0000
0000
0000
0000
0000
0100
0000
0000
0000
0000
0000
0000
0000
1000
0000
0000
0000
0000
0000
0100
0000
0000
0000
0000
0000
0000
0000
0000
0000
0000
0000
0010
0000
0000
0000
0000
0000
0002
0000
0000
0000
0000
0000
0000
0000
0000
0000
0000
0000
1003
0000
0000
0000
0000
0000
0000
0000
0000
0000
0000
0000
0010
0000
0000
0000
0000
0000
0000
0000
0000
0000
0000
0000
0000
0000
0000
0000
0000
0000
0000
0000
0000
0000
0000
0000
2000
0000
0000
0000
0000
0000
0000
0000
0000
0000
0000
0000
3001
0000
0000
0000
0000
0000
0000
0000
0000
0000
0000
0000
0010
0000
0000
0000
0000
0000
0000
0000
0000
0000
0000
0000
0001
0000
0000
0000
0000
0000
0000
0000
0000
0000
0000
0000
2000
0000
0000
0000
0000
0000
0000
0000
0000
0000
0000
0000
3010
0000
0000
0000
0000
0000
0000
0000
0000
0000
0000
0000
1000
0000
0000
0000
0000
0000
0000
0000
0000
0000
0000
0000
0001
0000
0000
0000
0000
0000
0010
0000
0000
0000
0000
0000
,  // measure 155
0000
0001
0010
0100
1000
0100
0010
0000
0002
0000
1003
0000
0100
0000
0010
0001
0010
0001
0010
0000
0100
0000
1000
0000
0002
0000
1003
0000
0010
0000
0100
0000
,  // measure 156
0001
0000
1000
0000
0100
0000
0010
0000
0002
0000
1003
0000
0010
0100
0010
0000
1000
0000
0001
0000
0010
0100
1000
0100
0020
0000
0031
0000
1000
0000
0001
0000
,  // measure 157
0010
0100
1000
0100
0010
0001
1000
0200
0000
0000
0000
0000
0000
0000
0000
0000
0000
0000
0300
0000
0000
0000
0000
0000
0000
0000
0000
0000
0000
0000
0000
0000
;
