#TITLE:Shiny Gems;
#SUBTITLE:;
#ARTIST:Madoka Yonezawa;
#TITLETRANSLIT:;
#SUBTITLETRANSLIT:;
#ARTISTTRANSLIT:;
#GENRE:J-Pop;
#CREDIT:Ace Of Hearts;
#BANNER:Shiny Gems - bn.png;
#BACKGROUND:Shiny Gems - bg.png;
#LYRICSPATH:;
#CDTITLE:Ace Of Hearts.png;
#MUSIC:Shiny Gems.ogg;
#OFFSET:0.800;
#SAMPLESTART:37.300;
#SAMPLELENGTH:12.000;
#SELECTABLE:YES;
#BPMS:0.000=138.000,200.000=69.000,216.000=138.000,291.000=69.000,307.000=138.000,310.000=69.000,326.000=138.000,390.000=69.000,399.000=34.500;
#STOPS:248.000=0.435
,307.000=0.435
;
#BGCHANGES:;
#KEYSOUNDS:;

//---------------dance-single - Expert----------------
#NOTES:
     dance-single:
     Ace Of Hearts (2011):
     Challenge:
     10:
     0.742,0.000,0.441,0.983,0.905:
0000
0000
0000
0000
,
0000
0000
0000
0000
,
0000
0000
0000
0000
,
0000
0000
0000
0000
,
0000
0000
0000
0000
,
1000
0100
1000
0001
0010
0001
1000
0010
1000
0001
0000
0000
,
0021
0130
2100
3001
,
0201
0000
0310
1000
0000
0000
2001
0000
3001
0100
0000
0010
,
2010
0000
0000
3002
0000
0003
0021
0000
0000
0230
0000
0300
,
2100
0000
3001
0100
0000
0100
0001
0100
0010
2000
0000
3000
,
1002
0000
0000
0203
0000
0300
0120
0000
0000
2030
0000
3000
,
1002
0000
0013
0200
0000
0300
2100
0000
3001
0200
0000
0310
,
2010
0000
3001
0010
0000
0001
2001
0000
3001
0100
0000
0001
,
2001
0000
3100
0020
0000
0000
0130
1000
0001
0010
0100
0000
,
2100
0000
3001
0100
0000
0100
0010
0000
0010
1000
0000
1000
,
0001
0000
0001
0010
0000
0010
0100
0000
0100
1100
0000
1000
,
0001
0000
0001
0100
0000
0100
0010
0000
0010
1000
0000
1000
,
0002
0000
0000
0203
0000
0000
0310
1000
0001
0021
0000
0130
,
2000
0000
0000
3001
0100
0000
0010
0000
0010
1000
0000
1000
,
0001
0000
0001
0010
0000
0010
0200
0000
1300
1002
0000
0103
,
0010
0000
0010
2000
0000
0000
3001
0000
0001
0010
0001
1000
,
0002
0000
0000
1003
0000
0010
0100
0001
0100
0010
1000
0001
,
0021
0000
0130
2000
0000
3000
1002
0000
0103
0020
0000
0030
,
2010
0000
3001
0020
0000
0030
0210
0000
1300
1002
0000
0103
,
0120
0000
1030
0002
0000
0003
0021
0000
0130
2000
0000
3000
,
1002
0000
0103
0010
0000
0010
1000
0001
0010
0200
0000
0310
,
0012
0000
1003
0020
0000
0030
0210
0000
0301
2000
0000
3000
,
1020
0000
0130
0002
0000
0003
2001
0000
3100
0010
0000
0010
,
0012
0000
1003
0010
0000
0010
0210
0000
0301
1000
0000
1000
,
1020
0000
0130
0001
0000
0001
1000
0100
1000
0001
0010
0001
,
2000
0000
3001
0200
0000
0310
0100
0001
1000
0100
0010
0001
,
1000
0010
0100
0010
1000
0001
0010
0100
0010
0001
0000
0001
,
0010
0000
0010
0100
0000
0100
1000
0001
0100
0010
1000
0010
,
0100
0001
1000
0100
0010
0100
1000
0001
0100
0010
1000
0001
,
0100
0000
0100
0010
0000
0010
1000
0000
1000
0001
0000
0001
,
0010
0000
0010
0100
0000
0100
1000
0000
1000
1001
0000
0000
,
0001
0000
0001
0200
0000
0310
1000
0000
1000
0001
0000
0001
,
0020
0000
0000
0230
0000
0000
1300
0001
0100
0120
0000
1030
,
0001
0000
0001
0100
0000
0100
0010
0000
0010
1000
0000
1000
,
0001
0000
0001
0010
0000
0010
0200
0000
1300
1001
0000
0001
,
0100
0000
0100
0010
0000
0010
1000
0000
1000
0001
0000
0001
,
0010
0000
0000
0100
0010
0100
1000
0100
1000
0001
0100
0001
,
2001
0000
3100
0020
0000
0030
0012
0000
1003
0020
0000
0030
,
0210
0000
0301
2000
0000
3000
1200
0000
0310
0001
0000
1000
,
1020
0000
0130
0002
0000
0003
2001
0000
3010
0200
0000
0300
,
0102
0000
1003
0100
0000
0100
0010
0001
0010
0210
0000
0300
,
2100
0000
3001
0200
0000
0300
0120
0000
1030
0002
0000
0003
,
0021
0000
0130
2000
0000
3000
1002
0000
0103
0010
0000
0010
,
2010
0000
3001
0010
0000
0010
0210
0000
1300
0001
0000
0001
,
0201
0000
0310
1000
0000
1000
0001
0010
0001
1000
0100
1000
,
1002
0000
0000
0000
0000
0000
0000
0000
0000
0000
2003
0000
0200
0000
0000
0000
0000
0000
0001
0000
0000
3300
0000
0000
2001
0000
0000
0000
0000
0000
0000
0000
0000
0000
3002
0000
0200
0000
0000
0000
0000
0000
1000
0000
0000
0303
0000
0000
,
0210
0000
0000
0000
0000
0000
0000
0000
0000
0000
0302
0000
2000
0000
0000
0000
0000
0000
0010
0000
0000
3003
0000
0000
1200
0000
0000
0000
0000
0000
0000
0000
0000
0000
0310
0000
0001
0000
1000
0000
0001
0000
0020
0000
0000
0000
0030
0000
,
0210
0000
0000
2300
0000
0000
3002
0000
0000
0203
0000
0310
1000
0000
1000
0001
0000
0001
0200
0000
0000
0300
0000
0010
,
2000
0000
0000
3002
0000
0000
0023
0000
0000
0230
0000
0310
0001
0000
0001
1000
0000
1000
0010
0100
0010
1000
0010
1000
,
2002
0000
0000
0000
3003
0001
0022
0000
0000
0000
0033
0010
,
0210
0000
1300
0002
0000
0003
0202
0000
0000
0303
0000
0000
,
0220
0000
0330
2020
0000
3030
2002
0000
3003
0202
0000
0303
,
0120
0000
1030
0001
0000
0001
1000
0100
1000
0001
0010
0001
,
2002
0000
0000
0000
3003
1000
2020
0000
0000
0000
3030
0010
,
0210
0000
0301
2000
0000
3000
2200
0000
0000
3300
0000
0000
,
0120
0000
0000
0032
0000
0003
2001
0000
0000
3200
0000
0300
,
0120
0000
0031
1000
0000
1000
0001
0100
0001
1000
0100
1000
,
0002
0000
0000
0003
1000
0000
0020
0000
0130
0000
0002
0000
1003
0000
0200
0000
0310
0000
0011
0000
0000
0000
0000
0000
,
0001
1000
0001
1000
0010
1000
0001
0100
0001
1000
0010
0100
,
0001
0000
0100
0000
0010
0000
1000
0000
0001
0000
0010
0000
0100
1000
0100
0000
0010
0000
0001
0000
0000
0000
0001
0000
,
0100
0000
0100
0010
1000
0001
1000
0100
0010
0001
0010
0100
,
1000
0000
0001
0000
0100
0000
0001
0000
1000
0000
0100
0000
0010
0001
0010
0000
0100
0000
1000
0000
0000
0000
1000
0000
,
0001
0000
0000
0000
0001
0000
0100
0000
0010
0000
0100
0000
0002
0000
0000
0000
1003
0100
1000
0000
0001
0000
0010
0000
,
0100
0000
0010
0000
0001
0000
1000
0000
0010
0000
1000
0000
0010
0100
0010
0000
1000
0000
0001
0000
0000
0000
0001
0000
,
0100
0000
0100
0010
1000
0001
0010
0001
1000
0100
0000
0100
,
0010
0000
0010
0100
0000
0100
1000
0001
0100
0010
0000
0010
,
1000
0000
1000
0001
0010
0100
0010
0000
0010
0001
1000
0010
,
0100
0000
0000
0000
0100
0000
0010
0000
1000
0000
0010
0000
0100
0000
0001
0000
0100
0000
0020
0000
0000
1030
0000
0001
,
0010
0000
0010
0100
0000
0100
1000
0000
1000
0001
0000
0001
0100
0000
0100
0010
0000
0010
2000
0000
0000
0000
0000
0200
,
0000
0000
0000
0000
0000
0000
0020
0000
0000
0030
0000
0002
0000
0000
0000
0003
0000
0000
3300
0000
0000
1000
0000
0001
,
0100
0000
0100
0010
0000
0010
0100
0000
0100
0001
0000
0001
1000
0000
1000
0010
0000
0000
0200
0000
0000
0000
0000
0000
,
0002
2000
0020
3333
,
0000
0000
0000
1000
0100
0010
0002
0000
0000
0003
0000
0000
1000
0000
1000
0001
0000
0001
0010
0000
0010
0200
0000
0300
,
1000
0000
1000
0001
0000
0001
0100
0000
0100
0020
0000
0030
1000
0000
1000
0001
0000
0001
1000
0000
0100
0010
0002
0000
,
1003
0000
1000
0100
0000
0010
0001
0010
0100
1000
0100
0010
0001
0000
0001
1000
0000
1000
0010
0000
0010
0200
0000
0300
,
0001
0000
0001
0100
0000
0100
0001
0000
0010
0100
2000
0000
3001
0000
0001
0010
0000
0010
0001
0000
1000
0100
0020
0000
,
0130
0000
0100
1000
0000
1000
0001
0010
0001
1000
0100
1000
2002
0000
0000
0000
0000
0000
0000
0000
3003
0000
1000
0000
,
2200
0000
0000
0000
3300
0100
0120
0000
0031
2000
0000
3000
,
2020
0000
0000
3030
0000
0000
0220
0000
0330
0202
0000
0303
,
2002
0000
3003
2200
0000
3300
0120
0000
0031
2000
0000
0000
,
3001
0010
0001
1000
0001
1000
2200
0000
0000
0000
3300
0100
,
0220
0000
0000
0000
0330
0010
0012
0000
1003
0020
0000
0030
,
0220
0000
0000
0330
0000
0000
2020
0000
3030
0202
0000
0303
,
0001
0000
0001
1000
0000
1000
0100
0000
0100
0010
0000
0010
,
0100
1000
0100
0010
0001
0010
0100
0000
0000
2000
0000
0000
,
3002
0000
0000
0200
0000
0000
0010
0000
0010
1000
0000
0000
,
1010
0303
0001
1000
,
0200
0000
0000
2000
0000
0000
0010
0000
0010
0001
0000
0001
,
0010
3300
0001
0200
,
0310
0000
0000
2000
0000
3000
1001
0000
0001
0100
0000
0000
,
0110
0000
0000
0010
0000
0000
2000
0000
3001
0010
0000
0010
,
0200
0000
1300
0001
0000
0001
0100
0000
0100
0010
0000
0010
,
1000
0000
0001
0000
1000
0000
0001
0000
0000
0000
0000
0000
1000
0100
0010
0001
0000
0001
2000
0000
3010
0100
0000
0100
,
0001
0100
0010
1000
0000
1000
0002
0000
1003
0100
0000
1000
0001
0010
0100
1000
0000
1000
0001
0100
0010
1000
0000
0001
,
0020
0000
0000
0000
0000
0000
0230
0000
0000
2300
0000
0000
3002
0000
0000
1003
0100
2000
0002
0000
0000
0000
0000
0000
,
0000
3003
0000
0000
;

//---------------dance-single - Hard----------------
#NOTES:
     dance-single:
     Ace Of Hearts (2011):
     Hard:
     8:
     0.526,0.000,0.092,1.000,0.431: // measure 1
0000
0000
0000
0000
,  // measure 2
0000
0000
0000
0000
,  // measure 3
0000
0000
0000
0000
,  // measure 4
0000
0000
0000
0000
,  // measure 5
0000
0000
0000
0000
,  // measure 6
4000
0000
0000
3000
,  // measure 7
0002
0023
0032
2003
,  // measure 8
3010
0000
0010
0100
0000
0000
0202
0000
0000
0303
0000
0000
,  // measure 9
0002
2003
3200
0320
,  // measure 10
0130
0000
0100
1000
0000
1000
0002
0000
0000
0003
0000
0000
,  // measure 11
2000
3020
0230
0302
,  // measure 12
2003
0000
3001
0010
0000
0000
0220
0000
0000
0330
0000
0100
,  // measure 13
2000
0000
0000
3000
0000
0100
0020
0000
0000
0030
0000
0100
,  // measure 14
1000
0000
1000
0002
0000
0000
0203
0000
0000
0300
0000
0000
,  // measure 15
0010
0000
0010
1000
0000
1000
0001
0000
0001
0010
0000
0010
,  // measure 16
0100
0000
0100
1000
0000
1000
0002
0000
0000
0003
0000
0000
,  // measure 17
1000
0000
1000
0010
0000
0010
0100
0000
0100
0001
0000
0001
,  // measure 18
2000
3200
0320
0030
,  // measure 19
0002
0000
0000
2003
0000
0000
3010
0000
0010
0100
0000
0100
,  // measure 20
0001
0000
0001
1000
0000
1000
0200
0000
0000
0300
0000
0000
,  // measure 21
0010
0000
0010
0002
0000
0000
1003
0000
1000
0020
0000
0000
,  // measure 22
0030
2000
3004
0000
,  // measure 23
0023
0032
2003
3200
,  // measure 24
0310
0000
0010
0100
0000
0000
2200
0000
0000
3300
0000
0000
,  // measure 25
2000
3002
0203
0320
,  // measure 26
0130
0000
0100
0001
0000
0001
2000
0000
0000
3000
0000
0000
,  // measure 27
0002
0023
0230
0320
,  // measure 28
0032
0000
1003
0010
0000
0000
0220
0000
0000
0330
0000
0010
,  // measure 29
2000
0000
0000
3000
0000
0010
0200
0000
0000
0300
0000
0010
,  // measure 30
1000
0000
1000
0001
0000
0001
0200
0000
0000
0300
0000
0010
,  // measure 31
0100
0000
0100
0001
0000
0001
1000
0000
1000
0100
0000
0100
,  // measure 32
0010
0000
0010
0100
0000
0100
1000
0000
1000
0001
0000
0001
,  // measure 33
0100
0000
0100
0010
0000
0010
1000
0000
1000
0001
0000
0001
,  // measure 34
1000
0000
1000
0010
0000
0010
0400
0000
0000
0000
0000
0000
,  // measure 35
0301
0000
0001
0100
0000
0100
0010
0000
0010
1000
0000
1000
,  // measure 36
0001
0000
0001
0010
0000
0010
0200
0000
0000
0300
0000
0000
,  // measure 37
0010
0000
0010
0001
0000
0001
1000
0000
1000
0010
0000
0010
,  // measure 38
0200
0302
2003
3000
,  // measure 39
0001
0000
0001
0100
0000
0100
0010
0000
0010
1000
0000
1000
,  // measure 40
0001
0000
0001
0010
0000
0010
0200
0000
0000
0300
0000
0000
,  // measure 41
0020
0000
0031
1000
0000
1000
0001
0000
0001
2000
0000
0000
,  // measure 42
3000
0020
0430
0000
,  // measure 43
0302
2003
3200
0320
,  // measure 44
0130
0000
0100
1000
0000
0000
2002
0000
0000
3003
0000
0000
,  // measure 45
0002
0203
0320
0230
,  // measure 46
0301
0000
0001
1000
0000
1000
0020
0000
0000
0030
0000
0000
,  // measure 47
0200
0302
2003
3200
,  // measure 48
0310
0000
0010
0100
0000
0000
2200
0000
0000
3300
0000
1000
,  // measure 49
0002
0000
0000
0003
0000
1000
0020
0000
0000
0030
0000
1000
,  // measure 50
0001
0000
0001
0010
0000
0010
0400
0000
0000
0000
0000
0000
,  // measure 51
1300
0000
0000
0000
0000
1000
0100
0000
0000
0110
0000
0000
0010
0000
0000
0000
0000
0010
0001
0000
0000
1001
0000
0000
,  // measure 52
1000
0000
0000
0000
0000
1000
0010
0000
0000
0110
0000
0000
0100
0000
0000
0001
0000
0000
2000
0000
0000
3000
0000
0000
,  // measure 53
0002
0000
0000
0023
0000
0000
0230
0000
0000
2300
0000
3001
0010
0000
0010
0001
0000
0001
2000
0000
0000
3000
0000
0001
,  // measure 54
0020
0000
0000
0230
0000
0000
2300
0000
0000
3002
0000
0000
0013
0000
0010
0100
0000
0100
0020
0000
0000
0032
0000
0003
,  // measure 55
2002
0000
0000
3000
0000
1003
0020
0000
0000
0000
0000
0130
,  // measure 56
0002
0000
1003
0200
0000
0300
0220
0000
0000
0330
0000
0000
,  // measure 57
0020
0032
2003
3020
,  // measure 58
0230
0000
0301
2000
0000
0000
3400
0000
0000
0000
0000
0300
,  // measure 59
0220
0000
0000
0300
0000
0031
2000
0000
0000
0000
0000
3001
,  // measure 60
0200
0000
0301
2000
0000
3000
2020
0000
0000
3030
0000
0000
,  // measure 61
0020
0230
0302
2003
,  // measure 62
3100
0000
0100
0010
0000
0010
0002
0000
0000
2003
0000
0000
,  // measure 63
3200
0000
0000
0300
0000
0000
0000
0000
0010
0000
0000
0000
0002
0000
0000
0000
0000
0000
0000
0000
0023
0000
0000
0000
0000
0000
0000
0000
0230
0000
0000
0000
0000
0000
0000
0000
1300
0000
0000
0000
0000
0000
0000
0000
0000
0000
0000
0000
,  // measure 64
0002
0000
0000
0203
0000
0000
0320
0000
1030
0001
0000
0001
,  // measure 65
0010
0000
0010
0001
0000
0001
1000
0000
1000
0010
0000
0010
,  // measure 66
0100
0000
0100
0001
0000
0001
1000
0000
1000
0100
0000
0100
,  // measure 67
0010
0000
0010
0100
0000
0100
1000
0000
1000
0001
0000
0001
,  // measure 68
0100
0000
0100
0001
1000
0001
1000
0000
1000
0001
0000
0001
,  // measure 69
0100
0000
0100
0010
0000
0010
1000
0000
1000
0001
0000
0001
,  // measure 70
0010
0000
0010
0100
0000
0100
1000
0000
1000
0001
0000
0001
,  // measure 71
0100
0000
0100
0010
0000
0010
1000
0000
1000
0001
0000
0001
,  // measure 72
0100
0000
0100
0010
0000
0010
0100
0000
0100
0001
0000
0001
,  // measure 73
1000
0000
0000
0000
1000
0000
0040
0000
0000
0000
0000
0000
0000
0000
0000
0000
0000
0000
2030
0000
0000
3001
0000
0001
,  // measure 74
0010
0000
0010
0100
0000
0100
1000
0000
1000
0001
0000
0001
0100
0000
0100
0010
0000
0010
2000
0000
0000
0000
0000
3002
,  // measure 75
0000
0000
0000
0003
0000
0000
0020
0000
0000
0000
0000
0230
0000
0000
0000
0000
0000
0000
0300
0000
0000
0010
0000
0010
,  // measure 76
0001
0000
0001
1000
0000
1000
0010
0000
0010
0100
0000
0100
0001
0000
0001
1000
0000
0000
0002
0000
0000
0000
0000
0000
,  // measure 77
0203
0320
2000
3030
,  // measure 78
0000
0000
0000
0000
0000
0000
1001
0000
0000
0000
0000
0000
2000
0000
0000
0000
0000
3001
0020
0000
0000
0000
0000
0130
,  // measure 79
2000
0000
3100
0020
0000
0000
0032
0000
0000
0003
0000
0000
2000
0000
0000
3020
0000
0000
0230
0000
0000
0302
0000
0000
,  // measure 80
2003
0000
3001
0020
0000
0000
0230
0000
0000
0300
0000
0000
0020
0000
0000
0000
0000
0130
2000
0000
0000
0000
3000
0001
,  // measure 81
0020
0000
0130
2000
0000
0000
3002
0000
0000
0003
0000
0000
2000
0000
0000
3020
0000
0000
0230
0000
0000
0302
0000
0000
,  // measure 82
2003
0000
3100
0010
0000
0010
0400
0000
0000
0000
0300
0000
2200
0000
0000
0000
0000
0000
0300
0000
0000
0000
3001
0000
,  // measure 83
0200
0000
0000
0300
0000
0010
0200
0000
0301
1000
0000
0000
,  // measure 84
2020
3030
0020
0230
,  // measure 85
0302
0000
0000
2003
0000
0000
3020
0000
0130
0002
0000
0000
,  // measure 86
4003
0000
0000
0000
0000
3000
2200
0000
0000
3000
0000
0310
,  // measure 87
0002
0000
0000
0000
0000
1003
0020
0000
0130
0001
0000
0000
,  // measure 88
2002
3003
1020
0230
,  // measure 89
0302
0000
1003
0100
0000
0100
1000
0000
1000
0001
0000
0001
,  // measure 90
0040
0000
0032
2003
,  // measure 91
3020
0000
0000
0230
0000
0000
0320
0000
1030
0002
0000
0000
,  // measure 92
0020
0033
0020
0230
,  // measure 93
2300
0000
0000
3002
0000
0000
0103
0000
0100
0010
0000
0010
,  // measure 94
2000
3000
0002
0203
,  // measure 95
0320
0000
0000
2030
0000
0000
3002
0000
0013
0200
0000
0000
,  // measure 96
2300
0000
0000
3002
0000
0000
0023
0000
0000
0030
0000
0001
,  // measure 97
2000
0000
0000
3000
0000
0010
1000
0000
1000
0002
0000
0000
,  // measure 98
0203
0000
0000
0000
0000
0000
0300
0000
0000
0000
0000
0000
0020
0000
0000
2030
0000
0000
3002
0000
0000
0003
0000
1000
,  // measure 99
0200
0000
0000
0300
0000
0000
0020
0000
0000
0030
0000
0100
2000
0000
0000
3200
0000
0000
0310
0000
0010
0001
0000
0000
,  // measure 100
2000
0000
3020
0230
0002
0000
0000
0000
,  // measure 101
0000
0303
0000
0000
;

//---------------dance-single - Medium----------------
#NOTES:
     dance-single:
     Ace Of Hearts (2011):
     Medium:
     6:
     0.282,0.000,0.053,0.324,0.010: // measure 1
0000
0000
0000
0000
,  // measure 2
0000
0000
0000
0000
,  // measure 3
0000
0000
0000
0000
,  // measure 4
0000
0000
0000
0000
,  // measure 5
0000
0000
0000
0000
,  // measure 6
0000
0000
0000
0000
,  // measure 7
1000
1000
0010
0010
,  // measure 8
1000
0001
2000
3000
,  // measure 9
0001
0001
0010
0010
,  // measure 10
0001
1000
0002
0003
,  // measure 11
0010
0010
0100
0100
,  // measure 12
1000
0001
2000
3000
,  // measure 13
0001
0000
0001
0000
,  // measure 14
1000
0010
1000
0000
,  // measure 15
0001
0001
1000
1000
,  // measure 16
0100
0010
0100
0000
,  // measure 17
0010
0010
0001
0001
,  // measure 18
1000
0010
2000
3000
,  // measure 19
0001
0001
0100
0100
,  // measure 20
0010
0100
0010
0000
,  // measure 21
1000
1000
0001
0001
,  // measure 22
0000
1000
2000
3000
,  // measure 23
0010
0010
0100
0100
,  // measure 24
0001
1000
0002
0003
,  // measure 25
1000
1000
0100
0100
,  // measure 26
0010
0001
0020
0030
,  // measure 27
0001
0001
1000
1000
,  // measure 28
0010
1000
0020
0030
,  // measure 29
0100
0000
0100
0000
,  // measure 30
0001
0100
0001
0000
,  // measure 31
1000
1000
0001
0001
,  // measure 32
0010
0010
0100
0100
,  // measure 33
0010
0010
0001
0001
,  // measure 34
1000
0100
0100
0000
,  // measure 35
0010
0010
0100
0100
,  // measure 36
1000
0001
1000
0000
,  // measure 37
0001
0001
0100
0100
,  // measure 38
0010
1000
0010
0000
,  // measure 39
1000
1000
0001
0001
,  // measure 40
0100
0001
0200
0300
,  // measure 41
0001
0001
1000
1000
,  // measure 42
0000
0010
0020
0030
,  // measure 43
1000
1000
0001
0001
,  // measure 44
0100
0001
0200
0300
,  // measure 45
0010
0010
1000
1000
,  // measure 46
0001
0010
0002
0003
,  // measure 47
0010
0010
0100
0100
,  // measure 48
1000
0001
2000
3000
,  // measure 49
0010
0000
0010
0000
,  // measure 50
1000
0001
1000
0000
,  // measure 51
0020
0030
0200
0300
,  // measure 52
0002
0000
0003
0000
0100
0100
0100
0000
,  // measure 53
0002
0003
2000
3000
,  // measure 54
0200
0000
0300
0000
1000
1000
1000
0000
,  // measure 55
2002
0000
0000
0000
3003
0000
0022
0000
0000
0000
0033
0000
,  // measure 56
0010
0100
0010
0000
,  // measure 57
0001
0001
1000
1000
,  // measure 58
0010
1000
0020
0030
,  // measure 59
0220
0000
0000
0000
0330
0000
0202
0000
0000
0000
0303
0000
,  // measure 60
0001
1000
0002
0003
,  // measure 61
0010
0010
0001
0001
,  // measure 62
1000
0010
1000
0001
,  // measure 63
1000
0000
0000
0002
0000
0000
0000
0003
0000
1001
0000
0000
,  // measure 64
2000
3200
0320
0031
,  // measure 65
0001
1000
1000
0010
,  // measure 66
0010
0100
0100
0001
,  // measure 67
0001
1000
1000
0001
,  // measure 68
0100
0004
0003
1000
,  // measure 69
1000
0010
0010
0100
,  // measure 70
0100
0001
0001
1000
,  // measure 71
1000
0100
0100
0010
,  // measure 72
0010
0100
0100
1000
,  // measure 73
0001
2000
0000
3000
,  // measure 74
0001
0000
0000
0000
0000
0000
0001
0000
0000
0000
0000
0000
0001
0000
0000
0000
0000
0000
2002
0000
0000
0000
0000
3003
,  // measure 75
0000
0000
0000
0000
0000
0000
2200
0000
0000
0000
0000
3300
0000
0000
0000
0000
0000
0000
0000
0000
0000
0000
0000
0000
,  // measure 76
0100
0010
0010
0002
,  // measure 77
0023
0230
2300
3000
,  // measure 78
0000
0000
0002
2003
,  // measure 79
3010
1000
0010
0000
1000
1000
0001
0001
,  // measure 80
1000
0100
1000
0000
0002
0000
0203
0000
,  // measure 81
0310
0100
0020
0030
1000
1000
0001
0001
,  // measure 82
1000
0000
0000
1000
0000
0000
0001
0000
0000
0001
0000
0000
0022
0000
0000
0000
0000
0000
0000
0000
0033
0000
0000
0000
,  // measure 83
2200
0000
0000
0000
3300
0000
1000
0000
0000
0001
0000
0000
,  // measure 84
2000
3000
0001
0001
,  // measure 85
0100
0100
0001
1000
,  // measure 86
0002
0000
0000
0003
0000
0000
0202
0000
0000
0000
0303
0000
,  // measure 87
2020
0000
0000
0000
3030
0000
1000
0000
0000
0001
0000
0000
,  // measure 88
2000
3000
0001
0001
,  // measure 89
0100
0100
0010
0010
,  // measure 90
1000
0001
1000
1000
,  // measure 91
0001
0000
0000
0001
0000
0000
1000
0000
1000
0001
0000
0000
,  // measure 92
2000
3000
0001
0001
,  // measure 93
1000
0000
0000
1000
0000
0000
0001
0000
0001
0010
0000
0010
,  // measure 94
0002
0003
1000
1000
,  // measure 95
0001
0000
0000
0001
0000
0000
1000
0000
1000
0100
0000
0000
,  // measure 96
0020
0130
1000
0000
,  // measure 97
0001
0000
1000
0010
,  // measure 98
1000
0000
0000
0000
0001
0010
0020
0030
,  // measure 99
0002
0000
2003
0000
3100
0100
0010
0010
,  // measure 100
0002
0000
1003
0200
0020
0000
0000
0000
,  // measure 101
0000
0330
0000
0000
;

//---------------dance-single - Easy----------------
#NOTES:
     dance-single:
     Ace Of Hearts (2011):
     Easy:
     3:
     0.183,0.000,0.034,0.150,0.000: // measure 1
0000
0000
0000
0000
,  // measure 2
0000
0000
0000
0000
,  // measure 3
0000
0000
0000
0000
,  // measure 4
0000
0000
0000
0000
,  // measure 5
0000
0000
0000
0000
,  // measure 6
0000
0000
0000
0000
,  // measure 7
1000
0000
1000
0000
,  // measure 8
0010
0010
0010
0000
,  // measure 9
1000
0000
1000
0000
,  // measure 10
0001
0001
0001
0000
,  // measure 11
0010
0000
0010
0000
,  // measure 12
0100
0100
0100
0000
,  // measure 13
1000
0000
1000
0000
,  // measure 14
0001
0001
0001
0000
,  // measure 15
1000
0000
1000
0000
,  // measure 16
0100
0100
0100
0000
,  // measure 17
1000
0000
1000
0000
,  // measure 18
0002
0000
0003
0000
,  // measure 19
0010
0000
0010
0000
,  // measure 20
0001
0001
0001
0000
,  // measure 21
1000
0000
1000
0000
,  // measure 22
0000
0010
0010
0000
,  // measure 23
1000
0000
1000
0000
,  // measure 24
0001
0001
0001
0000
,  // measure 25
0100
0000
0100
0000
,  // measure 26
0010
0010
0010
0000
,  // measure 27
1000
0000
1000
0000
,  // measure 28
0001
0001
0001
0000
,  // measure 29
0010
0000
0010
0000
,  // measure 30
0100
0100
0100
0000
,  // measure 31
1000
0000
1000
0000
,  // measure 32
0001
0000
0001
0000
,  // measure 33
0100
0000
0100
0000
,  // measure 34
0001
0000
0001
0000
,  // measure 35
1000
0000
1000
0000
,  // measure 36
0100
0100
0100
0000
,  // measure 37
0010
0000
0010
0000
,  // measure 38
0200
0000
0300
0000
,  // measure 39
1000
0000
1000
0000
,  // measure 40
0001
0001
0001
0000
,  // measure 41
1000
0000
1000
0000
,  // measure 42
0000
0010
0010
0000
,  // measure 43
1000
0000
1000
0000
,  // measure 44
0001
0001
0001
0000
,  // measure 45
0010
0000
0010
0000
,  // measure 46
0100
0100
0100
0000
,  // measure 47
1000
0000
1000
0000
,  // measure 48
0001
0001
0001
0000
,  // measure 49
1000
0000
1000
0000
,  // measure 50
0100
0100
0100
0000
,  // measure 51
0020
0030
0002
0003
,  // measure 52
2000
3000
0020
0030
,  // measure 53
2000
3000
0002
0003
,  // measure 54
0020
0030
0002
0003
,  // measure 55
1002
0000
1000
0000
,  // measure 56
1003
1000
1000
0000
,  // measure 57
0010
0000
0010
0000
,  // measure 58
0100
0100
0100
0000
,  // measure 59
0120
0000
0100
0000
,  // measure 60
0130
0100
0100
0000
,  // measure 61
0001
0000
0001
0000
,  // measure 62
1000
1000
1000
0000
,  // measure 63
0100
0000
0000
0000
,  // measure 64
0020
0000
0000
0031
,  // measure 65
0000
0001
0000
1000
,  // measure 66
1000
1000
0000
0010
,  // measure 67
0000
0010
0000
0100
,  // measure 68
0100
0100
0000
0001
,  // measure 69
0000
0001
0000
1000
,  // measure 70
0000
1000
0000
0001
,  // measure 71
0000
0001
0000
0010
,  // measure 72
0000
0010
0000
0001
,  // measure 73
0000
0002
0000
0003
,  // measure 74
0000
1000
0000
0002
,  // measure 75
0003
0020
0030
0001
,  // measure 76
0000
0001
0000
1000
,  // measure 77
1000
0010
0020
0030
,  // measure 78
0000
0000
2000
0001
,  // measure 79
3001
0001
0001
0000
0010
0000
0010
0000
,  // measure 80
0100
0100
0100
0000
0020
0000
0100
0000
,  // measure 81
0130
0100
0100
0000
1000
0000
1000
0000
,  // measure 82
0100
0100
0220
0330
,  // measure 83
2002
3003
0001
0001
,  // measure 84
0001
0000
1000
0000
,  // measure 85
1000
0000
0100
0100
,  // measure 86
0100
0000
0220
0330
,  // measure 87
2002
3003
1000
1000
,  // measure 88
1000
0000
0010
0000
,  // measure 89
0010
0000
0200
0000
,  // measure 90
0300
0000
0001
0000
,  // measure 91
0001
0000
1000
1000
,  // measure 92
1000
0000
0010
0000
,  // measure 93
0010
0000
0100
0100
,  // measure 94
0100
0000
0001
0000
,  // measure 95
0001
0000
1000
1000
,  // measure 96
1000
0000
0001
0000
,  // measure 97
0010
0000
0001
0001
,  // measure 98
0001
0000
1000
1000
,  // measure 99
0010
0010
0100
0100
,  // measure 100
0002
0003
2002
0000
,  // measure 101
0000
3003
0000
0000
;

//---------------dance-single - Novice----------------
#NOTES:
     dance-single:
     Ace Of Hearts (2011):
     Beginner:
     1:
     0.113,0.000,0.024,0.257,0.000: // measure 1
0000
0000
0000
0000
,  // measure 2
0000
0000
0000
0000
,  // measure 3
0000
0000
0000
0000
,  // measure 4
0000
0000
0000
0000
,  // measure 5
0000
0000
0000
0000
,  // measure 6
0000
0000
0000
0000
,  // measure 7
0001
0000
0000
0000
,  // measure 8
0002
0000
0003
0000
,  // measure 9
1000
0000
0000
0000
,  // measure 10
2000
0000
3000
0000
,  // measure 11
0001
0000
0000
0000
,  // measure 12
0002
0000
0003
0000
,  // measure 13
0010
0000
0000
0000
,  // measure 14
0020
0000
0030
0000
,  // measure 15
0001
0000
0000
0000
,  // measure 16
0001
0000
0000
0000
,  // measure 17
1000
0000
0000
0000
,  // measure 18
2000
0000
3000
0000
,  // measure 19
0010
0000
0000
0000
,  // measure 20
0010
0000
0000
0000
,  // measure 21
0200
0000
0300
0000
,  // measure 22
0002
0000
0003
0000
,  // measure 23
1000
0000
0000
0000
,  // measure 24
2000
0000
3000
0000
,  // measure 25
0010
0000
0000
0000
,  // measure 26
0020
0000
0030
0000
,  // measure 27
1000
0000
0000
0000
,  // measure 28
2000
0000
3000
0000
,  // measure 29
0001
0000
0000
0000
,  // measure 30
0002
0000
0003
0000
,  // measure 31
2000
0000
3000
0000
,  // measure 32
0002
0000
0003
0000
,  // measure 33
0020
0000
0030
0000
,  // measure 34
0200
0000
0300
0000
,  // measure 35
1000
0000
0000
0000
,  // measure 36
1000
0000
0000
0000
,  // measure 37
0001
0000
0000
0000
,  // measure 38
0002
0000
0003
0000
,  // measure 39
0010
0000
0000
0000
,  // measure 40
0020
0000
0030
0000
,  // measure 41
0200
0000
0300
0000
,  // measure 42
2000
0000
3000
0000
,  // measure 43
0001
0000
0000
0000
,  // measure 44
0002
0000
0003
0000
,  // measure 45
0100
0000
0000
0000
,  // measure 46
0200
0000
0300
0000
,  // measure 47
0010
0000
0000
0000
,  // measure 48
0020
0000
0030
0000
,  // measure 49
1000
0000
0000
0000
,  // measure 50
2000
0000
3000
0000
,  // measure 51
0001
0000
0001
0000
,  // measure 52
1000
0000
1000
0000
,  // measure 53
0100
0000
0100
0000
,  // measure 54
1000
0000
1000
0000
,  // measure 55
2002
0000
3003
0000
,  // measure 56
0002
0000
0003
0000
,  // measure 57
1000
0000
0000
0000
,  // measure 58
0020
0000
0030
0000
,  // measure 59
0220
0000
0330
0000
,  // measure 60
0200
0000
0300
0000
,  // measure 61
0001
0000
0000
0000
,  // measure 62
0002
0000
0000
0000
,  // measure 63
0003
0000
0000
0000
,  // measure 64
0000
0000
0000
2000
,  // measure 65
0000
3000
0000
0010
,  // measure 66
0000
0000
0000
0020
,  // measure 67
0000
0030
0000
1000
,  // measure 68
0000
0000
0000
0002
,  // measure 69
0000
0003
0000
0010
,  // measure 70
0000
0000
0000
0001
,  // measure 71
0000
0000
0000
1000
,  // measure 72
0000
0000
0000
0020
,  // measure 73
0000
0030
0000
1000
,  // measure 74
0000
1000
0000
0002
,  // measure 75
0003
0002
0003
0010
,  // measure 76
0000
0010
0000
0200
,  // measure 77
0300
0200
0300
0000
,  // measure 78
0000
0000
2000
3000
,  // measure 79
1000
0000
0001
0000
,  // measure 80
0001
0000
0020
0030
,  // measure 81
0010
0000
0001
0000
,  // measure 82
0001
0000
2002
0000
,  // measure 83
3003
0000
2000
0000
,  // measure 84
3000
0000
0010
0000
,  // measure 85
0000
0000
0010
0000
,  // measure 86
0000
0000
0220
0000
,  // measure 87
0330
0000
0200
0000
,  // measure 88
0300
0000
0001
0000
,  // measure 89
0000
0000
0001
0000
,  // measure 90
0000
0000
0010
0000
,  // measure 91
0000
0000
0020
0000
,  // measure 92
0030
0000
0001
0000
,  // measure 93
0000
0000
0002
0000
,  // measure 94
0003
0000
1000
0000
,  // measure 95
0000
0000
2000
0000
,  // measure 96
3000
0000
0010
0000
,  // measure 97
0000
0000
0020
0000
,  // measure 98
0030
0000
1000
0000
,  // measure 99
1000
0000
0001
0000
,  // measure 100
0001
0000
2002
0000
,  // measure 101
0000
3003
0000
0000
;
