#TITLE:Shinryaku no Susume;
#SUBTITLE:;
#ARTIST:Ultra-Prism;
#TITLETRANSLIT:;
#SUBTITLETRANSLIT:;
#ARTISTTRANSLIT:;
#GENRE:Silly J-Rock;
#CREDIT:Ace Of Hearts;
#BANNER:Shinryaku no Susume - bn.png;
#BACKGROUND:Shinryaku no Susume - bg.png;
#LYRICSPATH:;
#CDTITLE:Ace Of Hearts.png;
#MUSIC:Shinryaku no Susume.ogg;
#OFFSET:0.260;
#SAMPLESTART:60.600;
#SAMPLELENGTH:12.000;
#SELECTABLE:YES;
#BPMS:0.000=185.000;
#STOPS:;
#BGCHANGES:1.750=Squid Girl S1 OP.avi=1.000=0=0=1=====,
99999=-nosongbg-=1.000=0=0=0 // don't automatically add -songbackground-
;
#KEYSOUNDS:;

//---------------dance-single - Hard----------------
#NOTES:
     dance-single:
     Ace Of Hearts (2011):
     Hard:
     9:
     0.719,0.000,0.344,1.000,0.039: // measure 1
0000
0000
0000
0000
,  // measure 2
0000
0000
0000
0000
,  // measure 3
0000
0000
0000
0000
,  // measure 4
0000
0000
0000
0000
,  // measure 5
0000
0000
0000
0000
,  // measure 6
0002
0000
2003
0000
3010
0100
0000
0002
,  // measure 7
0000
1003
0010
0200
0000
0302
0000
0003
,  // measure 8
2000
0000
3200
0000
0310
0001
0000
2000
,  // measure 9
0000
3001
0100
0020
0000
0000
0030
0000
,  // measure 10
1010
0000
0000
0102
0000
0000
1003
0000
,  // measure 11
0200
0000
0310
0002
0000
0000
0003
0000
,  // measure 12
1000
1000
0010
0100
0001
0100
0010
1000
,  // measure 13
0001
0001
0200
0300
,  // measure 14
0020
0000
2030
0000
3001
0010
0001
2000
,  // measure 15
0000
3001
0100
0001
2000
0000
3000
0000
,  // measure 16
0002
0000
0023
0000
0130
1000
0100
0020
,  // measure 17
0000
0130
2000
0000
3002
0003
2002
3003
,  // measure 18
2000
0000
3020
0000
0130
0002
0000
0023
,  // measure 19
0000
0130
1000
0000
2000
0000
3000
0000
,  // measure 20
0001
0100
0001
0100
0020
0M3M
1010
0M0M
,  // measure 21
1000
0000
0001
0000
1000
0000
0001
0000
0020
0000
0030
0000
0001
0010
0001
0000
,  // measure 22
1000
0000
0020
0000
0130
0001
1000
0002
,  // measure 23
0000
0013
0100
0000
0200
0000
0300
0000
,  // measure 24
0020
0000
0032
0000
1003
0010
0100
0002
,  // measure 25
0000
1003
0010
0000
0020
0000
0130
0000
,  // measure 26
0001
0000
2000
0000
3001
0100
0001
2000
,  // measure 27
0000
3100
0010
0100
2000
0000
3000
0000
,  // measure 28
0001
0020
0000
0031
1000
00MM
1100
00MM
,  // measure 29
0100
0000
0020
0000
0000
0000
0130
0000
4000
0004
0000
0000
0000
0000
3003
0000
,  // measure 30
0002
0203
0320
2030
,  // measure 31
3002
0000
0103
0020
0000
1030
1000
0000
,  // measure 32
0002
0000
0013
0000
0200
0000
0310
0001
,  // measure 33
2000
0000
3001
0020
0000
0130
0100
0000
,  // measure 34
2000
0000
0000
3002
0000
0000
0203
0000
,  // measure 35
0320
0000
1030
0002
0000
0013
0010
0100
,  // measure 36
2000
0000
3001
0020
0000
0000
0000
0000
,  // measure 37
0130
0000
1000
0000
0001
0000
0010
0000
0000
0000
0100
0000
1000
0100
1000
0000
,  // measure 38
0002
0203
0320
2030
,  // measure 39
3010
0000
0100
0002
0000
1003
2000
0000
,  // measure 40
3200
0320
0230
2300
,  // measure 41
3002
0000
0013
0200
0000
0310
0020
0000
,  // measure 42
0031
1000
0100
0020
0030
0100
1000
0001
,  // measure 43
0100
0010
1000
0002
0003
0010
0100
1000
,  // measure 44
0001
0010
0001
1000
0001
0000
0000
0000
,  // measure 45
2000
0000
3200
0000
1300
0001
0000
0202
,  // measure 46
0000
0000
0000
0303
,  // measure 47
0001
1000
0001
0100
0020
0030
1010
0000
,  // measure 48
1000
0000
0000
0000
1002
0000
0000
0013
0100
0000
1000
0000
0100
0000
0010
0000
,  // measure 49
0001
0000
0001
0020
0000
0130
1100
0000
,  // measure 50
1000
0000
0000
0000
1002
0000
0000
0103
0010
0000
1000
0000
0010
0000
0100
0000
,  // measure 51
0001
0000
0001
2000
0000
3100
0110
0000
,  // measure 52
0010
0001
1000
0001
0010
0200
0000
0300
,  // measure 53
0010
0000
0100
4000
0000
3000
0000
0000
,  // measure 54
0001
0010
0100
0010
0001
0000
0020
0000
,  // measure 55
0130
0000
1000
0001
0100
0000
0220
0330
,  // measure 56
0010
0000
0000
0000
1020
0000
0000
1030
0001
0000
0010
0000
0100
0000
0010
0000
,  // measure 57
0001
0000
0001
2000
0000
3010
0210
0000
,  // measure 58
0301
0000
0000
0000
2001
0000
0000
3100
0010
0000
0100
0000
1000
0000
0001
0000
,  // measure 59
0100
0000
0100
0020
0000
1030
1001
0000
,  // measure 60
0002
0000
0023
0000
0130
2000
0000
3000
,  // measure 61
0002
0000
1003
0400
0000
0300
0000
0000
,  // measure 62
0010
0001
0010
0100
2000
0000
3001
0100
,  // measure 63
0010
1000
0010
0100
0001
0000
1001
0000
,  // measure 64
11MM
MM11
1MM1
1M1M
,  // measure 65
M1M1
1MM1
1M1M
M1M1
,  // measure 66
1MM1
MM11
11MM
1MM1
,  // measure 67
0021
0000
0130
2000
0000
3001
0101
0000
,  // measure 68
0200
0000
0310
0100
0002
0000
1003
0100
,  // measure 69
0010
0100
1000
0002
0200
0000
1000
0000
,  // measure 70
0303
0000
0000
0000
;

//---------------dance-single - Medium----------------
#NOTES:
     dance-single:
     Ace Of Hearts (2011):
     Medium:
     7:
     0.447,0.000,0.011,0.732,0.000:
0000
0000
0000
0000
,
0000
0000
0000
0000
,
0000
0000
0000
0000
,
0000
0000
0000
0000
,
0000
0000
0000
0000
,
0002
0000
0013
0000
0001
1000
0000
0010
,
0000
0100
0000
0001
0000
0200
0000
0300
,
0002
0000
2003
0000
3001
0100
0000
0020
,
0000
0000
1030
0002
0000
0003
0000
0000
,
2000
0000
0000
3200
0000
0000
0310
0000
,
0002
0000
0000
2003
0000
0000
3000
0000
,
0010
0010
1000
1000
,
0001
0001
0200
0300
,
0020
0000
1030
0000
0001
0000
1000
0010
,
0000
0010
1000
0000
1000
0000
0000
0000
,
0020
0000
0130
0000
0002
0000
1003
0100
,
0000
0100
1000
0000
0002
0000
0003
0000
,
0200
0000
0301
0000
1000
0000
0000
0020
,
0000
1030
0001
0000
0200
0000
0300
0000
,
0004
0000
0003
0000
,
4000
0000
3000
0000
,
0010
0000
1000
0000
0001
0010
0000
0200
,
0000
0310
0001
0000
0001
0000
0000
0000
,
1000
0000
0010
0000
0100
0001
0000
2000
,
0000
3001
0100
0000
0200
0000
0300
0000
,
0010
0000
2000
0000
3001
0010
0000
0200
,
0000
0310
0001
0000
0001
0000
0000
0000
,
0010
0010
0000
0100
0100
0000
0000
0000
,
1000
1000
0000
0001
0001
0000
0000
0000
,
0010
0010
0001
0001
,
2000
0000
0000
3200
0000
0000
0300
0000
,
0020
0230
2300
3001
,
2000
0000
3001
0020
0000
0000
0030
0000
,
0002
0000
0000
2003
0000
0000
3020
0000
,
0230
0000
0000
0302
0000
0000
0003
1000
,
0100
0000
0100
0020
0000
0000
0000
0000
,
0000
0000
0030
0000
,
0002
2003
3200
2300
,
3001
0000
0010
0200
0000
0300
0000
0000
,
0020
0032
2003
3002
,
0103
0000
0010
0200
0000
0300
0000
0000
,
0040
0000
0000
0030
0000
0000
0000
0000
,
0400
0000
0000
0300
0000
0000
0000
0000
,
0004
0000
0003
0000
,
2000
0000
3200
0000
0310
0002
0000
2000
,
0000
0000
0000
3003
,
0001
0000
1000
0010
1000
0000
0000
0000
,
0001
0000
0020
0000
0031
1000
0000
1000
,
0001
0000
1000
0020
0000
0000
0030
0000
,
1000
0000
0001
0000
0010
0100
0000
0100
,
0010
0000
0001
2000
0000
0000
3000
0000
,
0001
0000
0010
0000
0001
2000
0000
0000
,
3010
0000
1000
0002
0000
0003
0000
0000
,
0010
0001
1000
0010
,
1000
0010
0100
0000
,
0001
0000
2000
0000
3001
0010
0000
0010
,
0001
0000
1000
0020
0000
0000
0030
0000
,
1000
0000
0002
0000
1003
0010
0000
0010
,
1000
0000
0001
0200
0000
0000
0300
0000
,
0010
0000
2000
0000
3001
0020
0000
0000
,
0130
0000
0010
0002
0000
0003
0000
0000
,
1000
0100
1000
0001
,
0010
0001
1000
0000
,
001M
001M
M100
M100
,
00M1
00M1
1M00
1M00
,
00M1
00M1
M010
M010
,
0100
0000
1000
0002
0000
0000
0003
0000
,
1000
0010
2000
3001
,
0010
0100
1000
2002
,
3003
0000
0000
0000
;

//---------------dance-single - Easy----------------
#NOTES:
     dance-single:
     Ace Of Hearts (2011):
     Easy:
     5:
     0.271,0.000,0.022,0.200,0.000:
0000
0000
0000
0000
,
0000
0000
0000
0000
,
0000
0000
0000
0000
,
0000
0000
0000
0000
,
0000
0000
0000
0000
,
0001
0000
0001
0000
0001
0000
0000
1000
,
0000
0000
0000
1000
0000
0000
0000
0000
,
0100
0000
0100
0000
0100
0000
0000
0010
,
0000
0000
0000
0010
0000
0000
0000
0000
,
0001
0000
0000
0001
0000
0000
0000
0000
,
1000
0000
0000
1000
0000
0000
0000
0000
,
0001
0001
0001
0001
,
0010
0010
0001
0000
,
1000
1000
1000
0000
,
0010
0010
0010
0000
,
0100
0100
0100
0000
,
0001
0001
0001
0000
,
1000
1000
1000
0000
,
0100
0100
0100
0000
,
0020
0000
0030
0000
,
0002
0000
0003
0000
,
1000
1000
1000
0000
,
0100
0100
0100
0000
,
1000
1000
1000
0000
,
0001
0001
0001
0000
,
0100
0100
0100
0000
,
0001
0001
0001
0000
,
2000
0000
3000
0000
,
0020
0000
0030
0000
,
1000
0000
1000
0000
,
2000
0000
3000
0000
,
0100
0000
0100
0000
,
0200
0000
0300
0000
,
0010
0000
0010
0000
,
0020
0000
0030
0000
,
0001
0000
0000
0002
0000
0000
0000
0000
,
0000
0000
0003
0000
,
0010
0010
0010
0000
,
0100
0000
0000
0100
0000
0000
0000
0000
,
1000
1000
1000
0000
,
0001
0000
0000
0001
0000
0000
0000
0000
,
0020
0000
0000
0030
0000
0000
0000
0000
,
0200
0000
0000
0300
0000
0000
0000
0000
,
2000
0000
3000
0000
,
0001
0000
0001
0000
0001
0000
0000
2002
,
0000
0000
0000
3003
,
1000
1000
1000
0000
,
0010
0010
0010
0000
,
1000
0000
0000
2000
0000
0000
3000
0000
,
0001
0001
0001
0000
,
0010
0000
0000
0020
0000
0000
0030
0000
,
0001
0001
0001
0000
,
1000
0000
0000
1000
0000
0000
0000
0000
,
0010
0010
0010
0000
,
0100
0100
0100
0000
,
0001
0001
0001
0000
,
0100
0000
0000
0200
0000
0000
0300
0000
,
0001
0001
0001
0000
,
1000
0000
0000
2000
0000
0000
3000
0000
,
0001
0001
0001
0000
,
0010
0000
0000
0010
0000
0000
0000
0000
,
0100
0100
0100
0000
,
1000
1000
1000
0000
,
0001
0M01
0001
0000
,
0100
010M
0100
0000
,
0010
0M10
0010
0000
,
1000
0000
0000
2000
0000
0000
3000
0000
,
0001
0000
0010
0000
,
0001
0001
0001
1001
;

//---------------dance-single - Novice----------------
#NOTES:
     dance-single:
     Ace Of Hearts (2011):
     Beginner:
     3:
     0.201,0.000,0.022,0.388,0.000:
0000
0000
0000
0000
,
0000
0000
0000
0000
,
0000
0000
0000
0000
,
0000
0000
0000
0000
,
0000
0000
0000
0000
,
1000
0000
1000
0000
,
2000
0000
3000
0000
,
0001
0000
0001
0000
,
0002
0000
0003
0000
,
0020
0000
0030
0000
,
0200
0000
0300
0000
,
1000
0000
1000
0000
,
2000
0000
3000
0000
,
0001
0000
0001
0000
,
0002
0000
0003
0000
,
1000
0000
1000
0000
,
2000
0000
3000
0000
,
0010
0000
0010
0000
,
0020
0000
0030
0000
,
2000
0000
3000
0000
,
0002
0000
0003
0000
,
0010
0000
0010
0000
,
0020
0000
0030
0000
,
0100
0000
0100
0000
,
0200
0000
0300
0000
,
1000
0000
1000
0000
,
2000
0000
3000
0000
,
0002
0000
0003
0000
,
2000
0000
3000
0000
,
0010
0000
0010
0000
,
0020
0000
0030
0000
,
0100
0000
0100
0000
,
0200
0000
0300
0000
,
0001
0000
0001
0000
,
0002
0000
0003
0000
,
1000
0000
2000
0000
,
0000
0000
3000
0000
,
0001
0000
0001
0000
,
0002
0000
0003
0000
,
0010
0000
0010
0000
,
0020
0000
0030
0000
,
0200
0000
0300
0000
,
2000
0000
3000
0000
,
0002
0000
0003
0000
,
1000
0000
1000
0000
,
2002
0000
0000
3003
,
0000
0000
0000
0000
,
0001
0000
0001
0000
,
0002
0000
0003
0000
,
0100
0000
0100
0000
,
0200
0000
0300
0000
,
0010
0000
0010
0000
,
0010
0000
0000
0000
,
1000
0000
1000
0000
,
2000
0000
3000
0000
,
0001
0000
0001
0000
,
0002
0000
0003
0000
,
0010
0000
0010
0000
,
0020
0000
0030
0000
,
0001
0000
0001
0000
,
0001
0000
0000
0000
,
2000
0000
3000
0000
,
0020
0000
0030
0000
,
0100
0000
0100
0000
,
0001
0000
0001
0000
,
1000
0000
1000
0000
,
0020
0000
0030
0000
,
1000
0000
1000
0000
,
2000
0000
3000
1001
;

//---------------dance-single - Expert----------------
#NOTES:
     dance-single:
     Ace Of Hearts (2011):
     Challenge:
     11:
     0.916,0.000,1.000,1.000,0.061: // measure 1
0000
0000
0000
0000
,  // measure 2
0000
0000
0000
0000
,  // measure 3
0000
0000
0000
0000
,  // measure 4
0000
0000
0000
0000
,  // measure 5
0000
0000
0000
0000
,  // measure 6
0102
0000
0000
0000
2003
0000
0000
3000
1020
0000
0130
0000
0000
0000
0102
0000
,  // measure 7
0000
1003
0010
0210
0000
0302
0000
0003
,  // measure 8
2001
0000
3100
0000
0120
0031
0000
2001
,  // measure 9
0000
3010
0100
0002
0000
1003
0100
0010
,  // measure 10
0012
1003
0010
0200
0000
0301
1000
0100
,  // measure 11
0120
0000
0031
2000
0000
3001
0101
0000
,  // measure 12
0110
0010
1010
1000
1001
0001
0011
0010
,  // measure 13
0110
0011
2200
3300
,  // measure 14
1002
0000
0103
0000
0010
1000
0001
2000
,  // measure 15
0000
3010
M001
0010
1000
0001
0010
0100
,  // measure 16
2100
0000
3002
0000
0103
0010
1000
0002
,  // measure 17
0000
2003
0100
0000
0200
0000
0001
3300
,  // measure 18
1002
0000
0103
0000
0120
1030
0000
1002
,  // measure 19
0000
0023
0100
0000
0032
1003
0001
0100
,  // measure 20
0110
0010
1010
1000
2002
00M0
0M10
30M3
,  // measure 21
0101
0000
0100
0000
0110
0000
0010
0000
2020
0000
3030
0000
1000
0001
0010
0000
,  // measure 22
0210
0000
1300
0000
0001
0100
0010
2010
,  // measure 23
0000
3002
0100
0000
2000
0000
3003
0000
,  // measure 24
2001
0000
3200
0000
0310
100M
0010
0002
,  // measure 25
0000
2003
0010
0000
0020
0000
0001
3030
,  // measure 26
0110
0000
0200
0000
0301
0100
100M
0200
,  // measure 27
0000
0310
M001
0010
4000
0000
3000
0000
,  // measure 28
1010
M002
0M03
10M0
2200
00M0
001M
3300
,  // measure 29
0011
0000
200M
0000
00M0
0000
3M01
0000
1000
0010
1000
0010
0100
0001
0100
0001
,  // measure 30
2000
0000
0200
3000
0020
0300
2000
0030
,  // measure 31
0002
0000
3000
0000
0203
0000
2300
0000
0000
3000
1001
0000
1001
0000
0001
0000
,  // measure 32
0200
0000
0020
0300
0002
0030
2003
3200
,  // measure 33
0020
0300
1030
0002
0000
1003
1100
0100
,  // measure 34
0120
0000
0000
2000
0000
0030
0002
3000
,  // measure 35
0200
0003
2300
3002
0000
1003
1010
0010
,  // measure 36
0210
0000
0301
2001
0000
3100
0010
0001
,  // measure 37
1001
0000
1000
0000
0100
0000
0010
0000
0000
0000
0100
1000
0001
1000
0100
0000
,  // measure 38
0120
0000
0032
0000
2000
0003
0200
3000
,  // measure 39
0002
0300
2003
3020
0000
0031
1001
1000
,  // measure 40
1020
0000
0200
0030
2000
0300
0002
3000
,  // measure 41
0020
0003
1030
0002
0000
0103
0120
0030
,  // measure 42
1010
1000
0001
0011
0000
0010
0110
0100
,  // measure 43
1100
1000
0001
0101
0000
0100
0110
0010
,  // measure 44
1010
1000
0001
0100
0110
0000
0000
0000
,  // measure 45
2020
3030
2002
3003
0012
1003
0000
2002
,  // measure 46
0M03
0010
0M01
0001
0M10
0010
3M01
0001
,  // measure 47
1001
1100
0011
1100
1001
0000
1011
MM00
,  // measure 48
0011
0000
0000
0000
2100
0000
0000
3001
0100
0000
0010
0000
M001
0000
0010
0000
,  // measure 49
1010
0000
2000
0200
0000
0000
0010
3300
,  // measure 50
0110
0000
0000
0000
0012
0000
0000
1003
0100
0000
M001
0000
0100
0000
1000
0000
,  // measure 51
1001
0000
0002
0200
0000
0010
1010
0303
,  // measure 52
0001
1000
0100
M001
0100
2000
0000
0000
,  // measure 53
3010
0000
0100
0004
0000
0003
0000
0000
,  // measure 54
1000
0010
MM01
0010
1000
0000
1001
0000
,  // measure 55
0001
0100
10MM
0200
0002
0000
1000
0303
,  // measure 56
1001
0000
0000
0000
1200
0000
0000
0310
1000
0000
M010
0000
0001
0000
1000
0000
,  // measure 57
0010
0000
0020
0200
0000
0000
1000
0330
,  // measure 58
0101
0000
0000
0000
2001
0000
0000
3010
0001
0000
001M
0000
1000
0000
0001
0000
,  // measure 59
1000
0000
2000
0200
0000
0010
0011
3300
,  // measure 60
0200
0000
0320
0000
0031
2000
0000
3000
,  // measure 61
0010
0100
0010
4000
0000
3000
0000
0000
,  // measure 62
0001
0010
10MM
0010
0001
0000
1000
0010
,  // measure 63
M110
0M10
0011
0M10
0110
0000
0101
0000
,  // measure 64
11M1
110M
111M
M110
,  // measure 65
M111
011M
111M
11M0
,  // measure 66
11M1
M101
M111
0M11
,  // measure 67
2001
0000
3010
0210
0000
0301
1001
0000
,  // measure 68
0021
0000
0130
1000
1002
0000
0103
0010
,  // measure 69
1010
1000
1100
0100
0220
0000
1001
0000
,  // measure 70
0330
0000
0000
0000
;
